(Concerto, Orchestral) Панчо Владигеров - Вардар, Фортепианный концерт №3, Концерт-фантазия для виолончели, Дивертисмент / Pancho Vladigerov - Compositions (S.Slavcheva, V.Nikolov, Bulgarian RSO, A.Vladigerov) - 1999, FLAC (tracks) lossless


Статистика раздачи [Обновить пиров]
Размер:  287 MB   |    Зарегистрирован:  8 месяцев 25 дней   |    Скачан:  0 раз

Полного источника не было: Никогда

 
   
 
 
 

[Цитировать]

Панчо Владигеров / Pancho Vladigerov - Compositions
Жанр: Concerto, Orchestral
Страна-производитель диска: Bulgaria
Год издания диска: 1999
Издатель (лейбл): Gega New
Номер по каталогу: GD 203
Дата записи: 1970-е
Аудиокодек: FLAC
Тип рипа: tracks
Битрейт аудио: lossless
Продолжительность: 61:17
Источник: скачано с
Наличие сканов в содержимом раздачи: да
Треклист:
Pancho Vladigerov (1899-1978)
[01] Vardar, Bulgarian Rhapsody, op. 16 (1922/28) 8'33
Concerto for Piano and Orchestra No. 3 in B-flat minor, op. 31 (1937)
[02] I. Con moto mosso 8'04
[03] II. Andante 9'27
[04] III. Allegro vivace 6'52
[05] Concerto Fantasy for Violoncello and Orchestra, op. 35 (1940) 12'23"
Divertimento for Chamber Orchestra (1943)
[06] I. Oriental March 2'16
[07] II. Caress 3'36
[08] III. Carnival Procession 1'33
[09] IV. Romance 4'57
[10] V. Cakewalk 3'09
Исполнители:
Svetla Slavcheva, piano
Ventseslav Nikolov, violoncello
Bulgarian National Radio Symphony Orchestra
Alexander Vladigerov, conductor

Лог создания рипа

Exact Audio Copy V1.0 beta 3 from 29. August 2011
EAC extraction logfile from 30. May 2013, 14:15
Pancho Vladigerov / Compositions
Used drive : _NEC DVD_RW ND-3540A Adapter: 4 ID: 2
Read mode : Secure
Utilize accurate stream : Yes
Defeat audio cache : Yes
Make use of C2 pointers : No
Read offset correction : 48
Overread into Lead-In and Lead-Out : No
Fill up missing offset samples with silence : Yes
Delete leading and trailing silent blocks : No
Null samples used in CRC calculations : Yes
Used interface : Native Win32 interface for Win NT & 2000
Gap handling : Appended to previous track
Used output format : Internal WAV Routines
Sample format : 44.100 Hz; 16 Bit; Stereo
TOC of the extracted CD
Track | Start | Length | Start sector | End sector
---------------------------------------------------------
1 | 0:00.00 | 8:37.15 | 0 | 38789
2 | 8:37.15 | 8:07.00 | 38790 | 75314
3 | 16:44.15 | 9:29.72 | 75315 | 118061
4 | 26:14.12 | 6:57.03 | 118062 | 149339
5 | 33:11.15 | 12:27.00 | 149340 | 205364
6 | 45:38.15 | 2:18.00 | 205365 | 215714
7 | 47:56.15 | 3:38.00 | 215715 | 232064
8 | 51:34.15 | 1:35.00 | 232065 | 239189
9 | 53:09.15 | 4:59.02 | 239190 | 261616
10 | 58:08.17 | 3:09.38 | 261617 | 275829
Track 1
Filename U:\Pancho Vladigerov - Compositions - Alexander Vladigerov\01 - Vardar Bulgarian Rhapsody op. 16.wav
Pre-gap length 0:00:02.00
Peak level 87.9 %
Extraction speed 1.2 X
Track quality 100.0 %
Test CRC 28E62958
Copy CRC 28E62958
Track not present in AccurateRip database
Copy OK
Track 2
Filename U:\Pancho Vladigerov - Compositions - Alexander Vladigerov\02 - Concerto for piano and orchestra No 3 in B-flat minor, op.31 - Con moto mosso.wav
Pre-gap length 0:00:02.30
Peak level 78.9 %
Extraction speed 2.8 X
Track quality 99.9 %
Test CRC 228A6790
Copy CRC 228A6790
Track not present in AccurateRip database
Copy OK
Track 3
Filename U:\Pancho Vladigerov - Compositions - Alexander Vladigerov\03 - Concerto for piano and orchestra No 3 in B-flat minor, op.31 - Andante.wav
Pre-gap length 0:00:01.80
Peak level 66.5 %
Extraction speed 3.4 X
Track quality 100.0 %
Test CRC 9233946F
Copy CRC 9233946F
Track not present in AccurateRip database
Copy OK
Track 4
Filename U:\Pancho Vladigerov - Compositions - Alexander Vladigerov\04 - Concerto for piano and orchestra No 3 in B-flat minor, op.31 - Allegro vivace.wav
Pre-gap length 0:00:01.86
Peak level 86.3 %
Extraction speed 3.7 X
Track quality 100.0 %
Test CRC EB91CDE0
Copy CRC EB91CDE0
Track not present in AccurateRip database
Copy OK
Track 5
Filename U:\Pancho Vladigerov - Compositions - Alexander Vladigerov\05 - Concerto Fantasy for Violoncello and Orchestra, op.35.wav
Pre-gap length 0:00:03.46
Peak level 88.7 %
Extraction speed 2.1 X
Track quality 99.9 %
Test CRC A3BCC590
Copy CRC A3BCC590
Track not present in AccurateRip database
Copy OK
Track 6
Filename U:\Pancho Vladigerov - Compositions - Alexander Vladigerov\06 - Divertimento for Chamber Orchestra - Oriental March.wav
Pre-gap length 0:00:04.13
Peak level 86.4 %
Extraction speed 3.5 X
Track quality 100.0 %
Test CRC 356BD407
Copy CRC 356BD407
Track not present in AccurateRip database
Copy OK
Track 7
Filename U:\Pancho Vladigerov - Compositions - Alexander Vladigerov\07 - Divertimento for Chamber Orchestra - Caress.wav
Pre-gap length 0:00:01.97
Peak level 60.1 %
Extraction speed 4.0 X
Track quality 100.0 %
Test CRC 30A455D8
Copy CRC 30A455D8
Track not present in AccurateRip database
Copy OK
Track 8
Filename U:\Pancho Vladigerov - Compositions - Alexander Vladigerov\08 - Divertimento for Chamber Orchestra - Carnival Procession.wav
Pre-gap length 0:00:01.37
Peak level 54.5 %
Extraction speed 3.1 X
Track quality 100.0 %
Test CRC 4A110136
Copy CRC 4A110136
Track not present in AccurateRip database
Copy OK
Track 9
Filename U:\Pancho Vladigerov - Compositions - Alexander Vladigerov\09 - Divertimento for Chamber Orchestra - Romance.wav
Pre-gap length 0:00:00.97
Peak level 77.8 %
Extraction speed 4.4 X
Track quality 100.0 %
Test CRC 24695CE0
Copy CRC 24695CE0
Track not present in AccurateRip database
Copy OK
Track 10
Filename U:\Pancho Vladigerov - Compositions - Alexander Vladigerov\10 - Divertimento for Chamber Orchestra - Cakewalk.wav
Pre-gap length 0:00:01.49
Peak level 87.1 %
Extraction speed 4.1 X
Track quality 100.0 %
Test CRC FC06FB8F
Copy CRC FC06FB8F
Track not present in AccurateRip database
Copy OK
None of the tracks are present in the AccurateRip database
No errors occurred
End of status report
---- CUETools DB Plugin V2.1.3
[CTDB TOCID: 02SfjncOKzD4UO8AwiuZ0tRextY-] found, Submit result: 02SfjncOKzD4UO8AwiuZ0tRextY- has been confirmed
[03bd07fe] (2/2) Accurately ripped
==== Log checksum BA1B0A56E054D9D9D20EA19096AEF45E09A968AB1AC556AA25F32E8AD3BC13A6 ====
Доп. информация: Панчо Владигерова называют "премьер-министром болгарской музыки". Родившийся в Швейцарии потомок русских евреев, родственник Пастернака, учившийся в Европе, он свободно говорил по-французски, по-немецки и по-русски. Таким же цветастым был его музыкальный стиль, соединивший традиции поздних немецких романтиков, русских композиторов и французских импрессионистов, которые композитор наполнил новым духом славянской культуры. Компакт-диск, посвященный столетию со дня его рождения, включает в себя подборку наиболее популярных произведений Владигерова разных жанров, демонстрирующих жизнеспособность его стиля, его мастерство и изобретательность, тонкое чувство оркестровых красок и тембров. Сочинения композитора - рапсодия "Вардар", которая считается символом болгарской музыки, 3й фортепианный концерт вдохновлённый музыкой Рахманинова, Концерт-фантазия для виолончели с оркестром и Дивертисмент для камерного оркестра - звучат в исполнении сына композитора дирижёра Александра Владигерова, симфонического оркестра Болгарского радио, пианистки Светлы Славчевой, обладательницы ряда национальных и международных наград и виолончелиста, профессора Венцеслава Николова, записавшего более двухсот дисков в Болгарии и за рубежом. (из буклета)
[teatrix.ru].t17936.torrent 
Торрент: Зарегистрирован [ 2016-03-17 00:47 ] · 0BF4F9C8B20DC23A7ECF09E3B8F4C00DBD3E450B

Скачать .torrent

Скачать

13 KB

Статус: проверено
Скачан: 0 раз
Размер: 287 MB
terms.php



Быстрый ответ

Имя:

      
Для отправки сообщений необходимо включить JavaScript
Показать сообщения:    

Текущее время: 11-Дек 09:09

Часовой пояс: UTC + 3


Вы можете начинать темы
Вы можете отвечать на сообщения
Вы не можете редактировать свои сообщения
Вы не можете удалять свои сообщения
Вы не можете голосовать в опросах
Вы не можете прикреплять файлы к сообщениям
Вы можете скачивать файлы