(Classical/Baroque/Sacred) J.S.Bach - Missa in h-moll / Mass in B minor / Messe h-moll / Messe en si mineur, BWV 232 (Mields, Blazikova, Guillon, Hobbs, Kooij/Kooy, Collegium Vocale Gent, Philippe Herreweghe) [2 CD] - 2011, FLAC (image+.cue) lossless


Статистика раздачи [Обновить пиров]
Размер:  510 MB   |    Зарегистрирован:  8 месяцев 21 день   |    Скачан:  0 раз

Полного источника не было: Никогда

 
   
 
 
 

[Цитировать]

J.S.Bach - Missa in h-moll / Mass in B minor / Messe h-moll / Messe en si mineur, BWV 232 - Collegium Vocale Gent, Philippe Herreweghe
Жанр: Classical/Baroque/Sacred
Страна-производитель диска: EU
Год издания диска: 2011
Издатель (лейбл): Phi (Outhere music)
Номер по каталогу: LPH 004
Дата записи: 2011
Аудиокодек: FLAC
Тип рипа: image+.cue
Битрейт аудио: lossless
Продолжительность: 1h 41'18
Источник: собственный рип
Наличие сканов в содержимом раздачи: да
Треклист:
CD1:
MISSA
Kyrie
01. Coro: Kyrie eleison [0:09:13.03]
02. Duetto: Christe eleison (Soprano I & II) [0:04:55.55]
03. Coro: Kyrie eleison [0:03:03.37]
Gloria
04. Coro: Gloria in excelsis Deo [0:01:42.69]
05. Coro: Et in terra pax [0:04:15.46]
06. Aria: Laudamus te (Soprano II) [0:04:01.28]
07. Coro: Gratias agimus tibi [0:02:28.29]
08. Duetto: Domine Deus (Soprano I, Tenore) [0:05:34.40]
09. Coro: Qui tollis peccata mundi [0:02:42.37]
10. Aria: Qui sedes ad dexteram Patris (Alto) [0:04:13.18]
11. Aria: Quoniam tu solus sanctus (Basso) [0:04:29.48]
12. Coro: Cum Sancto Spiritu [0:04:03.12]
CD2:
SYMBOLUM NICENUM
01. Coro: Credo in unum Deum [0:01:59.02]
02. Coro: Patrem omnipotentem [0:01:53.74]
03. Duetto: Et in unum Dominum (Soprano I, Alto) [0:04:21.32]
04. Coro: Et incarnatus est [0:02:49.34]
05. Coro: Crucifixus [0:02:45.00]
06. Coro: Et resurrexit [0:04:02.50]
07. Aria: Et in Spiritum Sanctum Dominum (Basso) [0:04:47.54]
08. Coro: Confiteor unum baptisma [0:03:28.34]
09. Coro: Et expecto [0:02:22.13]
SANCTUS
10. Coro: Sanctus [0:04:55.50]
OSANNA, BENEDICTUS, AGNUS DEI & DONA NOBIS PACEM
11. Coro: Osanna in excelsis [0:02:46.63]
12. Aria: Benedictus (Tenore) [0:03:30.61]
13. Coro: Osanna in excelsis [0:02:48.40]
14. Aria: Agnus Dei (Alto) [0:05:05.50]
15. Coro: Dona nobis pacem [0:02:49.15]
Исполнители:
Dorothee Mields soprano I
Hana Blažíková soprano II
Damien Guillon countertenor
Thomas Hobbs tenor
Peter Kooij/Kooy bass
Collegium Vocale Gent
Philippe Herreweghe

Лог создания рипаCD1

Exact Audio Copy V1.0 beta 3 from 29. August 2011
Отчёт EAC об извлечении, выполненном 17. ноября 2013, 21:04
Dorothee Mields, Hana Blazikova, Damien Guillon, Thomas Hobbs, Peter Kooij, Collegium Vocale Gent, Philippe Herreweghe / J.S.Bach: Missa in h-moll BWV 232 - CD1
Дисковод: HL-DT-STDVDRAM GU71N Adapter: 2 ID: 0
Режим чтения : Достоверность
Использование точного потока : Да
Отключение кэша аудио : Да
Использование указателей C2 : Нет
Коррекция смещения при чтении : 6
Способность читать области Lead-in и Lead-out : Нет
Заполнение пропущенных сэмплов тишиной : Да
Удаление блоков с тишиной в начале и конце : Нет
При вычислениях CRC использовались нулевые сэмплы : Да
Интерфейс : Встроенный Win32-интерфейс для Win NT/2000
Выходной формат : Пользовательский кодировщик
Выбранный битрейт : 1024 kBit/s
Качество : Высокий
Добавление ID3-тега : Нет
Утилита сжатия : C:\Program Files (x86)\Exact Audio Copy\Flac\flac.exe
Дополнительные параметры : -8 -V -T "ALBUMARTIST=%albumartist%" -T "ALBUM=%albumtitle%" -T "DATE=%year%" -T "TRACKTOTAL=%numtracks%" -T "GENRE=%genre%" -T "COMMENT=%comment%" -T "PERFORMER=%albuminterpret%" -T "COMPOSER=%composer%" %source% -o %dest%
TOC извлечённого CD
Трек | Старт | Длительность | Начальный сектор | Конечный сектор
---------------------------------------------------------------------
1 | 0:00.00 | 9:13.03 | 0 | 41477
2 | 9:13.03 | 4:55.55 | 41478 | 63657
3 | 14:08.58 | 3:03.37 | 63658 | 77419
4 | 17:12.20 | 1:42.69 | 77420 | 85138
5 | 18:55.14 | 4:15.46 | 85139 | 104309
6 | 23:10.60 | 4:01.28 | 104310 | 122412
7 | 27:12.13 | 2:28.29 | 122413 | 133541
8 | 29:40.42 | 5:34.40 | 133542 | 158631
9 | 35:15.07 | 2:42.37 | 158632 | 170818
10 | 37:57.44 | 4:13.18 | 170819 | 189811
11 | 42:10.62 | 4:29.48 | 189812 | 210034
12 | 46:40.35 | 4:03.12 | 210035 | 228271
Характеристики диапазона извлечения и сообщения об ошибках
Выбранный диапазон
Имя файла H:\Rips\J.S.Bach - Missa in h-moll BWV 232 - Collegium Vocale Gent, Philippe Herreweghe (2011)\J.S.Bach - Missa in h-moll BWV 232 - CD1.wav
Пиковый уровень 100.0 %
Скорость извлечения 1.9 X
Качество диапазона 100.0 %
CRC теста 96A0CB5B
CRC копии 96A0CB5B
Копирование... OK
Ошибок не произошло
AccurateRip: сводка
Трек 1 : извлечено точно (доверие 12) [CBBC75D2] (AR v2)
Трек 2 : извлечено точно (доверие 12) [273C9E47] (AR v2)
Трек 3 : извлечено точно (доверие 12) [1FEE3AF0] (AR v2)
Трек 4 : извлечено точно (доверие 12) [973C919A] (AR v2)
Трек 5 : извлечено точно (доверие 12) [1B3E479D] (AR v2)
Трек 6 : извлечено точно (доверие 12) [71AC060F] (AR v2)
Трек 7 : извлечено точно (доверие 12) [619BC9AA] (AR v2)
Трек 8 : извлечено точно (доверие 12) [57067040] (AR v2)
Трек 9 : извлечено точно (доверие 12) [6A984B8D] (AR v2)
Трек 10 : извлечено точно (доверие 12) [88561609] (AR v2)
Трек 11 : извлечено точно (доверие 12) [F59DF8C1] (AR v2)
Трек 12 : извлечено точно (доверие 12) [D6C8470E] (AR v2)
Все треки извлечены точно
Конец отчёта
==== Контрольная сумма отчёта 4C494E76E10A4769116E151981D3E5E73F92EAEEF7326EB6AC11858793B9B6BC ====

CD2

Exact Audio Copy V1.0 beta 3 from 29. August 2011
Отчёт EAC об извлечении, выполненном 17. ноября 2013, 21:57
Dorothee Mields, Hana Blazikova, Damien Guillon, Thomas Hobbs, Peter Kooij, Collegium Vocale Gent, Philippe Herreweghe / J.S.Bach: Missa in h-moll BWV 232 - CD2
Дисковод: HL-DT-STDVDRAM GU71N Adapter: 2 ID: 0
Режим чтения : Достоверность
Использование точного потока : Да
Отключение кэша аудио : Да
Использование указателей C2 : Нет
Коррекция смещения при чтении : 6
Способность читать области Lead-in и Lead-out : Нет
Заполнение пропущенных сэмплов тишиной : Да
Удаление блоков с тишиной в начале и конце : Нет
При вычислениях CRC использовались нулевые сэмплы : Да
Интерфейс : Встроенный Win32-интерфейс для Win NT/2000
Выходной формат : Пользовательский кодировщик
Выбранный битрейт : 1024 kBit/s
Качество : Высокий
Добавление ID3-тега : Нет
Утилита сжатия : C:\Program Files (x86)\Exact Audio Copy\Flac\flac.exe
Дополнительные параметры : -8 -V -T "ALBUMARTIST=%albumartist%" -T "ALBUM=%albumtitle%" -T "DATE=%year%" -T "TRACKTOTAL=%numtracks%" -T "GENRE=%genre%" -T "COMMENT=%comment%" -T "PERFORMER=%albuminterpret%" -T "COMPOSER=%composer%" %source% -o %dest%
TOC извлечённого CD
Трек | Старт | Длительность | Начальный сектор | Конечный сектор
---------------------------------------------------------------------
1 | 0:00.00 | 1:59.02 | 0 | 8926
2 | 1:59.02 | 1:53.74 | 8927 | 17475
3 | 3:53.01 | 4:21.32 | 17476 | 37082
4 | 8:14.33 | 2:49.34 | 37083 | 49791
5 | 11:03.67 | 2:45.00 | 49792 | 62166
6 | 13:48.67 | 4:02.50 | 62167 | 80366
7 | 17:51.42 | 4:47.54 | 80367 | 101945
8 | 22:39.21 | 3:28.34 | 101946 | 117579
9 | 26:07.55 | 2:22.13 | 117580 | 128242
10 | 28:29.68 | 4:55.50 | 128243 | 150417
11 | 33:25.43 | 2:46.63 | 150418 | 162930
12 | 36:12.31 | 3:30.61 | 162931 | 178741
13 | 39:43.17 | 2:48.40 | 178742 | 191381
14 | 42:31.57 | 5:05.50 | 191382 | 214306
15 | 47:37.32 | 2:49.15 | 214307 | 226996
Характеристики диапазона извлечения и сообщения об ошибках
Выбранный диапазон
Имя файла H:\Rips\J.S.Bach - Missa in h-moll BWV 232 - Collegium Vocale Gent, Philippe Herreweghe (2011)\J.S.Bach - Missa in h-moll BWV 232 - CD2.wav
Пиковый уровень 98.8 %
Скорость извлечения 1.9 X
Качество диапазона 100.0 %
CRC теста 64E47ED3
CRC копии 64E47ED3
Копирование... OK
Ошибок не произошло
AccurateRip: сводка
Трек 1 : извлечено точно (доверие 12) [6F2BDBE0] (AR v2)
Трек 2 : извлечено точно (доверие 12) [7629E84D] (AR v2)
Трек 3 : извлечено точно (доверие 12) [8B679392] (AR v2)
Трек 4 : извлечено точно (доверие 12) [98380D4E] (AR v2)
Трек 5 : извлечено точно (доверие 12) [0F683792] (AR v2)
Трек 6 : извлечено точно (доверие 12) [CC4B1811] (AR v2)
Трек 7 : извлечено точно (доверие 12) [E4A75A4E] (AR v2)
Трек 8 : извлечено точно (доверие 12) [AF4C0357] (AR v2)
Трек 9 : извлечено точно (доверие 12) [4A61924F] (AR v2)
Трек 10 : извлечено точно (доверие 12) [F594BFC2] (AR v2)
Трек 11 : извлечено точно (доверие 12) [6AE911ED] (AR v2)
Трек 12 : извлечено точно (доверие 12) [5B217ACE] (AR v2)
Трек 13 : извлечено точно (доверие 12) [E44825FF] (AR v2)
Трек 14 : извлечено точно (доверие 12) [0F8E185C] (AR v2)
Трек 15 : извлечено точно (доверие 12) [73DB9937] (AR v2)
Все треки извлечены точно
Конец отчёта
==== Контрольная сумма отчёта 9F1CA087D0112D9D6711F0EAA202902F2FD5FB695FC2C003208CA8C9F3711DE1 ====

Содержание индексной карты (.CUE)CD1

REM GENRE Sacred
REM DATE 2011
REM DISCID 980BE30C
REM COMMENT "ExactAudioCopy v1.0b3"
PERFORMER "Dorothee Mields, Hana Blazikova, Damien Guillon, Thomas Hobbs, Peter Kooij, Collegium Vocale Gent, Philippe Herreweghe"
TITLE "J.S.Bach: Missa in h-moll BWV 232 - CD1"
FILE "J.S.Bach - Missa in h-moll BWV 232 - CD1.flac" WAVE
TRACK 01 AUDIO
TITLE "MISSA. Kyrie: 1. Coro: Kyrie eleison"
PERFORMER "Dorothee Mields, Hana Blazikova, Damien Guillon, Thomas Hobbs, Peter Kooij, Collegium Vocale Gent, Philippe Herreweghe"
INDEX 01 00:00:00
TRACK 02 AUDIO
TITLE "2. Duetto: Christe eleison (Soprano I & II)"
PERFORMER "Dorothee Mields, Hana Blazikova, Damien Guillon, Thomas Hobbs, Peter Kooij, Collegium Vocale Gent, Philippe Herreweghe"
INDEX 01 09:13:03
TRACK 03 AUDIO
TITLE "3. Coro: Kyrie eleison"
PERFORMER "Dorothee Mields, Hana Blazikova, Damien Guillon, Thomas Hobbs, Peter Kooij, Collegium Vocale Gent, Philippe Herreweghe"
INDEX 01 14:08:58
TRACK 04 AUDIO
TITLE "MISSA. Gloria: 4. Coro: Gloria in excelsis Deo"
PERFORMER "Dorothee Mields, Hana Blazikova, Damien Guillon, Thomas Hobbs, Peter Kooij, Collegium Vocale Gent, Philippe Herreweghe"
INDEX 00 17:08:72
INDEX 01 17:12:20
TRACK 05 AUDIO
TITLE "5. Coro: Et in terra pax"
PERFORMER "Dorothee Mields, Hana Blazikova, Damien Guillon, Thomas Hobbs, Peter Kooij, Collegium Vocale Gent, Philippe Herreweghe"
INDEX 01 18:55:14
TRACK 06 AUDIO
TITLE "6. Aria: Laudamus te (Soprano II)"
PERFORMER "Dorothee Mields, Hana Blazikova, Damien Guillon, Thomas Hobbs, Peter Kooij, Collegium Vocale Gent, Philippe Herreweghe"
INDEX 01 23:10:60
TRACK 07 AUDIO
TITLE "7. Coro: Gratias agimus tibi"
PERFORMER "Dorothee Mields, Hana Blazikova, Damien Guillon, Thomas Hobbs, Peter Kooij, Collegium Vocale Gent, Philippe Herreweghe"
INDEX 01 27:12:13
TRACK 08 AUDIO
TITLE "8. Duetto: Domine Deus (Soprano I, Tenore)"
PERFORMER "Dorothee Mields, Hana Blazikova, Damien Guillon, Thomas Hobbs, Peter Kooij, Collegium Vocale Gent, Philippe Herreweghe"
INDEX 01 29:40:42
TRACK 09 AUDIO
TITLE "9. Coro: Qui tollis peccata mundi"
PERFORMER "Dorothee Mields, Hana Blazikova, Damien Guillon, Thomas Hobbs, Peter Kooij, Collegium Vocale Gent, Philippe Herreweghe"
INDEX 01 35:15:07
TRACK 10 AUDIO
TITLE "10. Aria: Qui sedes ad dexteram Patris (Alto)"
PERFORMER "Dorothee Mields, Hana Blazikova, Damien Guillon, Thomas Hobbs, Peter Kooij, Collegium Vocale Gent, Philippe Herreweghe"
INDEX 01 37:57:44
TRACK 11 AUDIO
TITLE "11. Aria: Quoniam tu solus sanctus (Basso)"
PERFORMER "Dorothee Mields, Hana Blazikova, Damien Guillon, Thomas Hobbs, Peter Kooij, Collegium Vocale Gent, Philippe Herreweghe"
INDEX 00 42:10:61
INDEX 01 42:10:62
TRACK 12 AUDIO
TITLE "12. Coro: Cum Sancto Spiritu"
PERFORMER "Dorothee Mields, Hana Blazikova, Damien Guillon, Thomas Hobbs, Peter Kooij, Collegium Vocale Gent, Philippe Herreweghe"
INDEX 01 46:40:35

CD2

REM GENRE Sacred
REM DATE 2011
REM DISCID C40BD20F
REM COMMENT "ExactAudioCopy v1.0b3"
PERFORMER "Dorothee Mields, Hana Blazikova, Damien Guillon, Thomas Hobbs, Peter Kooij, Collegium Vocale Gent, Philippe Herreweghe"
TITLE "J.S.Bach: Missa in h-moll BWV 232 - CD2"
FILE "J.S.Bach - Missa in h-moll BWV 232 - CD2.flac" WAVE
TRACK 01 AUDIO
TITLE "SYMBOLUM NICENUM: 1. Coro: Credo in unum Deum"
PERFORMER "Dorothee Mields, Hana Blazikova, Damien Guillon, Thomas Hobbs, Peter Kooij, Collegium Vocale Gent, Philippe Herreweghe"
INDEX 01 00:00:00
TRACK 02 AUDIO
TITLE "2. Coro: Patrem omnipotentem"
PERFORMER "Dorothee Mields, Hana Blazikova, Damien Guillon, Thomas Hobbs, Peter Kooij, Collegium Vocale Gent, Philippe Herreweghe"
INDEX 01 01:59:02
TRACK 03 AUDIO
TITLE "3. Duetto: Et in unum Dominum (Soprano I, Alto)"
PERFORMER "Dorothee Mields, Hana Blazikova, Damien Guillon, Thomas Hobbs, Peter Kooij, Collegium Vocale Gent, Philippe Herreweghe"
INDEX 01 03:53:01
TRACK 04 AUDIO
TITLE "4. Coro: Et incarnatus est"
PERFORMER "Dorothee Mields, Hana Blazikova, Damien Guillon, Thomas Hobbs, Peter Kooij, Collegium Vocale Gent, Philippe Herreweghe"
INDEX 01 08:14:33
TRACK 05 AUDIO
TITLE "5. Coro: Crucifixus"
PERFORMER "Dorothee Mields, Hana Blazikova, Damien Guillon, Thomas Hobbs, Peter Kooij, Collegium Vocale Gent, Philippe Herreweghe"
INDEX 01 11:03:67
TRACK 06 AUDIO
TITLE "6. Coro: Et resurrexit"
PERFORMER "Dorothee Mields, Hana Blazikova, Damien Guillon, Thomas Hobbs, Peter Kooij, Collegium Vocale Gent, Philippe Herreweghe"
INDEX 01 13:48:67
TRACK 07 AUDIO
TITLE "7. Aria: Et in Spiritum Sanctum Dominum (Basso)"
PERFORMER "Dorothee Mields, Hana Blazikova, Damien Guillon, Thomas Hobbs, Peter Kooij, Collegium Vocale Gent, Philippe Herreweghe"
INDEX 01 17:51:42
TRACK 08 AUDIO
TITLE "8. Coro: Confiteor unum baptisma"
PERFORMER "Dorothee Mields, Hana Blazikova, Damien Guillon, Thomas Hobbs, Peter Kooij, Collegium Vocale Gent, Philippe Herreweghe"
INDEX 01 22:39:21
TRACK 09 AUDIO
TITLE "9. Coro: Et expecto"
PERFORMER "Dorothee Mields, Hana Blazikova, Damien Guillon, Thomas Hobbs, Peter Kooij, Collegium Vocale Gent, Philippe Herreweghe"
INDEX 01 26:07:55
TRACK 10 AUDIO
TITLE "SANCTUS: 10. Coro: Sanctus"
PERFORMER "Dorothee Mields, Hana Blazikova, Damien Guillon, Thomas Hobbs, Peter Kooij, Collegium Vocale Gent, Philippe Herreweghe"
INDEX 00 28:24:64
INDEX 01 28:29:68
TRACK 11 AUDIO
TITLE "OSANNA: 11. Coro: Osanna in excelsis"
PERFORMER "Dorothee Mields, Hana Blazikova, Damien Guillon, Thomas Hobbs, Peter Kooij, Collegium Vocale Gent, Philippe Herreweghe"
INDEX 00 33:22:06
INDEX 01 33:25:43
TRACK 12 AUDIO
TITLE "12. Aria: Benedictus (Tenore)"
PERFORMER "Dorothee Mields, Hana Blazikova, Damien Guillon, Thomas Hobbs, Peter Kooij, Collegium Vocale Gent, Philippe Herreweghe"
INDEX 01 36:12:31
TRACK 13 AUDIO
TITLE "13. Coro: Osanna in excelsis"
PERFORMER "Dorothee Mields, Hana Blazikova, Damien Guillon, Thomas Hobbs, Peter Kooij, Collegium Vocale Gent, Philippe Herreweghe"
INDEX 01 39:43:17
TRACK 14 AUDIO
TITLE "14. Aria: Agnus Dei (Alto)"
PERFORMER "Dorothee Mields, Hana Blazikova, Damien Guillon, Thomas Hobbs, Peter Kooij, Collegium Vocale Gent, Philippe Herreweghe"
INDEX 00 42:29:02
INDEX 01 42:31:57
TRACK 15 AUDIO
TITLE "15. Coro: Dona nobis pacem"
PERFORMER "Dorothee Mields, Hana Blazikova, Damien Guillon, Thomas Hobbs, Peter Kooij, Collegium Vocale Gent, Philippe Herreweghe"
INDEX 01 47:37:32
Доп. информация: Не путать с http://teatrix.ru/viewtopic.php?t=4083551 и http://teatrix.ru/viewtopic.php?t=1498174
[teatrix.ru].t17946.torrent 
Торрент: Зарегистрирован [ 2016-03-17 00:47 ] · 59197D70CB9F667D33378088015B639DC94BE48F

Скачать .torrent

Скачать

43 KB

Статус: проверено
Скачан: 0 раз
Размер: 510 MB
terms.php



Быстрый ответ

Имя:

      
Для отправки сообщений необходимо включить JavaScript
Показать сообщения:    

Текущее время: 07-Дек 00:54

Часовой пояс: UTC + 3


Вы можете начинать темы
Вы можете отвечать на сообщения
Вы не можете редактировать свои сообщения
Вы не можете удалять свои сообщения
Вы не можете голосовать в опросах
Вы не можете прикреплять файлы к сообщениям
Вы можете скачивать файлы