(Vocal, Choral) Hildegard von Bingen - Ordo Virtutum (Ensemble Belcanto, Dietburg Spohr) - 2013, FLAC (tracks+.cue) lossless


Статистика раздачи [Обновить пиров]
Размер:  283 MB   |    Зарегистрирован:  8 месяцев 18 дней   |    Скачан:  0 раз

Полного источника не было: Никогда

 
   
 
 
 

[Цитировать]

Hildegard von Bingen - Ordo Virtutum (Ensemble Belcanto, Dietburg Spohr)
Жанр: Vocal, Choral
Страна-производитель диска: Germany
Год издания диска: 2013
Издатель (лейбл): ECM
Номер по каталогу: 2219
Дата записи: 2010
Аудиокодек: FLAC
Тип рипа: tracks+.cue
Битрейт аудио: lossless
Продолжительность: 78'52
Источник: собственный рип
Наличие сканов в содержимом раздачи: да
Исполнители:
Ensemble Belcanto
Andrea Baader Sopran
Edith Murasov Mezzosopran
Rica Rauch Alt
Martina Scharstein Sopran
Dietburg Spohr Mezzosopran
Benjamin Cromme Sprechstimme
Lilith Reid Sprechstimme
Selina Drews Mädchensopran

Треклист

1. Patriarchae Et Prophetae
2. Virtutes
3. Patriarchae Et Prophetae
4. Querela Animarum In Carne Positarum
5. Felix Anima
6. Virtutes
7. Felix Anima
8. Virtutes
9. Sed Gravata Anima Conqueritur
10. Virtutes Ad Animam Illam
11. Anima Illa
12. Scientia Dei Ad Animam Illam
13. Infelix Anima
14. Virtutes
15. Scientia Dei
16. Anima Illa
17. Strepitus Diaboli Ad Animam Illam
18. Virtutes
19. Diabolus
20. Humilitas
21. Virtutes
22. Humilitas
23. Virtutes
24. Humilitas
25. Caritas
26. Virtutes
27. Timor Dei
28. Virtutes
29. Diabolus
30. Virtutes
31. Obedientia
32. Virtutes
33. Fides
34. Virtutes
35. Spes
36. Virtutes
37. Castitas
38. Virtutes
39. Innocentia
40. Virtutes
41. Contemptus Mundi
42. Virtutes
43. Amor Caelestis
44. Virtutes
45. Disciplina
46. Virtutes
47. Verecundia
48. Virtutes
49. Misericordia
50. Virtutes
51. Victoria
52. Virtutes
53. Discretio
54. Virtutes
55. Patientia
56. Virtutes
57. Humilitas
58. Virtutes
59. Querela Animae Paenitentis Et Virtutes Invocantis
60. Virtutes
61. Anima Illa
62. Virtutes
63. Anima Illa
64. Virtutes
65. Paenitens Anima Ad Virtutes
66. Virtutes
67. Anima Illa
68. Humilitas
69. Virtutes
70. Humilitas
71. Virtutes
72. Diabolus
73. Paenitens Anima
74. Anima Illa
75. Humilitas Ad Victoriam
76. Victoria Ad Virtutes
77. Virtutes
78. Humilitas
79. Virtutes
80. Victoria
81. Virtutes
82. Castitas
83. Diabolus
84. Castitas
85. Virtutes
86. Virtutes
87. Epilog

Лог создания рипа

Exact Audio Copy V1.0 beta 1 from 15. November 2010
EAC extraction logfile from 21. November 2013, 16:19
Ensemble Belcanto / Ordo Virtutum
Used drive : TSSTcorpCDDVDW TS-L633A Adapter: 3 ID: 0
Read mode : Secure
Utilize accurate stream : Yes
Defeat audio cache : Yes
Make use of C2 pointers : No
Read offset correction : 6
Overread into Lead-In and Lead-Out : No
Fill up missing offset samples with silence : Yes
Delete leading and trailing silent blocks : No
Null samples used in CRC calculations : Yes
Used interface : Installed external ASPI interface
Gap handling : Appended to previous track
Used output format : User Defined Encoder
Selected bitrate : 896 kBit/s
Quality : High
Add ID3 tag : No
Command line compressor : C:\Program Files\Exact Audio Copy\FLAC\FLAC.EXE
Additional command line options : -8 -V -T "ARTIST=%a" -T "TITLE=%t" -T "ALBUM=%g" -T "DATE=%y" -T "TRACKNUMBER=%n" -T "TOTALTRACKS=%x" -T "GENRE=%m" -T "ALBUMARTIST=%v" -T "ALBUM ARTIST=%v" -T "COMMENT=EAC Secure Mode, Test & Copy, AccurateRip, FLAC -8" %s
TOC of the extracted CD
Track | Start | Length | Start sector | End sector
---------------------------------------------------------
1 | 0:00.00 | 1:29.70 | 0 | 6744
2 | 1:29.70 | 2:05.39 | 6745 | 16158
3 | 3:35.34 | 1:15.52 | 16159 | 21835
4 | 4:51.11 | 0:38.18 | 21836 | 24703
5 | 5:29.29 | 0:41.52 | 24704 | 27830
6 | 6:11.06 | 1:09.31 | 27831 | 33036
7 | 7:20.37 | 0:20.24 | 33037 | 34560
8 | 7:40.61 | 1:04.39 | 34561 | 39399
9 | 8:45.25 | 0:53.23 | 39400 | 43397
10 | 9:38.48 | 0:49.17 | 43398 | 47089
11 | 10:27.65 | 0:41.59 | 47090 | 50223
12 | 11:09.49 | 1:16.44 | 50224 | 55967
13 | 12:26.18 | 1:04.55 | 55968 | 60822
14 | 13:30.73 | 3:05.11 | 60823 | 74708
15 | 16:36.09 | 0:48.50 | 74709 | 78358
16 | 17:24.59 | 0:25.35 | 78359 | 80268
17 | 17:50.19 | 1:43.30 | 80269 | 88023
18 | 19:33.49 | 2:10.08 | 88024 | 97781
19 | 21:43.57 | 0:32.57 | 97782 | 100238
20 | 22:16.39 | 0:46.16 | 100239 | 103704
21 | 23:02.55 | 2:10.07 | 103705 | 113461
22 | 25:12.62 | 3:28.07 | 113462 | 129068
23 | 28:40.69 | 1:32.53 | 129069 | 136021
24 | 30:13.47 | 1:44.00 | 136022 | 143821
25 | 31:57.47 | 2:40.59 | 143822 | 155880
26 | 34:38.31 | 2:54.25 | 155881 | 168955
27 | 37:32.56 | 0:51.69 | 168956 | 172849
28 | 38:24.50 | 1:09.13 | 172850 | 178037
29 | 39:33.63 | 2:23.14 | 178038 | 188776
30 | 41:57.02 | 1:02.60 | 188777 | 193486
31 | 42:59.62 | 1:02.32 | 193487 | 198168
32 | 44:02.19 | 2:02.69 | 198169 | 207387
33 | 46:05.13 | 1:39.04 | 207388 | 214816
34 | 47:44.17 | 0:43.02 | 214817 | 218043
35 | 48:27.19 | 1:01.17 | 218044 | 222635
36 | 49:28.36 | 1:15.44 | 222636 | 228304
37 | 50:44.05 | 3:57.15 | 228305 | 246094
38 | 54:41.20 | 3:01.29 | 246095 | 259698
39 | 57:42.49 | 0:55.74 | 259699 | 263897
40 | 58:38.48 | 1:40.19 | 263898 | 271416
41 | 60:18.67 | 1:38.40 | 271417 | 278806
42 | 61:57.32 | 0:28.00 | 278807 | 280906
43 | 62:25.32 | 1:03.59 | 280907 | 285690
44 | 63:29.16 | 1:54.07 | 285691 | 294247
45 | 65:23.23 | 1:12.64 | 294248 | 299711
46 | 66:36.12 | 0:57.64 | 299712 | 304050
47 | 67:34.01 | 0:43.34 | 304051 | 307309
48 | 68:17.35 | 1:41.47 | 307310 | 314931
49 | 69:59.07 | 0:36.38 | 314932 | 317669
50 | 70:35.45 | 3:02.66 | 317670 | 331385
51 | 73:38.36 | 5:13.47 | 331386 | 354907
Track 1
Filename C:\MY RIPS\01 - Patriarchae Et Prophetae.wav
Pre-gap length 0:00:02.00
Peak level 13.3 %
Extraction speed 0.9 X
Track quality 100.0 %
Test CRC EBF22B39
Copy CRC EBF22B39
Accurately ripped (confidence 1) [A8D5DFA9]
Copy OK
Track 2
Filename C:\MY RIPS\02 - Patriarchae Et Prophetae.wav
Peak level 19.5 %
Extraction speed 0.8 X
Track quality 99.9 %
Test CRC 9DAB225A
Copy CRC 9DAB225A
Accurately ripped (confidence 1) [77120E4C]
Copy OK
Track 3
Filename C:\MY RIPS\03 - Querela Animarum In Carne Positarum.wav
Peak level 42.5 %
Extraction speed 0.6 X
Track quality 99.8 %
Test CRC 158817A2
Copy CRC 158817A2
Accurately ripped (confidence 1) [AC1C3001]
Copy OK
Track 4
Filename C:\MY RIPS\04 - Felix Anima.wav
Peak level 58.1 %
Extraction speed 0.7 X
Track quality 100.0 %
Test CRC 4E688330
Copy CRC 4E688330
Accurately ripped (confidence 1) [658D6565]
Copy OK
Track 5
Filename C:\MY RIPS\05 - Felix Anima.wav
Peak level 20.7 %
Extraction speed 0.7 X
Track quality 100.0 %
Test CRC E4AD0456
Copy CRC E4AD0456
Accurately ripped (confidence 1) [75CCC3DD]
Copy OK
Track 6
Filename C:\MY RIPS\06 - Virtutes.wav
Peak level 25.1 %
Extraction speed 0.6 X
Track quality 99.8 %
Test CRC EC85B217
Copy CRC EC85B217
Accurately ripped (confidence 1) [1CBA3EF9]
Copy OK
Track 7
Filename C:\MY RIPS\07 - Anima Illa.wav
Peak level 30.0 %
Extraction speed 0.5 X
Track quality 100.0 %
Test CRC 0D515D6A
Copy CRC 0D515D6A
Accurately ripped (confidence 1) [A29E2927]
Copy OK
Track 8
Filename C:\MY RIPS\08 - Scientia Dei Ad Animam Illam.wav
Peak level 34.3 %
Extraction speed 0.9 X
Track quality 100.0 %
Test CRC 6BB76E99
Copy CRC 6BB76E99
Accurately ripped (confidence 1) [BD07A8A6]
Copy OK
Track 9
Filename C:\MY RIPS\09 - Infelix Anima.wav
Peak level 46.6 %
Extraction speed 0.9 X
Track quality 100.0 %
Test CRC EB2DB937
Copy CRC EB2DB937
Accurately ripped (confidence 1) [FF5B6317]
Copy OK
Track 10
Filename C:\MY RIPS\10 - Scientia Dei.wav
Peak level 66.2 %
Extraction speed 0.9 X
Track quality 100.0 %
Test CRC 4AD07EF9
Copy CRC 4AD07EF9
Accurately ripped (confidence 1) [EBACF11B]
Copy OK
Track 11
Filename C:\MY RIPS\11 - Anima Illa.wav
Peak level 65.8 %
Extraction speed 0.8 X
Track quality 100.0 %
Test CRC B595D642
Copy CRC B595D642
Accurately ripped (confidence 1) [E55547B2]
Copy OK
Track 12
Filename C:\MY RIPS\12 - Strepitus Diaboli Ad Animam Illam.wav
Peak level 6.4 %
Extraction speed 1.1 X
Track quality 100.0 %
Test CRC 655F51C9
Copy CRC 655F51C9
Accurately ripped (confidence 1) [A74C207F]
Copy OK
Track 13
Filename C:\MY RIPS\13 - Diabolus.wav
Peak level 6.8 %
Extraction speed 0.6 X
Track quality 99.8 %
Test CRC BFB9E28B
Copy CRC BFB9E28B
Accurately ripped (confidence 1) [D597F9B4]
Copy OK
Track 14
Filename C:\MY RIPS\14 - Humilitas.wav
Peak level 98.8 %
Extraction speed 1.5 X
Track quality 100.0 %
Test CRC 072C67F5
Copy CRC 072C67F5
Accurately ripped (confidence 1) [4AA10FDA]
Copy OK
Track 15
Filename C:\MY RIPS\15 - Humilitas.wav
Peak level 52.3 %
Extraction speed 1.0 X
Track quality 100.0 %
Test CRC 7D9DE643
Copy CRC 7D9DE643
Accurately ripped (confidence 1) [97FB68BB]
Copy OK
Track 16
Filename C:\MY RIPS\16 - Humilitas.wav
Peak level 68.1 %
Extraction speed 0.7 X
Track quality 100.0 %
Test CRC ADBE33CB
Copy CRC ADBE33CB
Accurately ripped (confidence 1) [F653A6AF]
Copy OK
Track 17
Filename C:\MY RIPS\17 - Caritas.wav
Peak level 22.4 %
Extraction speed 1.3 X
Track quality 100.0 %
Test CRC BB9B70B2
Copy CRC BB9B70B2
Accurately ripped (confidence 1) [FD1B239D]
Copy OK
Track 18
Filename C:\MY RIPS\18 - Timor Dei.wav
Peak level 19.1 %
Extraction speed 1.4 X
Track quality 100.0 %
Test CRC 81CEB470
Copy CRC 81CEB470
Accurately ripped (confidence 1) [6FE97374]
Copy OK
Track 19
Filename C:\MY RIPS\19 - Diabolus.wav
Peak level 10.5 %
Extraction speed 0.8 X
Track quality 100.0 %
Test CRC 383C90A4
Copy CRC 383C90A4
Accurately ripped (confidence 1) [0FBB5706]
Copy OK
Track 20
Filename C:\MY RIPS\20 - Obedientia.wav
Peak level 45.8 %
Extraction speed 1.0 X
Track quality 100.0 %
Test CRC 39231B73
Copy CRC 39231B73
Accurately ripped (confidence 1) [2049F1C6]
Copy OK
Track 21
Filename C:\MY RIPS\21 - Fides.wav
Peak level 30.3 %
Extraction speed 1.5 X
Track quality 100.0 %
Test CRC 8FF9B221
Copy CRC 8FF9B221
Accurately ripped (confidence 1) [02ED5EBF]
Copy OK
Track 22
Filename C:\MY RIPS\22 - Spes.wav
Peak level 31.8 %
Extraction speed 1.7 X
Track quality 100.0 %
Test CRC DF0E5F97
Copy CRC DF0E5F97
Accurately ripped (confidence 1) [91260109]
Copy OK
Track 23
Filename C:\MY RIPS\23 - Castitas.wav
Peak level 62.3 %
Extraction speed 1.4 X
Track quality 100.0 %
Test CRC 1D79F704
Copy CRC 1D79F704
Accurately ripped (confidence 1) [A407932D]
Copy OK
Track 24
Filename C:\MY RIPS\24 - Innocentia.wav
Peak level 14.7 %
Extraction speed 1.5 X
Track quality 100.0 %
Test CRC 1D826B57
Copy CRC 1D826B57
Accurately ripped (confidence 1) [C53A696B]
Copy OK
Track 25
Filename C:\MY RIPS\25 - Contemptus Mundi.wav
Peak level 9.7 %
Extraction speed 1.7 X
Track quality 100.0 %
Test CRC 4B8878A8
Copy CRC 4B8878A8
Accurately ripped (confidence 1) [33221ADA]
Copy OK
Track 26
Filename C:\MY RIPS\26 - Amor Caelestis.wav
Peak level 28.7 %
Extraction speed 1.2 X
Track quality 99.9 %
Test CRC 090FE9FB
Copy CRC 090FE9FB
Accurately ripped (confidence 1) [96867E98]
Copy OK
Track 27
Filename C:\MY RIPS\27 - Disciplina.wav
Peak level 33.0 %
Extraction speed 1.2 X
Track quality 100.0 %
Test CRC 29DE4FCA
Copy CRC 29DE4FCA
Accurately ripped (confidence 1) [EB21CEAE]
Copy OK
Track 28
Filename C:\MY RIPS\28 - Verecundia.wav
Peak level 9.9 %
Extraction speed 1.4 X
Track quality 100.0 %
Test CRC 398DDC88
Copy CRC 398DDC88
Accurately ripped (confidence 1) [78B534E1]
Copy OK
Track 29
Filename C:\MY RIPS\29 - Misericordia.wav
Peak level 98.8 %
Extraction speed 1.8 X
Track quality 100.0 %
Test CRC 3196744D
Copy CRC 3196744D
Accurately ripped (confidence 1) [F1C22537]
Copy OK
Track 30
Filename C:\MY RIPS\30 - Victoria.wav
Peak level 98.8 %
Extraction speed 1.4 X
Track quality 100.0 %
Test CRC 6544D29E
Copy CRC 6544D29E
Accurately ripped (confidence 1) [2882A0ED]
Copy OK
Track 31
Filename C:\MY RIPS\31 - Discretio.wav
Peak level 61.8 %
Extraction speed 0.6 X
Track quality 99.8 %
Test CRC 5A73228F
Copy CRC 5A73228F
Accurately ripped (confidence 1) [4F13FB72]
Copy OK
Track 32
Filename C:\MY RIPS\32 - Patientia.wav
Peak level 14.7 %
Extraction speed 1.7 X
Track quality 100.0 %
Test CRC 2A4DE685
Copy CRC 2A4DE685
Accurately ripped (confidence 1) [B87201AE]
Copy OK
Track 33
Filename C:\MY RIPS\33 - Track33.wav
Peak level 85.7 %
Extraction speed 1.7 X
Track quality 100.0 %
Test CRC CE8B9FF1
Copy CRC CE8B9FF1
Accurately ripped (confidence 1) [D0B09039]
Copy OK
Track 34
Filename C:\MY RIPS\34 - Querela Animae Paenitentis.wav
Peak level 82.4 %
Extraction speed 1.1 X
Track quality 100.0 %
Test CRC DE45534B
Copy CRC DE45534B
Accurately ripped (confidence 1) [0632A8A1]
Copy OK
Track 35
Filename C:\MY RIPS\35 - Anima Illa.wav
Peak level 26.1 %
Extraction speed 1.4 X
Track quality 100.0 %
Test CRC 3340BBAC
Copy CRC 3340BBAC
Accurately ripped (confidence 1) [32692302]
Copy OK
Track 36
Filename C:\MY RIPS\36 - Anima Illa.wav
Peak level 49.7 %
Extraction speed 1.5 X
Track quality 100.0 %
Test CRC 861CE9A5
Copy CRC 861CE9A5
Accurately ripped (confidence 1) [1B1CC9F4]
Copy OK
Track 37
Filename C:\MY RIPS\37 - Paenitens Anima Ad Virtutes.wav
Peak level 13.5 %
Extraction speed 2.1 X
Track quality 100.0 %
Test CRC A63895D3
Copy CRC A63895D3
Accurately ripped (confidence 1) [0F66B6C0]
Copy OK
Track 38
Filename C:\MY RIPS\38 - Anima Illa.wav
Peak level 4.7 %
Extraction speed 2.1 X
Track quality 100.0 %
Test CRC D663A6BF
Copy CRC D663A6BF
Accurately ripped (confidence 1) [1983204D]
Copy OK
Track 39
Filename C:\MY RIPS\39 - Humilitas.wav
Peak level 98.8 %
Extraction speed 1.4 X
Track quality 100.0 %
Test CRC 3E04DB7E
Copy CRC 3E04DB7E
Accurately ripped (confidence 1) [F0AD6B40]
Copy OK
Track 40
Filename C:\MY RIPS\40 - Humilitas.wav
Peak level 34.0 %
Extraction speed 0.9 X
Track quality 99.8 %
Test CRC AC3BF8ED
Copy CRC AC3BF8ED
Accurately ripped (confidence 1) [EAA2053C]
Copy OK
Track 41
Filename C:\MY RIPS\41 - Diabolus.wav
Peak level 8.5 %
Extraction speed 1.8 X
Track quality 100.0 %
Test CRC 3988A4BD
Copy CRC 3988A4BD
Accurately ripped (confidence 1) [3FC8001E]
Copy OK
Track 42
Filename C:\MY RIPS\42 - Paenitens Anima.wav
Peak level 15.4 %
Extraction speed 1.0 X
Track quality 100.0 %
Test CRC CDE34F64
Copy CRC CDE34F64
Accurately ripped (confidence 1) [0F4471A9]
Copy OK
Track 43
Filename C:\MY RIPS\43 - Anima Illa.wav
Peak level 12.5 %
Extraction speed 1.6 X
Track quality 100.0 %
Test CRC EDF3D344
Copy CRC EDF3D344
Accurately ripped (confidence 1) [7B655DAE]
Copy OK
Track 44
Filename C:\MY RIPS\44 - Humilitas Ad Victoriam.wav
Peak level 98.8 %
Extraction speed 2.0 X
Track quality 100.0 %
Test CRC B92EBC98
Copy CRC B92EBC98
Accurately ripped (confidence 1) [EFB26923]
Copy OK
Track 45
Filename C:\MY RIPS\45 - Victoria Ad Virtutes.wav
Peak level 98.8 %
Extraction speed 1.6 X
Track quality 100.0 %
Test CRC 204AD517
Copy CRC 204AD517
Accurately ripped (confidence 1) [A4C92DC2]
Copy OK
Track 46
Filename C:\MY RIPS\46 - Virtutes.wav
Peak level 68.3 %
Extraction speed 1.5 X
Track quality 100.0 %
Test CRC F84BE9C8
Copy CRC F84BE9C8
Accurately ripped (confidence 1) [E3FA88EF]
Copy OK
Track 47
Filename C:\MY RIPS\47 - Victoria.wav
Peak level 16.3 %
Extraction speed 1.3 X
Track quality 100.0 %
Test CRC 1CCB311A
Copy CRC 1CCB311A
Accurately ripped (confidence 1) [7957C683]
Copy OK
Track 48
Filename C:\MY RIPS\48 - Castitas.wav
Peak level 65.0 %
Extraction speed 0.9 X
Track quality 99.8 %
Test CRC 30FED3D5
Copy CRC 30FED3D5
Accurately ripped (confidence 1) [09BAE514]
Copy OK
Track 49
Filename C:\MY RIPS\49 - Diabolus.wav
Peak level 33.9 %
Extraction speed 0.4 X
Track quality 99.7 %
Test CRC 8256EAFB
Copy CRC 8256EAFB
Accurately ripped (confidence 1) [0F9707B8]
Copy OK
Track 50
Filename C:\MY RIPS\50 - Castitas.wav
Peak level 29.2 %
Extraction speed 2.2 X
Track quality 100.0 %
Test CRC 297CCAB7
Copy CRC 297CCAB7
Accurately ripped (confidence 1) [2D576008]
Copy OK
Track 51
Filename C:\MY RIPS\51 - Epilog.wav
Peak level 27.2 %
Extraction speed 2.5 X
Track quality 100.0 %
Test CRC F835B758
Copy CRC F835B758
Accurately ripped (confidence 1) [A7FDF56A]
Copy OK
All tracks accurately ripped
No errors occurred
End of status report
==== Log checksum 0DB92656C3470C3B04BA5C5C7302D11788E8C60EED7852BC2286EBA210AC094F ====

Содержание индексной карты (.CUE)

REM DATE 2013
REM DISCID EC127C33
REM COMMENT "ExactAudioCopy v1.0b1"
PERFORMER "Ensemble Belcanto"
TITLE "Ordo Virtutum"
FILE "01 - Patriarchae Et Prophetae.wav" WAVE
TRACK 01 AUDIO
TITLE "Patriarchae Et Prophetae"
PERFORMER "Ensemble Belcanto"
FLAGS DCP
INDEX 01 00:00:00
FILE "02 - Patriarchae Et Prophetae.wav" WAVE
TRACK 02 AUDIO
TITLE "Patriarchae Et Prophetae"
PERFORMER "Ensemble Belcanto"
FLAGS DCP
INDEX 01 00:00:00
FILE "03 - Querela Animarum In Carne Positarum.wav" WAVE
TRACK 03 AUDIO
TITLE "Querela Animarum In Carne Positarum"
PERFORMER "Ensemble Belcanto"
FLAGS DCP
INDEX 01 00:00:00
FILE "04 - Felix Anima.wav" WAVE
TRACK 04 AUDIO
TITLE "Felix Anima"
PERFORMER "Ensemble Belcanto"
FLAGS DCP
INDEX 01 00:00:00
FILE "05 - Felix Anima.wav" WAVE
TRACK 05 AUDIO
TITLE "Felix Anima"
PERFORMER "Ensemble Belcanto"
FLAGS DCP
INDEX 01 00:00:00
FILE "06 - Virtutes.wav" WAVE
TRACK 06 AUDIO
TITLE "Virtutes"
PERFORMER "Ensemble Belcanto"
FLAGS DCP
INDEX 01 00:00:00
FILE "07 - Anima Illa.wav" WAVE
TRACK 07 AUDIO
TITLE "Anima Illa"
PERFORMER "Ensemble Belcanto"
FLAGS DCP
INDEX 01 00:00:00
FILE "08 - Scientia Dei Ad Animam Illam.wav" WAVE
TRACK 08 AUDIO
TITLE "Scientia Dei Ad Animam Illam"
PERFORMER "Ensemble Belcanto"
FLAGS DCP
INDEX 01 00:00:00
FILE "09 - Infelix Anima.wav" WAVE
TRACK 09 AUDIO
TITLE "Infelix Anima"
PERFORMER "Ensemble Belcanto"
FLAGS DCP
INDEX 01 00:00:00
FILE "10 - Scientia Dei.wav" WAVE
TRACK 10 AUDIO
TITLE "Scientia Dei"
PERFORMER "Ensemble Belcanto"
FLAGS DCP
INDEX 01 00:00:00
FILE "11 - Anima Illa.wav" WAVE
TRACK 11 AUDIO
TITLE "Anima Illa"
PERFORMER "Ensemble Belcanto"
FLAGS DCP
INDEX 01 00:00:00
FILE "12 - Strepitus Diaboli Ad Animam Illam.wav" WAVE
TRACK 12 AUDIO
TITLE "Strepitus Diaboli Ad Animam Illam"
PERFORMER "Ensemble Belcanto"
FLAGS DCP
INDEX 01 00:00:00
FILE "13 - Diabolus.wav" WAVE
TRACK 13 AUDIO
TITLE "Diabolus"
PERFORMER "Ensemble Belcanto"
FLAGS DCP
INDEX 01 00:00:00
FILE "14 - Humilitas.wav" WAVE
TRACK 14 AUDIO
TITLE "Humilitas"
PERFORMER "Ensemble Belcanto"
FLAGS DCP
INDEX 01 00:00:00
FILE "15 - Humilitas.wav" WAVE
TRACK 15 AUDIO
TITLE "Humilitas"
PERFORMER "Ensemble Belcanto"
FLAGS DCP
INDEX 01 00:00:00
FILE "16 - Humilitas.wav" WAVE
TRACK 16 AUDIO
TITLE "Humilitas"
PERFORMER "Ensemble Belcanto"
FLAGS DCP
INDEX 01 00:00:00
FILE "17 - Caritas.wav" WAVE
TRACK 17 AUDIO
TITLE "Caritas"
PERFORMER "Ensemble Belcanto"
FLAGS DCP
INDEX 01 00:00:00
FILE "18 - Timor Dei.wav" WAVE
TRACK 18 AUDIO
TITLE "Timor Dei"
PERFORMER "Ensemble Belcanto"
FLAGS DCP
INDEX 01 00:00:00
FILE "19 - Diabolus.wav" WAVE
TRACK 19 AUDIO
TITLE "Diabolus"
PERFORMER "Ensemble Belcanto"
FLAGS DCP
INDEX 01 00:00:00
FILE "20 - Obedientia.wav" WAVE
TRACK 20 AUDIO
TITLE "Obedientia"
PERFORMER "Ensemble Belcanto"
FLAGS DCP
INDEX 01 00:00:00
FILE "21 - Fides.wav" WAVE
TRACK 21 AUDIO
TITLE "Fides"
PERFORMER "Ensemble Belcanto"
FLAGS DCP
INDEX 01 00:00:00
FILE "22 - Spes.wav" WAVE
TRACK 22 AUDIO
TITLE "Spes"
PERFORMER "Ensemble Belcanto"
FLAGS DCP
INDEX 01 00:00:00
FILE "23 - Castitas.wav" WAVE
TRACK 23 AUDIO
TITLE "Castitas"
PERFORMER "Ensemble Belcanto"
FLAGS DCP
INDEX 01 00:00:00
FILE "24 - Innocentia.wav" WAVE
TRACK 24 AUDIO
TITLE "Innocentia"
PERFORMER "Ensemble Belcanto"
FLAGS DCP
INDEX 01 00:00:00
FILE "25 - Contemptus Mundi.wav" WAVE
TRACK 25 AUDIO
TITLE "Contemptus Mundi"
PERFORMER "Ensemble Belcanto"
FLAGS DCP
INDEX 01 00:00:00
FILE "26 - Amor Caelestis.wav" WAVE
TRACK 26 AUDIO
TITLE "Amor Caelestis"
PERFORMER "Ensemble Belcanto"
FLAGS DCP
INDEX 01 00:00:00
FILE "27 - Disciplina.wav" WAVE
TRACK 27 AUDIO
TITLE "Disciplina"
PERFORMER "Ensemble Belcanto"
FLAGS DCP
INDEX 01 00:00:00
FILE "28 - Verecundia.wav" WAVE
TRACK 28 AUDIO
TITLE "Verecundia"
PERFORMER "Ensemble Belcanto"
FLAGS DCP
INDEX 01 00:00:00
FILE "29 - Misericordia.wav" WAVE
TRACK 29 AUDIO
TITLE "Misericordia"
PERFORMER "Ensemble Belcanto"
FLAGS DCP
INDEX 01 00:00:00
FILE "30 - Victoria.wav" WAVE
TRACK 30 AUDIO
TITLE "Victoria"
PERFORMER "Ensemble Belcanto"
FLAGS DCP
INDEX 01 00:00:00
FILE "31 - Discretio.wav" WAVE
TRACK 31 AUDIO
TITLE "Discretio"
PERFORMER "Ensemble Belcanto"
FLAGS DCP
INDEX 01 00:00:00
FILE "32 - Patientia.wav" WAVE
TRACK 32 AUDIO
TITLE "Patientia"
PERFORMER "Ensemble Belcanto"
FLAGS DCP
INDEX 01 00:00:00
FILE "33 - Track33.wav" WAVE
TRACK 33 AUDIO
TITLE "Track33"
PERFORMER "Ensemble Belcanto"
FLAGS DCP
INDEX 01 00:00:00
FILE "34 - Querela Animae Paenitentis.wav" WAVE
TRACK 34 AUDIO
TITLE "Querela Animae Paenitentis"
PERFORMER "Ensemble Belcanto"
FLAGS DCP
INDEX 01 00:00:00
FILE "35 - Anima Illa.wav" WAVE
TRACK 35 AUDIO
TITLE "Anima Illa"
PERFORMER "Ensemble Belcanto"
FLAGS DCP
INDEX 01 00:00:00
FILE "36 - Anima Illa.wav" WAVE
TRACK 36 AUDIO
TITLE "Anima Illa"
PERFORMER "Ensemble Belcanto"
FLAGS DCP
INDEX 01 00:00:00
FILE "37 - Paenitens Anima Ad Virtutes.wav" WAVE
TRACK 37 AUDIO
TITLE "Paenitens Anima Ad Virtutes"
PERFORMER "Ensemble Belcanto"
FLAGS DCP
INDEX 01 00:00:00
FILE "38 - Anima Illa.wav" WAVE
TRACK 38 AUDIO
TITLE "Anima Illa"
PERFORMER "Ensemble Belcanto"
FLAGS DCP
INDEX 01 00:00:00
FILE "39 - Humilitas.wav" WAVE
TRACK 39 AUDIO
TITLE "Humilitas"
PERFORMER "Ensemble Belcanto"
FLAGS DCP
INDEX 01 00:00:00
FILE "40 - Humilitas.wav" WAVE
TRACK 40 AUDIO
TITLE "Humilitas"
PERFORMER "Ensemble Belcanto"
FLAGS DCP
INDEX 01 00:00:00
FILE "41 - Diabolus.wav" WAVE
TRACK 41 AUDIO
TITLE "Diabolus"
PERFORMER "Ensemble Belcanto"
FLAGS DCP
INDEX 01 00:00:00
FILE "42 - Paenitens Anima.wav" WAVE
TRACK 42 AUDIO
TITLE "Paenitens Anima"
PERFORMER "Ensemble Belcanto"
FLAGS DCP
INDEX 01 00:00:00
FILE "43 - Anima Illa.wav" WAVE
TRACK 43 AUDIO
TITLE "Anima Illa"
PERFORMER "Ensemble Belcanto"
FLAGS DCP
INDEX 01 00:00:00
FILE "44 - Humilitas Ad Victoriam.wav" WAVE
TRACK 44 AUDIO
TITLE "Humilitas Ad Victoriam"
PERFORMER "Ensemble Belcanto"
FLAGS DCP
INDEX 01 00:00:00
FILE "45 - Victoria Ad Virtutes.wav" WAVE
TRACK 45 AUDIO
TITLE "Victoria Ad Virtutes"
PERFORMER "Ensemble Belcanto"
FLAGS DCP
INDEX 01 00:00:00
FILE "46 - Virtutes.wav" WAVE
TRACK 46 AUDIO
TITLE "Virtutes"
PERFORMER "Ensemble Belcanto"
FLAGS DCP
INDEX 01 00:00:00
FILE "47 - Victoria.wav" WAVE
TRACK 47 AUDIO
TITLE "Victoria"
PERFORMER "Ensemble Belcanto"
FLAGS DCP
INDEX 01 00:00:00
FILE "48 - Castitas.wav" WAVE
TRACK 48 AUDIO
TITLE "Castitas"
PERFORMER "Ensemble Belcanto"
FLAGS DCP
INDEX 01 00:00:00
FILE "49 - Diabolus.wav" WAVE
TRACK 49 AUDIO
TITLE "Diabolus"
PERFORMER "Ensemble Belcanto"
FLAGS DCP
INDEX 01 00:00:00
FILE "50 - Castitas.wav" WAVE
TRACK 50 AUDIO
TITLE "Castitas"
PERFORMER "Ensemble Belcanto"
FLAGS DCP
INDEX 01 00:00:00
FILE "51 - Epilog.wav" WAVE
TRACK 51 AUDIO
TITLE "Epilog"
PERFORMER "Ensemble Belcanto"
FLAGS DCP
INDEX 01 00:00:00
Доп. информация: This is the second New Series album to feature the Ensemble Belcanto. Where its predecessor focused on contemporary composition, this new disc looks at Hildegard of Bingen’s Ordo Virtutum, written around 1150 and generally considered the first large-scale musical work beyond the prescribed form of the Mass liturgy. In her creative interpretation, Belcanto leader Dietburg Spohr waives claims to ‘objective’ historical literalness. Instead, she and her fellow singers encounter the work as if it were written specifically for the Ensemble Belcanto: “We sought to free Hildegard from mystical-esoteric associations and to emphasize the work of an emancipated woman and composer.”
[teatrix.ru].t17949.torrent 
Торрент: Зарегистрирован [ 2016-03-17 00:47 ] · 36F31B8F82C8D1DFB01C1383E8A169C6C576C2FA

Скачать .torrent

Скачать

33 KB

Статус: проверено
Скачан: 0 раз
Размер: 283 MB
terms.php



Быстрый ответ

Имя:

      
Для отправки сообщений необходимо включить JavaScript
Показать сообщения:    

Текущее время: 04-Дек 21:25

Часовой пояс: UTC + 3


Вы можете начинать темы
Вы можете отвечать на сообщения
Вы не можете редактировать свои сообщения
Вы не можете удалять свои сообщения
Вы не можете голосовать в опросах
Вы не можете прикреплять файлы к сообщениям
Вы можете скачивать файлы