(Classical, sacred) C.P.E. Bach - Markus-Passion - Bovet, Labusch, Turk, Sigrist, Pachner, Koch; Knabenkantorei Basel, Ensemble Ad Fontes, Beat Raaflaub - 2CD - 2009, FLAC (image+.cue) lossless


Статистика раздачи [Обновить пиров]
Размер:  473 MB   |    Зарегистрирован:  8 месяцев 19 дней   |    Скачан:  0 раз

Полного источника не было: Никогда

 
   
 
 
 

[Цитировать]

C.P.E. Bach - Markus-Passion - Bovet, Labusch, Türk, Sigrist, Pachner, Koch; Knabenkantorei Basel, Ensemble Ad Fontes, Beat Raaflaub
Жанр: Classical, sacred
Страна-производитель диска: Germany
Год издания диска: 2009
Издатель (лейбл): Ars Musici
Дата записи: 1994
Аудиокодек: FLAC
Тип рипа: image+.cue
Битрейт аудио: lossless
Продолжительность: 112:36
Источник: собственный рип
Наличие сканов в содержимом раздачи: да
Треклист:
Carl Philipp Emanuel Bach (1714-1788)
Markus-Passion
CD1
[1]-[9] First Part
[10]-[17] Second Part
CD2
[1]-[6] Third Part
[7]-[19] Fourth Part
Исполнители:
Martina Bovet soprano
Dorothee Labusch alto
Gerd Türk tenor (Evangelist)
Peter Sigrist tenor
Rainer Pachner bass (Christus)
René Koch bass
Knabenkantorei Basel
Ensemble Ad Fontes
Beat Raaflaub
conductor

Лог создания рипа: CD1

Exact Audio Copy V1.0 beta 3 from 29. August 2011
EAC extraction logfile from 25. October 2013, 17:32
Knabenkantorei Basel, Ensemble Ad Fontes, Beat Raaflaub / C.P.E. Bach - Markus-Passion - CD1
Used drive : HL-DT-STDVDRRW GWA-4164B Adapter: 5 ID: 0
Read mode : Secure
Utilize accurate stream : Yes
Defeat audio cache : Yes
Make use of C2 pointers : No
Read offset correction : 102
Overread into Lead-In and Lead-Out : No
Fill up missing offset samples with silence : Yes
Delete leading and trailing silent blocks : No
Null samples used in CRC calculations : Yes
Used interface : Native Win32 interface for Win NT & 2000
Used output format : User Defined Encoder
Selected bitrate : 896 kBit/s
Quality : High
Add ID3 tag : No
Command line compressor : C:\Program Files\Exact Audio Copy\FLAC\FLAC.EXE
Additional command line options : -V -8 %source%
TOC of the extracted CD
Track | Start | Length | Start sector | End sector
---------------------------------------------------------
1 | 0:00.00 | 4:41.62 | 0 | 21136
2 | 4:41.62 | 1:57.25 | 21137 | 29936
3 | 6:39.12 | 5:57.00 | 29937 | 56711
4 | 12:36.12 | 3:36.72 | 56712 | 72983
5 | 16:13.09 | 0:32.55 | 72984 | 75438
6 | 16:45.64 | 5:11.48 | 75439 | 98811
7 | 21:57.37 | 3:46.32 | 98812 | 115793
8 | 25:43.69 | 1:44.33 | 115794 | 123626
9 | 27:28.27 | 1:24.42 | 123627 | 129968
10 | 28:52.69 | 1:31.25 | 129969 | 136818
11 | 30:24.19 | 0:14.20 | 136819 | 137888
12 | 30:38.39 | 5:02.50 | 137889 | 160588
13 | 35:41.14 | 5:23.45 | 160589 | 184858
14 | 41:04.59 | 2:34.43 | 184859 | 196451
15 | 43:39.27 | 2:20.52 | 196452 | 207003
16 | 46:00.04 | 2:45.45 | 207004 | 219423
17 | 48:45.49 | 0:35.20 | 219424 | 222068
Range status and errors
Selected range
Filename D:\temp\Music\C.P.E. Bach - Markus-Passion (Knabenkantorei Basel, Ensemble Ad Fontes, Raaflaub)\C.P.E. Bach - Markus-Passion - CD1.wav
Peak level 78.5 %
Extraction speed 2.6 X
Range quality 100.0 %
Test CRC 256BB9C9
Copy CRC 256BB9C9
Copy OK
No errors occurred
AccurateRip summary
Track 1 not present in database
Track 2 not present in database
Track 3 not present in database
Track 4 not present in database
Track 5 not present in database
Track 6 not present in database
Track 7 not present in database
Track 8 not present in database
Track 9 not present in database
Track 10 not present in database
Track 11 not present in database
Track 12 not present in database
Track 13 not present in database
Track 14 not present in database
Track 15 not present in database
Track 16 not present in database
Track 17 not present in database
None of the tracks are present in the AccurateRip database
End of status report
==== Log checksum DDD6DDCAD6DDFC48FCF62DFE7414885926EB3CFF96B18F9025FC0330E5A0941B ====

Лог создания рипа: CD2

Exact Audio Copy V1.0 beta 3 from 29. August 2011
EAC extraction logfile from 25. October 2013, 18:21
Knabenkantorei Basel, Ensemble Ad Fontes, Beat Raaflaub / C.P.E. Bach - Markus-Passion - CD2
Used drive : HL-DT-STDVDRRW GWA-4164B Adapter: 5 ID: 0
Read mode : Secure
Utilize accurate stream : Yes
Defeat audio cache : Yes
Make use of C2 pointers : No
Read offset correction : 102
Overread into Lead-In and Lead-Out : No
Fill up missing offset samples with silence : Yes
Delete leading and trailing silent blocks : No
Null samples used in CRC calculations : Yes
Used interface : Native Win32 interface for Win NT & 2000
Used output format : User Defined Encoder
Selected bitrate : 896 kBit/s
Quality : High
Add ID3 tag : No
Command line compressor : C:\Program Files\Exact Audio Copy\FLAC\FLAC.EXE
Additional command line options : -V -8 %source%
TOC of the extracted CD
Track | Start | Length | Start sector | End sector
---------------------------------------------------------
1 | 0:00.00 | 1:05.02 | 0 | 4876
2 | 1:05.02 | 4:53.10 | 4877 | 26861
3 | 5:58.12 | 2:14.20 | 26862 | 36931
4 | 8:12.32 | 3:17.67 | 36932 | 51773
5 | 11:30.24 | 3:58.15 | 51774 | 69638
6 | 15:28.39 | 1:11.28 | 69639 | 74991
7 | 16:39.67 | 2:37.02 | 74992 | 86768
8 | 19:16.69 | 4:35.43 | 86769 | 107436
9 | 23:52.37 | 5:45.50 | 107437 | 133361
10 | 29:38.12 | 0:55.05 | 133362 | 137491
11 | 30:33.17 | 2:13.45 | 137492 | 147511
12 | 32:46.62 | 1:17.27 | 147512 | 153313
13 | 34:04.14 | 7:20.13 | 153314 | 186326
14 | 41:24.27 | 0:34.15 | 186327 | 188891
15 | 41:58.42 | 0:44.25 | 188892 | 192216
16 | 42:42.67 | 6:13.52 | 192217 | 220243
17 | 48:56.44 | 7:47.25 | 220244 | 255293
18 | 56:43.69 | 3:59.50 | 255294 | 273268
19 | 60:43.44 | 2:31.01 | 273269 | 284594
Range status and errors
Selected range
Filename D:\temp\Music\C.P.E. Bach - Markus-Passion (Knabenkantorei Basel, Ensemble Ad Fontes, Raaflaub)\C.P.E. Bach - Markus-Passion - CD2.wav
Peak level 82.8 %
Extraction speed 3.5 X
Range quality 99.9 %
Test CRC D6912D6C
Copy CRC D6912D6C
Copy OK
No errors occurred
AccurateRip summary
Track 1 not present in database
Track 2 not present in database
Track 3 not present in database
Track 4 not present in database
Track 5 not present in database
Track 6 not present in database
Track 7 not present in database
Track 8 not present in database
Track 9 not present in database
Track 10 not present in database
Track 11 not present in database
Track 12 not present in database
Track 13 not present in database
Track 14 not present in database
Track 15 not present in database
Track 16 not present in database
Track 17 not present in database
Track 18 not present in database
Track 19 not present in database
None of the tracks are present in the AccurateRip database
End of status report
==== Log checksum 1972D12A39CE7FC1A83A1150F0DAB4AEB81E1E08E8829C28132FCD63246D4FFA ====
[teatrix.ru].t17951.torrent 
Торрент: Зарегистрирован [ 2016-03-17 00:46 ] · FD776B3EF5C7AEB9BFAA247E69D0EA27BA705662

Скачать .torrent

Скачать

40 KB

Статус: проверено
Скачан: 0 раз
Размер: 473 MB
terms.php



Быстрый ответ

Имя:

      
Для отправки сообщений необходимо включить JavaScript
Показать сообщения:    

Текущее время: 05-Дек 15:32

Часовой пояс: UTC + 3


Вы можете начинать темы
Вы можете отвечать на сообщения
Вы не можете редактировать свои сообщения
Вы не можете удалять свои сообщения
Вы не можете голосовать в опросах
Вы не можете прикреплять файлы к сообщениям
Вы можете скачивать файлы