(Classical / Vocal) Johannes Brahms - Lieder / Songs / Йоханнес Брамс - Песни (Anne Sofie von Otter, Nils-Erik Sparf, Bengt Forsberg, 1989) - 1991, FLAC (tracks+.cue) lossless


 

[Цитировать]

Johannes Brahms | Йоханнес Брамс
(1833–1897)



Lieder | Songs | Песни


Anne Sofie von Otter mezzo-soprano
Nils-Erik Sparf violaBengt Forsberg piano


Жанр: Classical / Vocal
Дата и место записи: Studio Lankwitz, Berlin, XII.1989
Формат записи: DDD, Stereo
Год издания диска: 1991
Издатель (лейбл): Deutsche Grammophon
Номер по каталогу: 429 727-2
Аудиокодек: FLAC
Тип рипа: tracks+.cue
Битрейт аудио: lossless
Продолжительность: 1:00:45
Наличие сканов в содержимом раздачи: обложки
Источник: What.CD
Релизёр: rentboy

-Tracklist / Треклист
Zigeunerlieder, Op. 103 (nach dem Ungarischen von Conrat) - 12:03
Nr. 1. «He, Zigeuner» - 0:56
  • Nr. 2. «Hochgetürmte Rimaflut» - 1:23
  • Nr. 3. «Wißt ihr, wann mein Kindchen am allerschönsten ist?» - 1:32
  • Nr. 4. «Lieber Gott, du weißt» - 1:23
  • Nr. 5. «Brauner Bursche führt zum Tanze» - 1:33
  • Nr. 6. «Röslein dreie in der Reihe» - 1:25
  • Nr. 7. «Kommt dir manchmal in den Sinn» - 2:21
  • Nr. 11. «Rote Abendwolken» - 1:30
    «Dort in den Weiden steht ein Haus» (Volkslied), Op. 97 Nr. 4 - 1:34
  • «Vergebliches Ständchen» (Volkslied), Op. 84 Nr. 4 - 1:42
  • «Die Mainacht» (Hölty), Op. 43 Nr. 2 - 3:57
  • «Ach, wende diesen Blick» (Daumer), Op. 57 Nr. 4 - 2:00
  • «O kühler Wald» (Brentano), Op. 72 Nr. 3 - 2:28
  • «Von ewiger Liebe» (nach dem Wendischen von Wenzig), Op. 43 Nr. 1 - 4:39
  • «Junge Liebe» («Meine Liebe ist grün») (F. Schumann), Op. 63 Nr. 5 - 1:37
  • «Wie rafft' ich mich auf in der Nacht» (von Platen), Op. 32 Nr. 1 - 4:45
  • «Unbewegte laue Luft» (Daumer), Op. 57 Nr. 8 - 4:09
  • «Heimweh» («O wüßt ich doch den Weg zurück») (Groth), Op. 63 Nr. 8 - 3:22
  • «Mädchenlied» (Heyse), Op. 107 Nr. 5 - 1:36
  • «Ständchen» (Kugler), Op. 106 Nr. 1 - 1:41
  • «Sonntag» (Volkslied), Op. 47 Nr. 3 - 1:48
  • «Wiegenlied» (aus «Des Knaben Wunderhorn»), Op. 49 Nr. 4 - 1:53
    Zwei Gesänge, Op. 91 - 11:31
    Nr. 1. «Gestillte Sehnsucht» (Rückert) - 6:01
  • Nr. 2. «Geistliches Wiegenlied» (Vega / Geibel) - 5:30-

    EAC log / Отчёт EAC

    Exact Audio Copy V1.0 beta 3 from 29. August 2011
    EAC extraction logfile from 14. July 2013, 16:57
    Anne Sofie von Otter / Brahms Lieder - Anne Sofie von Otter, Bengt Forsberg
    Used drive : TEAC DW-224E-A Adapter: 1 ID: 0
    Read mode : Secure
    Utilize accurate stream : Yes
    Defeat audio cache : Yes
    Make use of C2 pointers : No
    Read offset correction : 102
    Overread into Lead-In and Lead-Out : No
    Fill up missing offset samples with silence : Yes
    Delete leading and trailing silent blocks : No
    Null samples used in CRC calculations : Yes
    Used interface : Native Win32 interface for Win NT & 2000
    Gap handling : Appended to previous track
    Used output format : User Defined Encoder
    Selected bitrate : 1024 kBit/s
    Quality : High
    Add ID3 tag : No
    Command line compressor : C:\Program Files\Exact Audio Copy\Flac\flac.exe
    Additional command line options : -8 -V -T "ARTIST=%artist%" -T "TITLE=%title%" -T "ALBUM=%albumtitle%" -T "DATE=%year%" -T "TRACKNUMBER=%tracknr1%" -T "GENRE=%genre%" -T "PERFORMER=%albuminterpret%" -T "COMPOSER=%composer%" %haslyrics%--tag-from-file=LYRICS="%lyricsfile%"%haslyrics% -T "ALBUMARTIST=%albumartist%" -T "DISCNUMBER=%cdnumber%" -T "TOTALDISCS=%totalcds%" -T "TOTALTRACKS=%numtracks%" -T "COMMENT=%comment%" %source% -o %dest%
    TOC of the extracted CD
    Track | Start | Length | Start sector | End sector
    ---------------------------------------------------------
    1 | 0:00.33 | 0:56.00 | 33 | 4232
    2 | 0:56.33 | 1:23.00 | 4233 | 10457
    3 | 2:19.33 | 1:31.50 | 10458 | 17332
    4 | 3:51.08 | 1:22.50 | 17333 | 23532
    5 | 5:13.58 | 1:33.25 | 23533 | 30532
    6 | 6:47.08 | 1:25.25 | 30533 | 36932
    7 | 8:12.33 | 2:21.00 | 36933 | 47507
    8 | 10:33.33 | 1:29.50 | 47508 | 54232
    9 | 12:03.08 | 1:34.00 | 54233 | 61282
    10 | 13:37.08 | 1:41.50 | 61283 | 68907
    11 | 15:18.58 | 3:57.25 | 68908 | 86707
    12 | 19:16.08 | 2:00.00 | 86708 | 95707
    13 | 21:16.08 | 2:28.25 | 95708 | 106832
    14 | 23:44.33 | 4:38.50 | 106833 | 127732
    15 | 28:23.08 | 1:37.37 | 127733 | 135044
    16 | 30:00.45 | 4:44.38 | 135045 | 156382
    17 | 34:45.08 | 4:09.00 | 156383 | 175057
    18 | 38:54.08 | 3:21.62 | 175058 | 190194
    19 | 42:15.70 | 1:36.13 | 190195 | 197407
    20 | 43:52.08 | 1:41.00 | 197408 | 204982
    21 | 45:33.08 | 1:48.25 | 204983 | 213107
    22 | 47:21.33 | 1:53.37 | 213108 | 221619
    23 | 49:14.70 | 6:00.63 | 221620 | 248682
    24 | 55:15.58 | 5:29.50 | 248683 | 273407
    Track 1
    Filename C:\EAC\Rips\Johannes Brahms, Lieder - Anne Sofie von Otter, Bengt Forsberg (1990) - FLAC\01 - Brahms Zigeunerlieder Op.103 - 1. He, Zigeuner.wav
    Pre-gap length 0:00:02.44
    Peak level 51.3 %
    Extraction speed 0.7 X
    Track quality 100.0 %
    Test CRC 1730E817
    Copy CRC 1730E817
    Cannot be verified as accurate (confidence 8) [66B929B9], AccurateRip returned [F58F149F] (AR v2)
    Copy OK
    Track 2
    Filename C:\EAC\Rips\Johannes Brahms, Lieder - Anne Sofie von Otter, Bengt Forsberg (1990) - FLAC\02 - Brahms Zigeunerlieder Op.103 - 2. Hochgetürmte Rimaflut.wav
    Pre-gap length 0:00:01.00
    Peak level 56.1 %
    Extraction speed 0.6 X
    Track quality 99.8 %
    Test CRC 0D20AF97
    Copy CRC 0D20AF97
    Cannot be verified as accurate (confidence 8) [CB2BD4C9], AccurateRip returned [364C8A95] (AR v2)
    Copy OK
    Track 3
    Filename C:\EAC\Rips\Johannes Brahms, Lieder - Anne Sofie von Otter, Bengt Forsberg (1990) - FLAC\03 - Brahms Zigeunerlieder Op.103 - 3. Wißt ihr, wann mein Kindchen.wav
    Pre-gap length 0:00:01.30
    Peak level 54.6 %
    Extraction speed 0.8 X
    Track quality 100.0 %
    Test CRC 6C033983
    Copy CRC 6C033983
    Cannot be verified as accurate (confidence 8) [AED92726], AccurateRip returned [CE285350] (AR v2)
    Copy OK
    Track 4
    Filename C:\EAC\Rips\Johannes Brahms, Lieder - Anne Sofie von Otter, Bengt Forsberg (1990) - FLAC\04 - Brahms Zigeunerlieder Op.103 - 4. Lieber Gott, du weißt.wav
    Pre-gap length 0:00:01.66
    Peak level 65.6 %
    Extraction speed 0.6 X
    Track quality 99.8 %
    Test CRC 5B74A78D
    Copy CRC 5B74A78D
    Cannot be verified as accurate (confidence 8) [28AC0FE5], AccurateRip returned [F300C5B5] (AR v2)
    Copy OK
    Track 5
    Filename C:\EAC\Rips\Johannes Brahms, Lieder - Anne Sofie von Otter, Bengt Forsberg (1990) - FLAC\05 - Brahms Zigeunerlieder Op.103 - 5. Brauner Bursche führt zum Tanze.wav
    Pre-gap length 0:00:01.33
    Peak level 66.2 %
    Extraction speed 0.9 X
    Track quality 100.0 %
    Test CRC 0D34556C
    Copy CRC 0D34556C
    Cannot be verified as accurate (confidence 8) [77084DC7], AccurateRip returned [51BAA12E] (AR v2)
    Copy OK
    Track 6
    Filename C:\EAC\Rips\Johannes Brahms, Lieder - Anne Sofie von Otter, Bengt Forsberg (1990) - FLAC\06 - Brahms Zigeunerlieder Op.103 - 6. Röslein dreie in der Reihe.wav
    Pre-gap length 0:00:01.00
    Peak level 71.7 %
    Extraction speed 0.6 X
    Track quality 99.8 %
    Test CRC 54A1CFA9
    Copy CRC 54A1CFA9
    Cannot be verified as accurate (confidence 8) [EF3B03E4], AccurateRip returned [B588E1C3] (AR v2)
    Copy OK
    Track 7
    Filename C:\EAC\Rips\Johannes Brahms, Lieder - Anne Sofie von Otter, Bengt Forsberg (1990) - FLAC\07 - Brahms Zigeunerlieder Op.103 - 7. Kommt dir manchmal in den Sinn.wav
    Pre-gap length 0:00:00.93
    Peak level 62.9 %
    Extraction speed 0.9 X
    Track quality 100.0 %
    Test CRC C5A0B2B6
    Copy CRC C5A0B2B6
    Cannot be verified as accurate (confidence 8) [E4D42A1E], AccurateRip returned [6EDD657A] (AR v2)
    Copy OK
    Track 8
    Filename C:\EAC\Rips\Johannes Brahms, Lieder - Anne Sofie von Otter, Bengt Forsberg (1990) - FLAC\08 - Brahms Zigeunerlieder Op.103 - 11. Rote Abendwolken.wav
    Pre-gap length 0:00:01.33
    Peak level 78.4 %
    Extraction speed 0.8 X
    Track quality 100.0 %
    Test CRC 08D5135D
    Copy CRC 08D5135D
    Cannot be verified as accurate (confidence 8) [FD549A36], AccurateRip returned [28F3E729] (AR v2)
    Copy OK
    Track 9
    Filename C:\EAC\Rips\Johannes Brahms, Lieder - Anne Sofie von Otter, Bengt Forsberg (1990) - FLAC\09 - Brahms Dort in den Weiden Op.97 No.4.wav
    Pre-gap length 0:00:04.00
    Peak level 74.2 %
    Extraction speed 0.9 X
    Track quality 100.0 %
    Test CRC B193C198
    Copy CRC B193C198
    Cannot be verified as accurate (confidence 8) [1295B78E], AccurateRip returned [BF1EB6C3] (AR v2)
    Copy OK
    Track 10
    Filename C:\EAC\Rips\Johannes Brahms, Lieder - Anne Sofie von Otter, Bengt Forsberg (1990) - FLAC\10 - Brahms Vergebliches Ständchen Op.84 No.4.wav
    Pre-gap length 0:00:04.00
    Peak level 58.4 %
    Extraction speed 0.9 X
    Track quality 100.0 %
    Test CRC 2D6DA0AC
    Copy CRC 2D6DA0AC
    Cannot be verified as accurate (confidence 8) [D9474A83], AccurateRip returned [C0D8A008] (AR v2)
    Copy OK
    Track 11
    Filename C:\EAC\Rips\Johannes Brahms, Lieder - Anne Sofie von Otter, Bengt Forsberg (1990) - FLAC\11 - Brahms Die Mainacht Op.43 No.2.wav
    Pre-gap length 0:00:03.00
    Peak level 73.3 %
    Extraction speed 1.0 X
    Track quality 100.0 %
    Test CRC FD18BB0E
    Copy CRC FD18BB0E
    Cannot be verified as accurate (confidence 8) [AC0024E7], AccurateRip returned [B4C9DB48] (AR v2)
    Copy OK
    Track 12
    Filename C:\EAC\Rips\Johannes Brahms, Lieder - Anne Sofie von Otter, Bengt Forsberg (1990) - FLAC\12 - Brahms Ach, wende diesen Blick Op.57 No.4.wav
    Pre-gap length 0:00:04.86
    Peak level 77.2 %
    Extraction speed 0.9 X
    Track quality 100.0 %
    Test CRC 66CDDBD9
    Copy CRC 66CDDBD9
    Cannot be verified as accurate (confidence 8) [576CF081], AccurateRip returned [03BBFFC9] (AR v2)
    Copy OK
    Track 13
    Filename C:\EAC\Rips\Johannes Brahms, Lieder - Anne Sofie von Otter, Bengt Forsberg (1990) - FLAC\13 - Brahms O kühler Wald Op.72 No.3.wav
    Pre-gap length 0:00:05.33
    Peak level 59.1 %
    Extraction speed 1.0 X
    Track quality 100.0 %
    Test CRC F500F46C
    Copy CRC F500F46C
    Cannot be verified as accurate (confidence 8) [181B9DE3], AccurateRip returned [6420C79F] (AR v2)
    Copy OK
    Track 14
    Filename C:\EAC\Rips\Johannes Brahms, Lieder - Anne Sofie von Otter, Bengt Forsberg (1990) - FLAC\14 - Brahms Von ewiger Liebe Op.43 No.1.wav
    Pre-gap length 0:00:05.66
    Peak level 88.2 %
    Extraction speed 1.1 X
    Track quality 100.0 %
    Test CRC 9330F076
    Copy CRC 9330F076
    Cannot be verified as accurate (confidence 8) [E7B8B7FB], AccurateRip returned [0F0020AC] (AR v2)
    Copy OK
    Track 15
    Filename C:\EAC\Rips\Johannes Brahms, Lieder - Anne Sofie von Otter, Bengt Forsberg (1990) - FLAC\15 - Brahms Meine Liebe ist grün Op.63 No.5.wav
    Pre-gap length 0:00:04.66
    Peak level 74.8 %
    Extraction speed 0.9 X
    Track quality 100.0 %
    Test CRC 1387489E
    Copy CRC 1387489E
    Cannot be verified as accurate (confidence 8) [F86EBD80], AccurateRip returned [F4121B9B] (AR v2)
    Copy OK
    Track 16
    Filename C:\EAC\Rips\Johannes Brahms, Lieder - Anne Sofie von Otter, Bengt Forsberg (1990) - FLAC\16 - Brahms Wie rafft' ich mich auf Op.32 No.1.wav
    Pre-gap length 0:00:04.49
    Peak level 77.2 %
    Extraction speed 1.0 X
    Track quality 99.9 %
    Test CRC 9976C1CB
    Copy CRC 9976C1CB
    Cannot be verified as accurate (confidence 8) [023E0259], AccurateRip returned [42D47840] (AR v2)
    Copy OK
    Track 17
    Filename C:\EAC\Rips\Johannes Brahms, Lieder - Anne Sofie von Otter, Bengt Forsberg (1990) - FLAC\17 - Brahms Unbewegte laue Luft Op.57 No.8.wav
    Pre-gap length 0:00:03.10
    Peak level 69.3 %
    Extraction speed 0.9 X
    Track quality 99.9 %
    Test CRC 34729551
    Copy CRC 34729551
    Cannot be verified as accurate (confidence 8) [59397DEA], AccurateRip returned [42D79122] (AR v2)
    Copy OK
    Track 18
    Filename C:\EAC\Rips\Johannes Brahms, Lieder - Anne Sofie von Otter, Bengt Forsberg (1990) - FLAC\18 - Brahms Heimweh Op.63 No.8.wav
    Pre-gap length 0:00:03.00
    Peak level 58.4 %
    Extraction speed 0.9 X
    Track quality 99.9 %
    Test CRC 16D41053
    Copy CRC 16D41053
    Cannot be verified as accurate (confidence 8) [0001FBA6], AccurateRip returned [52A61DE5] (AR v2)
    Copy OK
    Track 19
    Filename C:\EAC\Rips\Johannes Brahms, Lieder - Anne Sofie von Otter, Bengt Forsberg (1990) - FLAC\19 - Brahms Mädchenlied Op.103 No.5.wav
    Pre-gap length 0:00:02.53
    Peak level 80.8 %
    Extraction speed 0.8 X
    Track quality 100.0 %
    Test CRC 1745A097
    Copy CRC 1745A097
    Cannot be verified as accurate (confidence 8) [0FC82E9B], AccurateRip returned [52D7697A] (AR v2)
    Copy OK
    Track 20
    Filename C:\EAC\Rips\Johannes Brahms, Lieder - Anne Sofie von Otter, Bengt Forsberg (1990) - FLAC\20 - Brahms Ständchen Op.106 No.1.wav
    Pre-gap length 0:00:03.33
    Peak level 38.8 %
    Extraction speed 0.9 X
    Track quality 100.0 %
    Test CRC 36C78101
    Copy CRC 36C78101
    Cannot be verified as accurate (confidence 8) [1E922648], AccurateRip returned [1BD5E04B] (AR v2)
    Copy OK
    Track 21
    Filename C:\EAC\Rips\Johannes Brahms, Lieder - Anne Sofie von Otter, Bengt Forsberg (1990) - FLAC\21 - Brahms Sonntag Op.47 No.3.wav
    Pre-gap length 0:00:01.70
    Peak level 61.5 %
    Extraction speed 0.9 X
    Track quality 100.0 %
    Test CRC 946A1D06
    Copy CRC 946A1D06
    Cannot be verified as accurate (confidence 8) [2C0A538A], AccurateRip returned [06A13A3F] (AR v2)
    Copy OK
    Track 22
    Filename C:\EAC\Rips\Johannes Brahms, Lieder - Anne Sofie von Otter, Bengt Forsberg (1990) - FLAC\22 - Brahms Wiegenlied Op.49 No.4.wav
    Pre-gap length 0:00:03.33
    Peak level 15.8 %
    Extraction speed 0.7 X
    Track quality 99.9 %
    Test CRC 3E9C89A9
    Copy CRC 3E9C89A9
    Cannot be verified as accurate (confidence 8) [DB90888D], AccurateRip returned [E8007DC9] (AR v2)
    Copy OK
    Track 23
    Filename C:\EAC\Rips\Johannes Brahms, Lieder - Anne Sofie von Otter, Bengt Forsberg (1990) - FLAC\23 - Brahms Zwei Gesänge Op.91 - 1. Gestillte Sehnsucht.wav
    Pre-gap length 0:00:04.49
    Peak level 78.4 %
    Extraction speed 1.0 X
    Track quality 99.9 %
    Test CRC BE4AFB50
    Copy CRC BE4AFB50
    Cannot be verified as accurate (confidence 8) [FE1F7737], AccurateRip returned [5D873C28] (AR v2)
    Copy OK
    Track 24
    Filename C:\EAC\Rips\Johannes Brahms, Lieder - Anne Sofie von Otter, Bengt Forsberg (1990) - FLAC\24 - Brahms Zwei Gesänge Op.91 - 2. Geistliches Wiegenlied.wav
    Pre-gap length 0:00:04.33
    Peak level 45.4 %
    Extraction speed 1.0 X
    Track quality 99.9 %
    Test CRC 34A7DDEF
    Copy CRC 34A7DDEF
    Cannot be verified as accurate (confidence 7) [B57280B8], AccurateRip returned [451BEFFF] (AR v2)
    Copy OK
    No tracks could be verified as accurate
    You may have a different pressing from the one(s) in the database
    No errors occurred
    End of status report
    ==== Log checksum 39C57B267446022AF945CC98AA20CF7426580A02967B6D1ABE9F86649DE07ABA ====

    auCDtect Task Manager log / Отчёт auCDtect Task Manager

    -----------------------
    DON'T MODIFY THIS FILE
    -----------------------
    PERFORMER: auCDtect Task Manager, ver. 1.5.1RC3 build 1.5.1.4
    Copyright (c) 2008-2010 y-soft. All rights reserved
    ANALYZER: auCDtect: CD records authenticity detector, version 0.8.2
    Copyright (c) 2004 Oleg Berngardt. All rights reserved.
    Copyright (c) 2004 Alexander Djourik. All rights reserved.
    FILE: 12 - Ach, wende diesen Blick (Daumer), Op. 57 Nr. 4.flac
    Size: 6986365 Hash: 37DA225441BBBB5C7D323CECFA2FFB7D Accuracy: -m0
    Conclusion: CDDA 94%
    Signature: 69418AE84388C6BB8347C468134964AF75A0495D
    FILE: 11 - Die Mainacht (Hoelty), Op. 43 Nr. 2.flac
    Size: 11791533 Hash: 48EFFF426AD3918771843D584DFEAECD Accuracy: -m0
    Conclusion: CDDA 87%
    Signature: CEC6F6B613301242D772DB9732590E3C8535F1DD
    FILE: 10 - Vergebliches Staendchen (Volkslied), Op. 84 Nr. 4.flac
    Size: 5630872 Hash: 4E2CFA07002E87E56F2B0B0A1CC56472 Accuracy: -m0
    Conclusion: CDDA 100%
    Signature: D3A4D92F843CC1DE9BD691AB36CBFB9B275CBCC4
    FILE: 09 - Dort in den Weiden steht ein Haus (Volkslied), Op. 97 Nr. 4.flac
    Size: 5323212 Hash: C70C4A6F1AD8B345173DC5B03BE068C0 Accuracy: -m0
    Conclusion: CDDA 100%
    Signature: 658DFBC6AB2BE7515A047E578CD1F467C27E05AE
    FILE: 08 - Zigeunerlieder, Op. 103 (Conrat) - Nr. 11. Rote Abendwolken.flac
    Size: 5766759 Hash: 0AD75F6981FD9B23DA047AE37F213823 Accuracy: -m0
    Conclusion: CDDA 86%
    Signature: FD47142F9E610541AC4E23AD919F7F8BC2F9293F
    FILE: 07 - Zigeunerlieder, Op. 103 (Conrat) - Nr. 7. Kommt dir manchmal in den Sinn.flac
    Size: 7196775 Hash: 97FB52C226CDAC337BD38E69A80EDF14 Accuracy: -m0
    Conclusion: CDDA 92%
    Signature: A344F5147E10E3C557F3DACDD82714AB1EA8D82B
    FILE: 06 - Zigeunerlieder, Op. 103 (Conrat) - Nr. 6. Roeslein dreie in der Reihe.flac
    Size: 5336728 Hash: 77F24D2A6ED6F08CD863C82C12DC3D68 Accuracy: -m0
    Conclusion: CDDA 86%
    Signature: B4CA38DC541D85A53EAB930044B001402B77E357
    FILE: 05 - Zigeunerlieder, Op. 103 (Conrat) - Nr. 5. Brauner Bursche fuehrt zum Tanze.flac
    Size: 5886854 Hash: AA9180A682E1C1CD4359070A5F1BCF44 Accuracy: -m0
    Conclusion: CDDA 94%
    Signature: 69A4E635E6F2C5D90CE306C99C9B1E10FF29C281
    FILE: 04 - Zigeunerlieder, Op. 103 (Conrat) - Nr. 4. Lieber Gott, du weisst.flac
    Size: 4889554 Hash: FEB0E7B2D44BB9179CBF6268358D607D Accuracy: -m0
    Conclusion: CDDA 100%
    Signature: E7090583E2A5DFBDAB39F1765FA802C9F17ED6BE
    FILE: 03 - Zigeunerlieder, Op. 103 (Conrat) - Nr. 3. Wisst ihr, wann mein Kindchen am allerschoensten ist.flac
    Size: 5074399 Hash: 84D4BBCA2C119B373DECE5F54F7CBC8F Accuracy: -m0
    Conclusion: CDDA 58%
    Signature: C2B2430E820C902F8D4045B665F6F710188D174B
    FILE: 02 - Zigeunerlieder, Op. 103 (Conrat) - Nr. 2. Hochgetuermte Rimaflut.flac
    Size: 5380782 Hash: E7871B3BFCCF456A54D61341C1D6C211 Accuracy: -m0
    Conclusion: CDDA 54%
    Signature: B2D957ED8CF82A242F4CBBEA36B97B2722076C6F
    FILE: 01 - Zigeunerlieder, Op. 103 (Conrat) - Nr. 1. He, Zigeuner.flac
    Size: 3299503 Hash: 3158400F1994965DD32AD844177FF81F Accuracy: -m0
    Conclusion: CDDA 99%
    Signature: 6F80ACD45F2E382FE71E5BA53170B5617BC5A964
    FILE: 24 - Zwei Gesaenge, Op. 91 - Nr. 2. Geistliches Wiegenlied (Vega - Geibel).flac
    Size: 18736056 Hash: 9FB8CAC3A98589471A5C39A994F8FB73 Accuracy: -m0
    Conclusion: CDDA 100%
    Signature: FDAFB9F1E6D42989CD40D6ADF0B19FFCEAAEE48E
    FILE: 23 - Zwei Gesaenge, Op. 91 - Nr. 1. Gestillte Sehnsucht (Rueckert).flac
    Size: 19737596 Hash: 1AE7FF232EA6252EBC6CFFF2CCD132C6 Accuracy: -m0
    Conclusion: CDDA 86%
    Signature: B2178BB886F64F0E3B92B1713B4D08993C547ADF
    FILE: 22 - Wiegenlied (aus Des Knaben Wunderhorn), Op. 49 Nr. 4.flac
    Size: 5024325 Hash: 0270EAA1990712B04EBBDDA8364CD0E5 Accuracy: -m0
    Conclusion: CDDA 100%
    Signature: 864F73EB838305C64492FDFA550333FB2F481221
    FILE: 21 - Sonntag (Volkslied), Op. 47 Nr. 3.flac
    Size: 5547843 Hash: 2F31F05DB723AA009D1E330FC0C730A5 Accuracy: -m0
    Conclusion: CDDA 58%
    Signature: C400A2BC72EBC23F97288E5DF00DAA51FA34F1EC
    FILE: 20 - Staendchen (Kugler), Op. 106 Nr. 1.flac
    Size: 4950776 Hash: AE8B4B95425F0CDBA34CAE115267FBA9 Accuracy: -m0
    Conclusion: CDDA 76%
    Signature: 53E4D0BB67B49DA318F62170402730EE7C9DA51E
    FILE: 19 - Maedchenlied (Heyse), Op. 107 Nr. 5.flac
    Size: 5262772 Hash: 8933AA05673616D9CE5654CBE5EE747C Accuracy: -m0
    Conclusion: CDDA 85%
    Signature: 0EB309CFC27A3BDB305A70C298B599A89F0DA283
    FILE: 18 - Heimweh (O wuesst ich doch den Weg zurueck) (Groth), Op. 63 Nr. 8.flac
    Size: 10151809 Hash: ECE3D5CA65DB3E85CA191ACA29AD627F Accuracy: -m0
    Conclusion: CDDA 100%
    Signature: B3966612D29936E0350E4A79D0D85291A2198546
    FILE: 17 - Unbewegte laue Luft (Daumer), Op. 57 Nr. 8.flac
    Size: 12394154 Hash: E58960B43B9529A1A473DE7A007C03B1 Accuracy: -m0
    Conclusion: CDDA 100%
    Signature: 7A54598544AE06ACA86EB67AFEBEB86CFD3F216B
    FILE: 16 - Wie rafft' ich mich auf in der Nacht (von Platen), Op. 32 Nr. 1.flac
    Size: 15656736 Hash: 41068F58DFE90610E4E65936E8B5C963 Accuracy: -m0
    Conclusion: CDDA 58%
    Signature: CB0B0B9470587FEA8BECC61BB06BD63241F2F9F0
    FILE: 15 - Junge Liebe (Meine Liebe ist gruen) (F. Schumann), Op. 63 Nr. 5.flac
    Size: 6031767 Hash: 57A90C9631989A6EDDFB91D62EA96E5C Accuracy: -m0
    Conclusion: CDDA 100%
    Signature: B5F465C14A83318019FF5C6E32F942F1F74B91B4
    FILE: 14 - Von ewiger Liebe (Wenzig), Op. 43 Nr. 1.flac
    Size: 15502228 Hash: 02B96A3D0F364BBD7A88A3D32E39EA8E Accuracy: -m0
    Conclusion: CDDA 87%
    Signature: DD86D8923EB6692347FC0A1DF2A71ED481764942
    FILE: 13 - O kuehler Wald (Brentano), Op. 72 Nr. 3.flac
    Size: 7485435 Hash: C5EFEA89B68642C4E2F5CF60671A34DE Accuracy: -m0
    Conclusion: CDDA 99%
    Signature: D2D977B2C342B522A894FB973D448E4BF8216779

    CUETools log / Отчёт CUETools

    [CUETools log; Date: 08.12.2013 17:31:15; Version: 2.1.4]
    Pregap length 00:00:33.
    [AccurateRip ID: 002a8a15-030aa7ba-490e3d18] found.
    Track [ CRC | V2 ] Status
    01 [157dcbdb|66b929b9] (00+00/20) No match
    02 [ab637f33|cb2bd4c9] (00+02/22) Accurately ripped
    03 [1b87d666|aed92726] (00+02/22) Accurately ripped
    04 [133c28bb|28ac0fe5] (00+02/22) Accurately ripped
    05 [3b9e0d01|77084dc7] (00+02/22) Accurately ripped
    06 [c93ca7a0|ef3b03e4] (00+02/22) Accurately ripped
    07 [6120ccb5|e4d42a1e] (00+02/22) Accurately ripped
    08 [2200a5db|fd549a36] (00+02/22) Accurately ripped
    09 [3ee6924a|1295b78e] (00+02/22) Accurately ripped
    10 [e1854351|d9474a83] (00+02/22) Accurately ripped
    11 [93127b95|ac0024e7] (00+02/22) Accurately ripped
    12 [eee4345e|576cf081] (00+02/22) Accurately ripped
    13 [484a42f2|181b9de3] (00+02/22) Accurately ripped
    14 [7e2a4ec5|e7b8b7fb] (00+02/22) Accurately ripped
    15 [b28d1183|f86ebd80] (00+02/22) Accurately ripped
    16 [36d46c55|023e0259] (00+02/22) Accurately ripped
    17 [eed70688|59397dea] (00+02/22) Accurately ripped
    18 [afbdb641|0001fba6] (00+02/22) Accurately ripped
    19 [d94f3e35|0fc82e9b] (00+02/22) Accurately ripped
    20 [9a537f1d|1e922648] (00+02/21) Accurately ripped
    21 [55ce17ef|2c0a538a] (00+02/21) Accurately ripped
    22 [98ffab71|db90888d] (00+02/22) Accurately ripped
    23 [811a3974|fe1f7737] (00+02/22) Accurately ripped
    24 [1c0925c1|b57280b8] (00+02/21) Accurately ripped
    Offsetted by 649:
    01 [72cea659] (02/20) Accurately ripped
    02 [cc1c44a5] (02/22) Accurately ripped
    03 [ff8bfdb5] (02/22) Accurately ripped
    04 [0b72f3b2] (02/22) Accurately ripped
    05 [5f95c7fe] (02/22) Accurately ripped
    06 [10a99bbf] (02/22) Accurately ripped
    07 [bc417d1b] (02/22) Accurately ripped
    08 [ca8f305c] (02/22) Accurately ripped
    09 [7fdcd0f4] (02/22) Accurately ripped
    10 [a7dd97e8] (02/22) Accurately ripped
    11 [a0906319] (02/22) Accurately ripped
    12 [9d0613cc] (02/22) Accurately ripped
    13 [87576ff4] (02/22) Accurately ripped
    14 [d0f7cf38] (02/22) Accurately ripped
    15 [715dd6b6] (02/22) Accurately ripped
    16 [c281b66b] (02/22) Accurately ripped
    17 [e9670a76] (02/22) Accurately ripped
    18 [b20208d2] (02/22) Accurately ripped
    19 [a189c064] (02/22) Accurately ripped
    20 [b8329cbb] (02/21) Accurately ripped
    21 [e8d1a8b5] (02/21) Accurately ripped
    22 [2c1ffdcd] (02/22) Accurately ripped
    23 [62bbd6ba] (02/22) Accurately ripped
    24 [f8a85587] (02/21) Accurately ripped
    Offsetted by 1313:
    01 [f58f149f] (08/20) Accurately ripped
    02 [364c8a95] (08/22) Accurately ripped
    03 [ce285350] (08/22) Accurately ripped
    04 [f300c5b5] (08/22) Accurately ripped
    05 [51baa12e] (08/22) Accurately ripped
    06 [b588e1c3] (08/22) Accurately ripped
    07 [6edd657a] (08/22) Accurately ripped
    08 [28f3e729] (08/22) Accurately ripped
    09 [bf1eb6c3] (08/22) Accurately ripped
    10 [c0d8a008] (08/22) Accurately ripped
    11 [b4c9db48] (08/22) Accurately ripped
    12 [03bbffc9] (08/22) Accurately ripped
    13 [6420c79f] (08/22) Accurately ripped
    14 [0f0020ac] (08/22) Accurately ripped
    15 [f4121b9b] (08/22) Accurately ripped
    16 [42d47840] (08/22) Accurately ripped
    17 [42d79122] (08/22) Accurately ripped
    18 [52a61de5] (08/22) Accurately ripped
    19 [52d7697a] (08/22) Accurately ripped
    20 [1bd5e04b] (08/21) Accurately ripped
    21 [06a13a3f] (08/21) Accurately ripped
    22 [e8007dc9] (08/22) Accurately ripped
    23 [5d873c28] (08/22) Accurately ripped
    24 [451befff] (07/21) Accurately ripped
    Offsetted by 430:
    01 [bbea3f28] (00/20) No match (V2 was not tested)
    02 [74edea2e] (00/22) No match (V2 was not tested)
    03 [a792cca3] (00/22) No match (V2 was not tested)
    04 [28fa0add] (00/22) No match (V2 was not tested)
    05 [25147a57] (00/22) No match (V2 was not tested)
    06 [0a07e45e] (00/22) No match (V2 was not tested)
    07 [094fcd61] (00/22) No match (V2 was not tested)
    08 [63335ed1] (00/22) No match (V2 was not tested)
    09 [940b2078] (00/22) No match (V2 was not tested)
    10 [d1324c63] (00/22) No match (V2 was not tested)
    11 [cc730f39] (00/22) No match (V2 was not tested)
    12 [ee5945d7] (00/22) No match (V2 was not tested)
    13 [23527ba2] (00/22) No match (V2 was not tested)
    14 [78640a47] (00/22) No match (V2 was not tested)
    15 [70d7dbbe] (00/22) No match (V2 was not tested)
    16 [85c5a198] (00/22) No match (V2 was not tested)
    17 [d47e7917] (00/22) No match (V2 was not tested)
    18 [f6668cda] (00/22) No match (V2 was not tested)
    19 [dcdd9320] (00/22) No match (V2 was not tested)
    20 [a3281045] (00/21) No match (V2 was not tested)
    21 [dea81865] (00/21) No match (V2 was not tested)
    22 [9130ed66] (00/22) No match (V2 was not tested)
    23 [754a7e3e] (00/22) No match (V2 was not tested)
    24 [af41c683] (00/21) No match (V2 was not tested)
    Track Peak [ CRC32 ] [W/O NULL] [ LOG ]
    -- 88,2 [212A2D79] [7FA23B3A]
    01 51,3 [1730E817] [50D64958] CRC32
    02 56,1 [0D20AF97] [612111BA] CRC32
    03 54,6 [6C033983] [B713B1D2] CRC32
    04 65,6 [5B74A78D] [257B9545] CRC32
    05 66,2 [0D34556C] [4E91EC35] CRC32
    06 71,7 [54A1CFA9] [247152B2] CRC32
    07 62,9 [C5A0B2B6] [8A87D987] CRC32
    08 78,4 [08D5135D] [448A6A0F] CRC32
    09 74,2 [B193C198] [21D6366E] CRC32
    10 58,4 [2D6DA0AC] [BE26FB8B] CRC32
    11 73,3 [FD18BB0E] [C8D66716] CRC32
    12 77,2 [66CDDBD9] [18D04C5F] CRC32
    13 59,1 [F500F46C] [E00881ED] CRC32
    14 88,2 [9330F076] [29CBFC62] CRC32
    15 74,8 [1387489E] [9FEEC899] CRC32
    16 77,2 [9976C1CB] [97D9D643] CRC32
    17 69,3 [34729551] [DD3B068E] CRC32
    18 58,4 [16D41053] [83531C03] CRC32
    19 80,8 [1745A097] [BFDD8E62] CRC32
    20 38,8 [36C78101] [42E93448] CRC32
    21 61,5 [946A1D06] [560A2B68] CRC32
    22 15,8 [3E9C89A9] [E2691518] CRC32
    23 78,4 [BE4AFB50] [7E380AAA] CRC32
    24 45,4 [34A7DDEF] [B83EE11B] CRC32

    CUE sheet

    TITLE "Johannes Brahms: Lieder"
    PERFORMER "Anne Sofie von Otter"
    REM GENRE Classical
    REM DISCID 490E3D18
    REM COMMENT "ExactAudioCopy v1.0b3"
    CATALOG 0028942972728
    FILE "01 - Zigeunerlieder, Op. 103 (Conrat) - Nr. 1. He, Zigeuner.flac" WAVE
    TRACK 01 AUDIO
    TITLE "Zigeunerlieder, Op. 103 (Conrat): Nr. 1. «He, Zigeuner»"
    PERFORMER "Anne Sofie von Otter (mezzo-soprano), Bengt Forsberg (piano)"
    REM DATE 1989
    PREGAP 00:00:33
    INDEX 01 00:00:00
    TRACK 02 AUDIO
    TITLE "Zigeunerlieder, Op. 103 (Conrat): Nr. 2. «Hochgetürmte Rimaflut»"
    PERFORMER "Anne Sofie von Otter (mezzo-soprano), Bengt Forsberg (piano)"
    REM DATE 1989
    INDEX 00 00:55:00
    FILE "02 - Zigeunerlieder, Op. 103 (Conrat) - Nr. 2. Hochgetuermte Rimaflut.flac" WAVE
    INDEX 01 00:00:00
    TRACK 03 AUDIO
    TITLE "Zigeunerlieder, Op. 103 (Conrat): Nr. 3. «Wißt ihr, wann mein Kindchen am allerschönsten ist?»"
    PERFORMER "Anne Sofie von Otter (mezzo-soprano), Bengt Forsberg (piano)"
    REM DATE 1989
    INDEX 00 01:21:52
    FILE "03 - Zigeunerlieder, Op. 103 (Conrat) - Nr. 3. Wisst ihr, wann mein Kindchen am allerschoensten ist.flac" WAVE
    INDEX 01 00:00:00
    TRACK 04 AUDIO
    TITLE "Zigeunerlieder, Op. 103 (Conrat): Nr. 4. «Lieber Gott, du weißt»"
    PERFORMER "Anne Sofie von Otter (mezzo-soprano), Bengt Forsberg (piano)"
    REM DATE 1989
    INDEX 00 01:30:00
    FILE "04 - Zigeunerlieder, Op. 103 (Conrat) - Nr. 4. Lieber Gott, du weisst.flac" WAVE
    INDEX 01 00:00:00
    TRACK 05 AUDIO
    TITLE "Zigeunerlieder, Op. 103 (Conrat): Nr. 5. «Brauner Bursche führt zum Tanze»"
    PERFORMER "Anne Sofie von Otter (mezzo-soprano), Bengt Forsberg (piano)"
    REM DATE 1989
    INDEX 00 01:21:25
    FILE "05 - Zigeunerlieder, Op. 103 (Conrat) - Nr. 5. Brauner Bursche fuehrt zum Tanze.flac" WAVE
    INDEX 01 00:00:00
    TRACK 06 AUDIO
    TITLE "Zigeunerlieder, Op. 103 (Conrat): Nr. 6. «Röslein dreie in der Reihe»"
    PERFORMER "Anne Sofie von Otter (mezzo-soprano), Bengt Forsberg (piano)"
    REM DATE 1989
    INDEX 00 01:32:25
    FILE "06 - Zigeunerlieder, Op. 103 (Conrat) - Nr. 6. Roeslein dreie in der Reihe.flac" WAVE
    INDEX 01 00:00:00
    TRACK 07 AUDIO
    TITLE "Zigeunerlieder, Op. 103 (Conrat): Nr. 7. «Kommt dir manchmal in den Sinn»"
    PERFORMER "Anne Sofie von Otter (mezzo-soprano), Bengt Forsberg (piano)"
    REM DATE 1989
    INDEX 00 01:24:30
    FILE "07 - Zigeunerlieder, Op. 103 (Conrat) - Nr. 7. Kommt dir manchmal in den Sinn.flac" WAVE
    INDEX 01 00:00:00
    TRACK 08 AUDIO
    TITLE "Zigeunerlieder, Op. 103 (Conrat): Nr. 11. «Rote Abendwolken»"
    PERFORMER "Anne Sofie von Otter (mezzo-soprano), Bengt Forsberg (piano)"
    REM DATE 1989
    INDEX 00 02:19:50
    FILE "08 - Zigeunerlieder, Op. 103 (Conrat) - Nr. 11. Rote Abendwolken.flac" WAVE
    INDEX 01 00:00:00
    TRACK 09 AUDIO
    TITLE "«Dort in den Weiden steht ein Haus» (Volkslied), Op. 97 Nr. 4"
    PERFORMER "Anne Sofie von Otter (mezzo-soprano), Bengt Forsberg (piano)"
    REM DATE 1989
    INDEX 00 01:25:50
    FILE "09 - Dort in den Weiden steht ein Haus (Volkslied), Op. 97 Nr. 4.flac" WAVE
    INDEX 01 00:00:00
    TRACK 10 AUDIO
    TITLE "«Vergebliches Ständchen» (Volkslied), Op. 84 Nr. 4"
    PERFORMER "Anne Sofie von Otter (mezzo-soprano), Bengt Forsberg (piano)"
    REM DATE 1989
    INDEX 00 01:30:00
    FILE "10 - Vergebliches Staendchen (Volkslied), Op. 84 Nr. 4.flac" WAVE
    INDEX 01 00:00:00
    TRACK 11 AUDIO
    TITLE "«Die Mainacht» (Hölty), Op. 43 Nr. 2"
    PERFORMER "Anne Sofie von Otter (mezzo-soprano), Bengt Forsberg (piano)"
    REM DATE 1989
    INDEX 00 01:38:50
    FILE "11 - Die Mainacht (Hoelty), Op. 43 Nr. 2.flac" WAVE
    INDEX 01 00:00:00
    TRACK 12 AUDIO
    TITLE "«Ach, wende diesen Blick» (Daumer), Op. 57 Nr. 4"
    PERFORMER "Anne Sofie von Otter (mezzo-soprano), Bengt Forsberg (piano)"
    REM DATE 1989
    INDEX 00 03:52:35
    FILE "12 - Ach, wende diesen Blick (Daumer), Op. 57 Nr. 4.flac" WAVE
    INDEX 01 00:00:00
    TRACK 13 AUDIO
    TITLE "«O kühler Wald» (Brentano), Op. 72 Nr. 3"
    PERFORMER "Anne Sofie von Otter (mezzo-soprano), Bengt Forsberg (piano)"
    REM DATE 1989
    INDEX 00 01:54:50
    FILE "13 - O kuehler Wald (Brentano), Op. 72 Nr. 3.flac" WAVE
    INDEX 01 00:00:00
    TRACK 14 AUDIO
    TITLE "«Von ewiger Liebe» (Wenzig), Op. 43 Nr. 1"
    PERFORMER "Anne Sofie von Otter (mezzo-soprano), Bengt Forsberg (piano)"
    REM DATE 1989
    INDEX 00 02:22:50
    FILE "14 - Von ewiger Liebe (Wenzig), Op. 43 Nr. 1.flac" WAVE
    INDEX 01 00:00:00
    TRACK 15 AUDIO
    TITLE "«Junge Liebe» («Meine Liebe ist grün») (F. Schumann), Op. 63 Nr. 5"
    PERFORMER "Anne Sofie von Otter (mezzo-soprano), Bengt Forsberg (piano)"
    REM DATE 1989
    INDEX 00 04:34:00
    FILE "15 - Junge Liebe (Meine Liebe ist gruen) (F. Schumann), Op. 63 Nr. 5.flac" WAVE
    INDEX 01 00:00:00
    TRACK 16 AUDIO
    TITLE "«Wie rafft' ich mich auf in der Nacht» (von Platen), Op. 32 Nr. 1"
    PERFORMER "Anne Sofie von Otter (mezzo-soprano), Bengt Forsberg (piano)"
    REM DATE 1989
    INDEX 00 01:33:00
    FILE "16 - Wie rafft' ich mich auf in der Nacht (von Platen), Op. 32 Nr. 1.flac" WAVE
    INDEX 01 00:00:00
    TRACK 17 AUDIO
    TITLE "«Unbewegte laue Luft» (Daumer), Op. 57 Nr. 8"
    PERFORMER "Anne Sofie von Otter (mezzo-soprano), Bengt Forsberg (piano)"
    REM DATE 1989
    INDEX 00 04:41:30
    FILE "17 - Unbewegte laue Luft (Daumer), Op. 57 Nr. 8.flac" WAVE
    INDEX 01 00:00:00
    TRACK 18 AUDIO
    TITLE "«Heimweh» («O wüßt ich doch den Weg zurück») (Groth), Op. 63 Nr. 8"
    PERFORMER "Anne Sofie von Otter (mezzo-soprano), Bengt Forsberg (piano)"
    REM DATE 1989
    INDEX 00 04:06:00
    FILE "18 - Heimweh (O wuesst ich doch den Weg zurueck) (Groth), Op. 63 Nr. 8.flac" WAVE
    INDEX 01 00:00:00
    TRACK 19 AUDIO
    TITLE "«Mädchenlied» (Heyse), Op. 107 Nr. 5"
    PERFORMER "Anne Sofie von Otter (mezzo-soprano), Bengt Forsberg (piano)"
    REM DATE 1989
    INDEX 00 03:19:22
    FILE "19 - Maedchenlied (Heyse), Op. 107 Nr. 5.flac" WAVE
    INDEX 01 00:00:00
    TRACK 20 AUDIO
    TITLE "«Ständchen» (Kugler), Op. 106 Nr. 1"
    PERFORMER "Anne Sofie von Otter (mezzo-soprano), Bengt Forsberg (piano)"
    REM DATE 1989
    INDEX 00 01:32:63
    FILE "20 - Staendchen (Kugler), Op. 106 Nr. 1.flac" WAVE
    INDEX 01 00:00:00
    TRACK 21 AUDIO
    TITLE "«Sonntag» (Volkslied), Op. 47 Nr. 3"
    PERFORMER "Anne Sofie von Otter (mezzo-soprano), Bengt Forsberg (piano)"
    REM DATE 1989
    INDEX 00 01:39:22
    FILE "21 - Sonntag (Volkslied), Op. 47 Nr. 3.flac" WAVE
    INDEX 01 00:00:00
    TRACK 22 AUDIO
    TITLE "«Wiegenlied» (aus «Des Knaben Wunderhorn»), Op. 49 Nr. 4"
    PERFORMER "Anne Sofie von Otter (mezzo-soprano), Bengt Forsberg (piano)"
    REM DATE 1989
    INDEX 00 01:45:00
    FILE "22 - Wiegenlied (aus Des Knaben Wunderhorn), Op. 49 Nr. 4.flac" WAVE
    INDEX 01 00:00:00
    TRACK 23 AUDIO
    TITLE "Zwei Gesänge, Op. 91: Nr. 1. «Gestillte Sehnsucht» (Rückert)"
    PERFORMER "Anne Sofie von Otter (mezzo-soprano), Nils-Erik Sparf (viola), Bengt Forsberg (piano)"
    REM DATE 1989
    INDEX 00 01:49:00
    FILE "23 - Zwei Gesaenge, Op. 91 - Nr. 1. Gestillte Sehnsucht (Rueckert).flac" WAVE
    INDEX 01 00:00:00
    TRACK 24 AUDIO
    TITLE "Zwei Gesänge, Op. 91: Nr. 2. «Geistliches Wiegenlied» (Vega / Geibel)"
    PERFORMER "Anne Sofie von Otter (mezzo-soprano), Nils-Erik Sparf (viola), Bengt Forsberg (piano)"
    REM DATE 1989
    INDEX 00 05:56:38
    FILE "24 - Zwei Gesaenge, Op. 91 - Nr. 2. Geistliches Wiegenlied (Vega - Geibel).flac" WAVE
    INDEX 01 00:00:00
    -
    Johannes Brahms — каталог раздач на rutracker.orgВсе мои раздачи / All my releases



  • Показать сообщения:    

    Текущее время: 09-Дек 10:46

    Часовой пояс: UTC + 3


    Вы не можете начинать темы
    Вы не можете отвечать на сообщения
    Вы не можете редактировать свои сообщения
    Вы не можете удалять свои сообщения
    Вы не можете голосовать в опросах
    Вы не можете прикреплять файлы к сообщениям
    Вы не можете скачивать файлы