Звёзды говорят. Эпизод 100 (Фархан Ахтар) / Star Speak. Episode 100 (Farhan Akhtar) [2013, Интервью, HDTVRip]


Статистика раздачи [Обновить пиров]
Размер:  184 MB   |    Зарегистрирован:  8 месяцев 19 дней   |    Скачан:  0 раз

Полного источника не было: Никогда

 
   
 
 
 

[Цитировать]

Звёзды говорят. Эпизод 100 (Фархан Ахтар) / Star Speak. Episode 100 (Farhan Akhtar) Год выпуска: 2013
Страна: Индия
Жанр: Интервью
Продолжительность: 00:16:22
Перевод: Любительский (одноголосый закадровый)
Оригинальная аудиодорожка: Хинди, английский
Русские субтитры: есть
Описание: В этом выпуске передачи "Звезды говорят" Фархан Ахтар и Абхишек с канала UTV обсуждают последнюю премьеру - фильм "Беги, Милка, беги". В своем интервью Фархан рассказывает о том, что заставило его согласиться на эту роль и какую идею он хотел донести своей работой до зрителя и молодого поколения в целом.
Релиз-группа:
Перевод на слух с английского и хинди, создание субтитров: Алла Свирид (огромное спасибо!)
Озвучка, рип и сведение аудио: Vasantsena

качество: HDTVRip
формат: AVI
Видео: DivX 720x408 25fps 1171Kbps
Аудио: Pусский (AC3, stereo, 192 Кбит/с, 48,0 КГц)
Аудио 2: Хинди (AC3, stereo, 192 Кбит/с, 48,0 КГц)
Формат субтитров: softsub (SRT)

MediaInfo

General
Complete name : D:\Zvezdi.govoryat.2013.HDTVRip.DivX.BwTorrents\Zvezdi.govoryat.2013.HDTVRip.DivX.BwTorrents.avi
Format : AVI
Format/Info : Audio Video Interleave
File size : 184 MiB
Duration : 16mn 21s
Overall bit rate : 1 570 Kbps
Writing application : VirtualDubMod 1.5.10.2 (build 2540/release)
Writing library : VirtualDubMod build 2540/release
Video
ID : 0
Format : MPEG-4 Visual
Format profile : Advanced Simple@L5
Format settings, BVOP : 2
Format settings, QPel : Yes
Format settings, GMC : 3 warppoints
Format settings, Matrix : Default (H.263)
Codec ID : DX50
Codec ID/Hint : DivX 5
Duration : 16mn 21s
Bit rate : 1 172 Kbps
Width : 720 pixels
Height : 408 pixels
Display aspect ratio : 16:9
Frame rate : 25.000 fps
Color space : YUV
Chroma subsampling : 4:2:0
Bit depth : 8 bits
Scan type : Progressive
Compression mode : Lossy
Bits/(Pixel*Frame) : 0.160
Stream size : 137 MiB (75%)
Writing library : XviD 1.2.1 (UTC 2008-12-04)
Audio #1
ID : 1
Format : AC-3
Format/Info : Audio Coding 3
Mode extension : CM (complete main)
Codec ID : 2000
Duration : 16mn 21s
Bit rate mode : Constant
Bit rate : 192 Kbps
Channel(s) : 2 channels
Channel positions : Front: L R
Sampling rate : 48.0 KHz
Bit depth : 16 bits
Compression mode : Lossy
Stream size : 22.5 MiB (12%)
Alignment : Split accross interleaves
Interleave, duration : 40 ms (1.00 video frame)
Interleave, preload duration : 500 ms
Audio #2
ID : 2
Format : AC-3
Format/Info : Audio Coding 3
Mode extension : CM (complete main)
Codec ID : 2000
Duration : 16mn 21s
Bit rate mode : Constant
Bit rate : 192 Kbps
Channel(s) : 2 channels
Channel positions : Front: L R
Sampling rate : 48.0 KHz
Bit depth : 16 bits
Compression mode : Lossy
Stream size : 22.5 MiB (12%)
Alignment : Split accross interleaves
Interleave, duration : 40 ms (1.00 video frame)
Interleave, preload duration : 500 ms

Скриншоты

[teatrix.ru].t17954.torrent 
Торрент: Зарегистрирован [ 2016-03-17 00:46 ] · 2E5BF0D1FF1EA78FB896DFC5426072F152CB4E91

Скачать .torrent

Скачать

15 KB

Статус: проверено
Скачан: 0 раз
Размер: 184 MB
terms.php



Показать сообщения:    

Текущее время: 05-Дек 05:30

Часовой пояс: UTC + 3


Вы не можете начинать темы
Вы не можете отвечать на сообщения
Вы не можете редактировать свои сообщения
Вы не можете удалять свои сообщения
Вы не можете голосовать в опросах
Вы не можете прикреплять файлы к сообщениям
Вы можете скачивать файлы