(Classical) Hedos Ensemble: Love lives not when Hope is gone, Renaissance Love Songs (Sachs Neusiedler Hausmann Fuellana Ortiz Mudarra Dowland Morley Caroso Bottegari Tromboncino Vecchi) 2006 APE (img+cue) lossless


 

[Цитировать]

Hedos Ensemble - Love lives not when Hope is gone: Renaissance Love Songs
Жанр: Classical
Страна-производитель диска: Germany
Год издания диска: 2006
Издатель (лейбл): CPO
Номер по каталогу: 999 388-2
Дата записи: 1995
Аудиокодек: APE
Тип рипа: image+.cue
Битрейт аудио: lossless
Продолжительность: 01:06:16
Источник: скачано с avaxhome
Наличие сканов в содержимом раздачи: да
Треклист:
01 Ich spring an diesem ringe (Lochamer Leiderbuch) 2:34
02 Se hyn mein hercz (Schedelsches Liederbuch) 3:42
03 Der getreifft Dantz - Gassenhauer (Anonymous - Instrumental) 2:03
04 Der walt hat sich entlaubet (Lochamer Liederbuch - Instrumental) 2:08
05 Ich sachs eins mals (Glogauer Liederbuch - Instrumental) 1:44
06 Der eyszapfen (Hans Sachs) 4:27
07 Ein ser guter hoff tantz (Hans Neusiedler - Instrumental) 2:04
08 Elslein, liebes Elselein (Glogauer Leiderbuch) 2:46
09 Huhner G'schrei (Anonymous - Instrumental) 1:06
10 Catkanei (Valentin Hausmann - Instrumental) 0:56
11 De los alamas (Miguel Fuellana) 2:34
12 Recercada primera sobre o felici occhi miei (Diego Ortiz - Instrumental) 2:01
13 Recercada ottava (Diego Ortiz - Instrumental) 1:54
14 Isabel (Alonso Mudarra) 1:49
15 Recercada sobre doulce memoire (Diego Ortiz - Instrumental) 3:09
16 Pase el agua (Anonymous) 2:41
17 Vuestras ojas tienen d'amor (Anonymous) 2:21
18 In darkness let me dwell (John Dowland) 4:09
19 Whither away so fast? (Thomas Morley - Instrumental) 2:21
20 Now, o now I needs must part (John Dowland) 2:53
21 The cobbler's jig (Anonymous - Instrumental) 1:10
22 Budro, an Irish dance (Anonymous - Instrumental) 1:33
23 Mascherada (Fabritio Caroso - Instrumental) 1:37
24 Stanotte m'insognava (Cosimo Bottegari) 1:33
25 Aria di Gran' Duc. Saltarello (Caroso - Instrumental) 2:55
26 Donna vagh'e leggiadra (Cosimo Bottegari) 2:16
27 Per dolor mi bagno il viso (Bartolomeo Tromboncino) 2:49
28 So ben mi ch'a bon tempo (Horazio Vecchi) 3:01
Исполнители:
Hedos Ensemble:
• Harmut Hein: baritone
• Bernhard Böhm: recorder, transverse flutes, bagpipe, rauschpfeife
• Jürgen Hübscher: renaissance lutes, vihuela, percussion (spoons)
• Michael Spengler: viola da gamba

Лог создания рипа

Exact Audio Copy V1.0 beta 3 from 29. August 2011
EAC extraction logfile from 29. April 2013, 21:29
Hedos Ensemble / Renaissance Love Songs
Used drive : PIONEER BD-RW BDR-206 Adapter: 0 ID: 2
Read mode : Secure
Utilize accurate stream : Yes
Defeat audio cache : Yes
Make use of C2 pointers : No
Read offset correction : 667
Overread into Lead-In and Lead-Out : No
Fill up missing offset samples with silence : Yes
Delete leading and trailing silent blocks : No
Null samples used in CRC calculations : Yes
Used interface : Native Win32 interface for Win NT & 2000
Used output format : User Defined Encoder
Selected bitrate : 1024 kBit/s
Quality : High
Add ID3 tag : Yes
Command line compressor : C:\Program Files\FLAC\flac.exe
Additional command line options : -5 -T "Artist=%artist%" -T "Title=%title%" -T "Album=%albumtitle%" -T "Date=%year%" -T "Tracknumber=%tracknr%" -T "Genre=%genre%" %source% -o %dest%
TOC of the extracted CD
Track | Start | Length | Start sector | End sector
---------------------------------------------------------
1 | 0:00.32 | 2:34.23 | 32 | 11604
2 | 2:34.55 | 3:41.72 | 11605 | 28251
3 | 6:16.52 | 2:03.13 | 28252 | 37489
4 | 8:19.65 | 2:07.45 | 37490 | 47059
5 | 10:27.35 | 1:43.65 | 47060 | 54849
6 | 12:11.25 | 4:27.35 | 54850 | 74909
7 | 16:38.60 | 2:03.42 | 74910 | 84176
8 | 18:42.27 | 2:46.25 | 84177 | 96651
9 | 21:28.52 | 1:05.70 | 96652 | 101596
10 | 22:34.47 | 0:55.45 | 101597 | 105766
11 | 23:30.17 | 2:33.48 | 105767 | 117289
12 | 26:03.65 | 2:01.12 | 117290 | 126376
13 | 28:05.02 | 1:53.53 | 126377 | 134904
14 | 29:58.55 | 1:49.20 | 134905 | 143099
15 | 31:48.00 | 3:08.70 | 143100 | 157269
16 | 34:56.70 | 2:40.65 | 157270 | 169334
17 | 37:37.60 | 2:21.10 | 169335 | 179919
18 | 39:58.70 | 4:08.70 | 179920 | 198589
19 | 44:07.65 | 2:21.25 | 198590 | 209189
20 | 46:29.15 | 2:53.37 | 209190 | 222201
21 | 49:22.52 | 1:09.38 | 222202 | 227414
22 | 50:32.15 | 1:32.72 | 227415 | 234386
23 | 52:05.12 | 1:37.28 | 234387 | 241689
24 | 53:42.40 | 1:32.67 | 241690 | 248656
25 | 55:15.32 | 2:54.48 | 248657 | 261754
26 | 58:10.05 | 2:15.62 | 261755 | 271941
27 | 60:25.67 | 2:48.55 | 271942 | 284596
28 | 63:14.47 | 3:01.35 | 284597 | 298206
Range status and errors
Selected range
Filename F:\=== VINYL RIPS ===\=== EAC===\X FRESH RIP\Hedos Ensemble - Renaissance Love Songs.wav
Peak level 93.3 %
Extraction speed 0.9 X
Range quality 100.0 %
Test CRC DA1EB505
Copy CRC DA1EB505
Copy OK
No errors occurred
AccurateRip summary
Track 1 cannot be verified as accurate (confidence 2) [5EBAB852], AccurateRip returned [45D4BDC3] (AR v2)
Track 2 cannot be verified as accurate (confidence 2) [B7BBFE03], AccurateRip returned [E6D20B6D] (AR v2)
Track 3 cannot be verified as accurate (confidence 2) [6E283078], AccurateRip returned [CC027BAB] (AR v2)
Track 4 cannot be verified as accurate (confidence 2) [BB4E8BB3], AccurateRip returned [3EF4228C] (AR v2)
Track 5 cannot be verified as accurate (confidence 2) [8302417F], AccurateRip returned [DA82B81F] (AR v2)
Track 6 cannot be verified as accurate (confidence 2) [2C33527B], AccurateRip returned [68DAA9CD] (AR v2)
Track 7 cannot be verified as accurate (confidence 2) [802DE5E1], AccurateRip returned [297E5FEC] (AR v2)
Track 8 cannot be verified as accurate (confidence 2) [5EDD5F2F], AccurateRip returned [0D7B48B5] (AR v2)
Track 9 cannot be verified as accurate (confidence 2) [227D0127], AccurateRip returned [1BB9FC84] (AR v2)
Track 10 cannot be verified as accurate (confidence 2) [810A4486], AccurateRip returned [C7F14447] (AR v2)
Track 11 cannot be verified as accurate (confidence 2) [AD67F9CC], AccurateRip returned [1093A6C1] (AR v2)
Track 12 cannot be verified as accurate (confidence 2) [550D3757], AccurateRip returned [CD0E6649] (AR v2)
Track 13 cannot be verified as accurate (confidence 2) [2758E8FF], AccurateRip returned [DB3A68C2] (AR v2)
Track 14 cannot be verified as accurate (confidence 2) [9A74173C], AccurateRip returned [80F40FBD] (AR v2)
Track 15 cannot be verified as accurate (confidence 2) [9E7EFE17], AccurateRip returned [7E5D8120] (AR v2)
Track 16 cannot be verified as accurate (confidence 2) [B212558A], AccurateRip returned [9123780B] (AR v2)
Track 17 cannot be verified as accurate (confidence 2) [55A2EFFD], AccurateRip returned [44A4E176] (AR v2)
Track 18 cannot be verified as accurate (confidence 2) [EC77D22F], AccurateRip returned [28769EF5] (AR v2)
Track 19 cannot be verified as accurate (confidence 2) [60FBF5AD], AccurateRip returned [24B5BA97] (AR v2)
Track 20 cannot be verified as accurate (confidence 2) [13928969], AccurateRip returned [14A965EA] (AR v2)
Track 21 cannot be verified as accurate (confidence 2) [E1EFA52E], AccurateRip returned [51A45717] (AR v2)
Track 22 cannot be verified as accurate (confidence 2) [172F002F], AccurateRip returned [13264C29] (AR v2)
Track 23 cannot be verified as accurate (confidence 2) [FE1FDF4D], AccurateRip returned [475CA0D9] (AR v2)
Track 24 cannot be verified as accurate (confidence 2) [CABD12EC], AccurateRip returned [599D408D] (AR v2)
Track 25 cannot be verified as accurate (confidence 2) [16DF29F2], AccurateRip returned [B0FAEFBA] (AR v2)
Track 26 cannot be verified as accurate (confidence 2) [539C2F13], AccurateRip returned [CA8BB0BA] (AR v2)
Track 27 cannot be verified as accurate (confidence 2) [F21CB444], AccurateRip returned [5B3F52FA] (AR v2)
Track 28 cannot be verified as accurate (confidence 2) [520FEB4D], AccurateRip returned [F22120F0] (AR v2)
No tracks could be verified as accurate
You may have a different pressing from the one(s) in the database
End of status report
---- CUETools DB Plugin V2.1.3
[CTDB TOCID: r22gGKWZorieiRmSyBrTOLsw7dM-] disk not present in database, Submit result: discs with pregaps not supported in this protocol version
==== Log checksum 62077B4A9EEDD49C0D4738882CA4EABA81E3C2236E08F42E525A6C02B93CD46F ====

Лог проверки качества

AUDIOCHECKER v2.0 beta (build 457) - by Dester - opdester@freemail.hu
~~~~~~~~~~~~~~~~~~~~~~~~~~~~~~~~~~
-=== DO NOT EDIT THIS FILE! ===-
Path: ...\Hedos Ensemble - Renaissance Love Songs [CPO 999 388-2] {Germany 1996}
1 -=- Hedos Ensemble - Renaissance Love Songs.wav -=- CDDA (100%)
120930052



Показать сообщения:    

Текущее время: 02-Дек 23:10

Часовой пояс: UTC + 3


Вы не можете начинать темы
Вы не можете отвечать на сообщения
Вы не можете редактировать свои сообщения
Вы не можете удалять свои сообщения
Вы не можете голосовать в опросах
Вы не можете прикреплять файлы к сообщениям
Вы не можете скачивать файлы