Ana Brett and Ravi Singh - Kundalini Yoga: Yoga Bliss Hips [2006 г., йога, DVD5, ENG] (Видеоурок)


Статистика раздачи [Обновить пиров]
Размер:  4.05 GB   |    Зарегистрирован:  8 месяцев 25 дней   |    Скачан:  0 раз

Полного источника не было: Никогда

 
   
 
 
 

[Цитировать]

Ana Brett and Ravi Singh

Kundalini Yoga: Yoga Bliss Hips
- Год выпуска: 2006
Страна: USA
Жанр: йога
Продолжительность: 75 минут
Язык: Английский-Описание:
Подробнейшие объяснения по данной серии вы можете почитать у inna279 в ее релизе полного сета - А.Бретт & Р. Сингх - Кундалини-йога: 14 DVD на 2-х DVD / Ana Brett & Ravi Singh - Kundalini Yoga 14 DVD's-set-Fitness experts Ana Brehtt and Ravi Singh host this 75 minute yoga program designed through the team's unique techniques to firm, trim and tighten the hips and thighs. The Ana & Ravi approach to yoga is also designed to alleviate anxiety, depression and stress.-This award-winning workout will trim your thighs, release your hips, and add new creative energy and flare to all that you do. Strong and flexible hips give you fluid grace and forward momentum. Based on Ravi & Ana's most popular workshop, this DVD will take you deep into your core, physically and beyond, Also: special techniques to delete depression and raise your spirits high. Kundalini Yoga's unique blend of breathing, movement, stretching, inner focus, and more, will transport you to new levels in your yoga and fitness, and help you reshape your body and your life. This DVD is conveniently chaptered to help you get everything covered in the time you have. Discover why Ana & Ravi's DVD's are always on Amazon's best-selling list and why their growing fan base would rather forego their morning cup of coffee that do without their Breath of Fire. Join Ana & Ravi's celebrity clientele including Madonna, Sting, and the Red Hot Chili Peppers!-Для любого уровня!
-Качество: DVD5
Формат: DVD-Video
Видео кодек: MPEG 2
Аудио кодек: AC3
Видео: MPEG, 720 x 480, 4/3, 6 617 Kbps, 29.970 fps, 0.639 b/px
Аудио: AC3, 192 Kbps, CBR, 48.0 KHz, 2 ch.-


DVDRip

Скриншоты видео

-

Дополнительно


Аннотация на английском языке
Yoga Bliss Hips
Yoga Bliss Hips is one in a series of DVDs made by Ana Brett and Ravi Singh, several of which have been reviewed on Metapsychology. Ana Brett demonstrates a sequence of movements in Kundalini Yoga. The format is the same as on the other DVDs: she is in a featureless studio with a white background, sitting on a purple round bathmat in the middle of a large yellow flower decoration on the floor. She wears a tight aqua blue top with matching short shorts. Most of the commentary is given by Ravi Singh, and Ana also contributes almost as much. The whole workout is 75 minutes long, but it is also possible to select shorter pre-set workouts, of 45, 40, 30 and 20 minutes duration.
The full version includes instruction into the "breath of fire," (a rapid panting through your nose) and includes a little chanting, laughing exercises, and deep breathing exercises. Some of these parts seem repetitions of exercises available on other DVDs by Brett and Singh, but the central exercises are different. Some parts are demanding, requiring strength and flexibility to perform in the full versions, but they can be done for less time or in modified versions. Not many people can do double pigeon (sitting on the floor with both legs parallel to the floor, bent so your heel rests on the knee of the other leg, so your legs form a triangle) and lean forward deeply. Later on there's some core work with boat pose, that needs and builds abdominal strength, and this too is difficult. For several poses and movements, you are instructed to do them with breath of fire, which takes a surprising amount of coordination. However, even though there are some challenging parts to the DVD, the overall workout is not draining and will not give you much aerobic work.
While the DVD is called Yoga Bliss Hips, only one of the sections really focuses on the hips, and in fact there are more exercises that work the shoulders, with several repeated arm movements, downward dog held for a couple of minutes, and camel pose. I found that their Dance the Chakras DVD gave more of a workout for the hips, and other yoga DVDs that include sun salutations, triangle poses and lunges will also generally do more for the hips. So this DVD seems badly named. However, it does provide a nice workout for the shoulders as well as the rest of the body.
Not everyone will be enthusiastic about the chanting and breathing exercises, but it is possible to chose one of the pre-set workouts that do less of this. The production quality is good: the pre-set workouts are easy to select, and the camera and sound work is professional. The background music, a mellow eastern dance variety, is pleasant enough. There's not much here to stand out from the other RaviAna productions, but Yoga Bliss Hips is a well crafted yoga DVD.

Отчет MI

Complete name                    : Ana Brett and Ravi Singh - Kundalini Yoga - Yoga Bliss Hips\VIDEO_TS\VTS_01_1.VOB
Format                           : MPEG-PS
File size                        : 1 024 MiB
Duration                         : 20mn 36s
Overall bit rate                 : 6 947 Kbps
[br]
Video
ID                               : 224 (0xE0)
Format                           : MPEG Video
Format version                   : Version 2
Format profile                   : Main@Main
Format settings, BVOP            : Yes
Format settings, Matrix          : Default
Format settings, GOP             : M=3, N=15
Duration                         : 20mn 36s
Bit rate mode                    : Variable
Bit rate                         : 6 617 Kbps
Nominal bit rate                 : 8 300 Kbps
Width                            : 720 pixels
Height                           : 480 pixels
Display aspect ratio             : 4:3
Frame rate                       : 29.970 fps
Standard                         : NTSC
Color space                      : YUV
Chroma subsampling               : 4:2:0
Bit depth                        : 8 bits
Scan type                        : Interlaced
Scan order                       : Bottom Field First
Bits/(Pixel*Frame)               : 0.639
Stream size                      : 975 MiB (95%)
[br]
Audio
ID                               : 128 (0x80)
Format                           : AC-3
Format/Info                      : Audio Coding 3
Mode extension                   : CM (complete main)
Duration                         : 20mn 36s
Bit rate mode                    : Constant
Bit rate                         : 192 Kbps
Channel(s)                       : 2 channels
Channel positions                : Front: L R
Sampling rate                    : 48.0 KHz
Bit depth                        : 16 bits
Stream size                      : 28.3 MiB (3%)
[br]
Menu
Если в раздаче не открываются постеры, скриншоты или нет сидов, - пишите в личку!Релиз от группы
[teatrix.ru].t17958.torrent 
Торрент: Зарегистрирован [ 2016-03-17 00:49 ] · 9C42D805594ECC70BCB69DC8F40BE6A2F03576B5

Скачать .torrent

Скачать

22 KB

Статус: проверено
Скачан: 0 раз
Размер: 4.05 GB
terms.php



Быстрый ответ

Имя:

      
Для отправки сообщений необходимо включить JavaScript
Показать сообщения:    

Текущее время: 11-Дек 05:19

Часовой пояс: UTC + 3


Вы можете начинать темы
Вы можете отвечать на сообщения
Вы не можете редактировать свои сообщения
Вы не можете удалять свои сообщения
Вы не можете голосовать в опросах
Вы не можете прикреплять файлы к сообщениям
Вы можете скачивать файлы