(Classical) Johann Sebastian Bach - Partita Nr.3 BWV 1006, Violinkonzert Nr.2 BWV 1042, Brandenburgisches Konzert Nr.5 BWV 1050 (Олег Каган, Святослав Рихтер, Марина Ворожцова, Юрий Николаевский) - 2000, FLAC (image+.cue) lossless


Статистика раздачи [Обновить пиров]
Размер:  320 MB   |    Зарегистрирован:  8 месяцев 22 дня   |    Скачан:  0 раз

Полного источника не было: Никогда

 
   
 
 
 

[Цитировать]

Oleg Kagan Edition Vol.XXIV
Жанр: Classical
Страна-производитель диска: Germany
Год издания диска: 2000
Издатель (лейбл): Live Classics
Номер по каталогу: LCL 103
Дата записи: 21.XII.1979 (Партита) & 26.III.1978 (Концерты)
Аудиокодек: FLAC
Тип рипа: image+.cue
Битрейт аудио: lossless
Продолжительность: 1:01'15"
Источник: собственный рип
Наличие сканов в содержимом раздачи: да
Треклист:
Johann Sebastian Bach
Partita Nr.3 E-Dur BWV 1006
01. I. Preludio
02. II. Loure
03. III. Gavotte en Rondo
04. IV. Menuet I & II
05. V. Bouree
06. VI. Gigue
Violinkonzert Nr.2 E-Dur BWV 1042
07. I. Allegro
08. II. Adagio
09. III. Allegro assai
Brandenburgisches Konzert Nr.5 D-Dur BWV 1050
10. I. Adagio
11. II. Allegro
12. III. Andantino cantabile
Исполнители:
Олег Каган, скрипка
Святослав Рихтер, фортепиано
Марина Ворожцова, флейта
Камерный оркестр Московской консерватории
Юрий Николаевский-

Лог создания рипа

Exact Audio Copy V1.0 beta 1 from 15. November 2010
EAC extraction logfile from 10. December 2013, 22:16
Oleg Kagan / Oleg Kagan Edition Vol.XXIV
Used drive : Optiarc DVD RW AD-7203A Adapter: 4 ID: 1
Read mode : Secure
Utilize accurate stream : Yes
Defeat audio cache : Yes
Make use of C2 pointers : No
Read offset correction : 48
Overread into Lead-In and Lead-Out : No
Fill up missing offset samples with silence : Yes
Delete leading and trailing silent blocks : No
Null samples used in CRC calculations : Yes
Used interface : Native Win32 interface for Win NT & 2000
Used output format : User Defined Encoder
Selected bitrate : 128 kBit/s
Quality : High
Add ID3 tag : No
Command line compressor : C:\Program Files\FLAC\flac.exe
Additional command line options : -T "COMMENT=Ripped by GFox" -8 -V %s
TOC of the extracted CD
Track | Start | Length | Start sector | End sector
---------------------------------------------------------
1 | 0:00.00 | 3:58.34 | 0 | 17883
2 | 3:58.34 | 4:45.74 | 17884 | 39332
3 | 8:44.33 | 2:54.26 | 39333 | 52408
4 | 11:38.59 | 4:10.43 | 52409 | 71201
5 | 15:49.27 | 1:46.17 | 71202 | 79168
6 | 17:35.44 | 2:15.17 | 79169 | 89310
7 | 19:50.61 | 8:11.63 | 89311 | 126198
8 | 28:02.49 | 7:45.30 | 126199 | 161103
9 | 35:48.04 | 3:10.37 | 161104 | 175390
10 | 38:58.41 | 9:54.43 | 175391 | 219983
11 | 48:53.09 | 6:36.09 | 219984 | 249692
12 | 55:29.18 | 5:46.35 | 249693 | 275677
Range status and errors
Selected range
Filename D:\EAC\Oleg Kagan - Oleg Kagan Edition Vol.XXIV.wav
Peak level 99.7 %
Extraction speed 0.2 X
Range quality 100.0 %
Test CRC 65F8F567
Copy CRC 65F8F567
Copy OK
No errors occurred
AccurateRip summary
Track 1 accurately ripped (confidence 2) [28A0D2E4]
Track 2 accurately ripped (confidence 2) [EAF128B6]
Track 3 accurately ripped (confidence 2) [01A67E86]
Track 4 accurately ripped (confidence 2) [CCCECFD4]
Track 5 accurately ripped (confidence 2) [74EEF3F7]
Track 6 accurately ripped (confidence 2) [3FB58B3F]
Track 7 accurately ripped (confidence 2) [642BAC1B]
Track 8 accurately ripped (confidence 2) [0F5AA635]
Track 9 accurately ripped (confidence 2) [7C4AB03D]
Track 10 accurately ripped (confidence 2) [BA4686B5]
Track 11 accurately ripped (confidence 2) [B496B862]
Track 12 accurately ripped (confidence 2) [68EF7730]
All tracks accurately ripped
End of status report
==== Log checksum B8F0F747617EBD286D6C11B76BDF4213F3421F142C19A70EE9DB4FFF3B1621D5 ====
-
[teatrix.ru].t17959.torrent 
Торрент: Зарегистрирован [ 2016-03-17 00:46 ] · 510545C761990FA718A92E0B2B3F054343045A0B

Скачать .torrent

Скачать

13 KB

Статус: проверено
Скачан: 0 раз
Размер: 320 MB
terms.php



Быстрый ответ

Имя:

      
Для отправки сообщений необходимо включить JavaScript
Показать сообщения:    

Текущее время: 08-Дек 05:18

Часовой пояс: UTC + 3


Вы можете начинать темы
Вы можете отвечать на сообщения
Вы не можете редактировать свои сообщения
Вы не можете удалять свои сообщения
Вы не можете голосовать в опросах
Вы не можете прикреплять файлы к сообщениям
Вы можете скачивать файлы