(Classical) Gustav Mahler - Das Lied von der Erde • Symphonie Nr. 5: Adagietto • Ruckert-Lieder: Ich bin der Welt abhanden gekommen (Kerstin Thorborg, Charles Kullman, Wiener Philharmoniker, Bruno Walter, 1936/1938) 2002, FLAC (tracks+.cue) lossless


 

[Цитировать]

Gustav Mahler | Густав Малер
(1860–1911)



Das Lied von der Erde | Adagietto aus Symphonie Nr. 5
Fünf Rückert-Lieder: «Ich bin der Welt abhanden gekommen»



Kerstin Thorborg contraltoCharles Kullman tenor
Wiener Philharmoniker
Bruno Walter conductor


Жанр: Classical / Symphony / Vocal
Даты и место записи: Musikvereinsaal, Wien, 24.V.1936 & 19.I.1938
Формат записи: ADD, Mono
Год издания диска: 2002
Издатель (лейбл): Naxos
Номер по каталогу: 8.110850
Аудиокодек: FLAC
Тип рипа: tracks+.cue
Битрейт аудио: lossless
Продолжительность: 1:12:13
Наличие сканов в содержимом раздачи: передняя и задняя обложки
Источник: What.CD
Релизёр: PCzar
Дополнительная информация: Первая полная запись «Песни о Земле»


Tracklist / Треклист
Symphonie Nr. 5 cis-moll
III. Adagietto: Sehr langsam - 8:15
Recorded: Musikvereinsaal, Wien, 19.I.1938
Fünf Rückert-Lieder
«Ich bin der Welt abhanden gekommen» - 6:01
Kerstin Thorborg (contralto)
Recorded: Musikvereinsaal, Wien, 24.V.1936

Das Lied von der Erde - 57:57
I. Das Trinklied vom Jammer der Erde - 8:33
  • II. Der Einsame im Herbst - 8:40
  • III. Von der Jugend - 3:07
  • IV. Von der Schönheit - 6:23
  • V. Der Trunkene im Frühling - 4:17
  • VI. Der Abschied - 26:57
    Charles Kullman (tenor), Kerstin Thorborg (contralto)
    Recorded: Musikvereinsaal, Wien, 24.V.1936


    -

    EAC log / Отчёт EAC

    Exact Audio Copy V1.0 beta 3 from 29. August 2011
    EAC extraction logfile from 29. August 2013, 17:16
    Wiener Philharmoniker, Bruno Walter / Gustav Mahler: Das Lied von der Erde a.o
    Used drive : TSSTcorpCDDVDW SH-222BB Adapter: 2 ID: 0
    Read mode : Secure
    Utilize accurate stream : Yes
    Defeat audio cache : Yes
    Make use of C2 pointers : No
    Read offset correction : 6
    Overread into Lead-In and Lead-Out : No
    Fill up missing offset samples with silence : Yes
    Delete leading and trailing silent blocks : No
    Null samples used in CRC calculations : Yes
    Used interface : Native Win32 interface for Win NT & 2000
    Gap handling : Appended to previous track
    Used output format : User Defined Encoder
    Selected bitrate : 192 kBit/s
    Quality : High
    Add ID3 tag : No
    Command line compressor : C:\Program Files (x86)\FLAC\flac.exe
    Additional command line options : -T "artist=%artist%" -T "title=%title%" -T "album=%albumtitle%" -T "date=%year%" -T "tracknumber=%tracknr%" -T "genre=%genre%" -T "comment=%comment%" -T "composer=%composer%" -8 %source%
    TOC of the extracted CD
    Track | Start | Length | Start sector | End sector
    ---------------------------------------------------------
    1 | 0:00.00 | 8:15.05 | 0 | 37129
    2 | 8:15.05 | 6:01.12 | 37130 | 64216
    3 | 14:16.17 | 8:32.58 | 64217 | 102674
    4 | 22:49.00 | 8:40.27 | 102675 | 141701
    5 | 31:29.27 | 3:06.73 | 141702 | 155724
    6 | 34:36.25 | 6:22.45 | 155725 | 184419
    7 | 40:58.70 | 4:17.27 | 184420 | 203721
    8 | 45:16.22 | 26:56.53 | 203722 | 324974
    Track 1
    Filename H:\EAC NEW Rips\01 - Adagietto from Symphony Nr. 5 in c sharp minor.wav
    Pre-gap length 0:00:02.00
    Peak level 40.6 %
    Extraction speed 4.2 X
    Track quality 100.0 %
    Test CRC CB365965
    Copy CRC CB365965
    Track not present in AccurateRip database
    Copy OK
    Track 2
    Filename H:\EAC NEW Rips\02 - Ich bin der Welt abhanden gekommen from Ruckert Lieder.wav
    Pre-gap length 0:00:05.13
    Peak level 29.2 %
    Extraction speed 4.7 X
    Track quality 100.0 %
    Test CRC DFB9B25D
    Copy CRC DFB9B25D
    Accurately ripped (confidence 2) [D7C8663C] (AR v1)
    Copy OK
    Track 3
    Filename H:\EAC NEW Rips\03 - Das Lied von der Erde - I. Das Trinklied von Jammer der Erde.wav
    Pre-gap length 0:00:05.40
    Peak level 50.6 %
    Extraction speed 5.3 X
    Track quality 100.0 %
    Test CRC C5BA3641
    Copy CRC C5BA3641
    Accurately ripped (confidence 2) [8108035A] (AR v1)
    Copy OK
    Track 4
    Filename H:\EAC NEW Rips\04 - Das Lied von der Erde - II. Der Einsame im Herbst.wav
    Pre-gap length 0:00:04.17
    Peak level 44.5 %
    Extraction speed 6.0 X
    Track quality 100.0 %
    Test CRC 3F80549C
    Copy CRC 3F80549C
    Track not present in AccurateRip database
    Copy OK
    Track 5
    Filename H:\EAC NEW Rips\05 - Das Lied von der Erde - III. Von der Jugend.wav
    Pre-gap length 0:00:04.53
    Peak level 36.5 %
    Extraction speed 5.5 X
    Track quality 100.0 %
    Test CRC 88E08A6D
    Copy CRC 88E08A6D
    Accurately ripped (confidence 2) [65FB254A] (AR v1)
    Copy OK
    Track 6
    Filename H:\EAC NEW Rips\06 - Das Lied von der Erde - IV. Von der Schönheit.wav
    Pre-gap length 0:00:01.66
    Peak level 81.9 %
    Extraction speed 6.4 X
    Track quality 100.0 %
    Test CRC 44C2890D
    Copy CRC 44C2890D
    Accurately ripped (confidence 2) [A8A3673D] (AR v1)
    Copy OK
    Track 7
    Filename H:\EAC NEW Rips\07 - Das Lied von der Erde - V. Der Trunkne im Fruhling.wav
    Peak level 43.0 %
    Extraction speed 6.4 X
    Track quality 100.0 %
    Test CRC 83989DC1
    Copy CRC 83989DC1
    Accurately ripped (confidence 2) [D48B8DF3] (AR v1)
    Copy OK
    Track 8
    Filename H:\EAC NEW Rips\08 - Das Lied von der Erde - VI. Der Abschied.wav
    Pre-gap length 0:00:02.73
    Peak level 57.4 %
    Extraction speed 7.9 X
    Track quality 100.0 %
    Test CRC 8FE149EF
    Copy CRC 8FE149EF
    Accurately ripped (confidence 2) [24C6E588] (AR v1)
    Copy OK
    6 track(s) accurately ripped
    2 track(s) not present in the AccurateRip database
    Some tracks could not be verified as accurate
    No errors occurred
    End of status report
    ---- CUETools DB Plugin V2.1.3
    [CTDB TOCID: zIJb.9XLr0P7ida18s0hPfZjPZQ-] found, Submit result: zIJb.9XLr0P7ida18s0hPfZjPZQ- has been uploaded
    [f75edd22] (1/1) No match
    ==== Log checksum 557AF8A7A0AFB87EFD24FA7CC4DAF7041851BD4562AF7232159646162556E123 ====

    auCDtect Task Manager log / Отчёт auCDtect Task Manager

    -----------------------
    DON'T MODIFY THIS FILE
    -----------------------
    PERFORMER: auCDtect Task Manager, ver. 1.5.1RC3 build 1.5.1.4
    Copyright (c) 2008-2010 y-soft. All rights reserved
    ANALYZER: auCDtect: CD records authenticity detector, version 0.8.2
    Copyright (c) 2004 Oleg Berngardt. All rights reserved.
    Copyright (c) 2004 Alexander Djourik. All rights reserved.
    FILE: 02 - Fuenf Rueckert-Lieder - ''Ich bin der Welt abhanden gekommen''.flac
    Size: 20271787 Hash: 7B50AB081F1426E32A6EA6001462F1A3 Accuracy: -m0
    Conclusion: CDDA 100%
    Signature: 63AE409CBAB80A83F42C343B88BCF38686378E69
    FILE: 01 - Symphonie Nr. 5 cis-moll - III. Adagietto. Sehr langsam.flac
    Size: 28264183 Hash: 83B8EBA5E87E45D05FC3D9FC3D35D40B Accuracy: -m0
    Conclusion: CDDA 100%
    Signature: 5DF3B2BD4C93A82FAD822B3071CD116DCB88C01A
    FILE: 08 - Das Lied von der Erde - VI. Der Abschied.flac
    Size: 91229197 Hash: 0994E3221F822F066AEB926C0AE3B531 Accuracy: -m0
    Conclusion: CDDA 100%
    Signature: D361B96D19D7D7BB70D5A1C4B4E03452CA68B7DA
    FILE: 07 - Das Lied von der Erde - V. Der Trunkene im Fruehling.flac
    Size: 15092187 Hash: 7FB68E89FF45B92ECF9757CFCA6B7717 Accuracy: -m0
    Conclusion: CDDA 100%
    Signature: 56DB7704FEC0EF51E26A58CDAE1A3E5A29A65522
    FILE: 06 - Das Lied von der Erde - IV. Von der Schoenheit.flac
    Size: 21826994 Hash: 4172BD30CFB2217866285E5CEDCC6AD4 Accuracy: -m0
    Conclusion: CDDA 100%
    Signature: F1A560C7A89A3914D5FD1F72AE6F140DC08F84F1
    FILE: 05 - Das Lied von der Erde - III. Von der Jugend.flac
    Size: 10315056 Hash: 93CB8C6DD48196EC9B603E86FAEAA05C Accuracy: -m0
    Conclusion: CDDA 100%
    Signature: 1314E38383CFB0EC1D4C56D5C0689FC9785FA93A
    FILE: 04 - Das Lied von der Erde - II. Der Einsame im Herbst.flac
    Size: 29229770 Hash: 2B6D7BD2E2656AF34A22FC18677E7AD3 Accuracy: -m0
    Conclusion: CDDA 100%
    Signature: EB8EBE2B033CDD2BD22BEB9224A84F6083F71033
    FILE: 03 - Das Lied von der Erde - I. Das Trinklied vom Jammer der Erde.flac
    Size: 29990942 Hash: 92C995B45D1D022149E5ABC10DE5CF70 Accuracy: -m0
    Conclusion: CDDA 100%
    Signature: 50A2B48284295AF54C250A0D2E640FB3BDEC3541

    CUETools log / Отчёт CUETools

    [CUETools log; Date: 11.12.2013 11:07:46; Version: 2.1.4]
    [AccurateRip ID: 00128866-007c9a4b-7910ed08] found.
    Track [ CRC | V2 ] Status
    01 [9f2f82c8|0e70e84b] (0+2/2) Accurately ripped
    02 [d7c8663c|3e8a863d] (2+2/4) Accurately ripped
    03 [8108035a|f3749ffc] (2+2/4) Accurately ripped
    04 [a6db80aa|7bbf8443] (0+2/2) Accurately ripped
    05 [65fb254a|e60a0144] (2+2/4) Accurately ripped
    06 [a8a3673d|ce4c5c90] (2+2/4) Accurately ripped
    07 [d48b8df3|5537e34a] (2+2/4) Accurately ripped
    08 [24c6e588|84870710] (2+2/4) Accurately ripped
    Track Peak [ CRC32 ] [W/O NULL] [ LOG ]
    -- 81,9 [39C9A4F0] [8D9AED05]
    01 40,6 [CB365965] [C81C0712] CRC32
    02 29,2 [DFB9B25D] [6FA209F7] CRC32
    03 50,6 [C5BA3641] [124F0497] CRC32
    04 44,5 [3F80549C] [8AAA590A] CRC32
    05 36,5 [88E08A6D] [4FCB3071] CRC32
    06 81,9 [44C2890D] [D1BE4C40] CRC32
    07 43,0 [83989DC1] [8198883E] CRC32
    08 57,4 [8FE149EF] [632FB500] CRC32

    CUE sheet

    TITLE "Gustav Mahler: Das Lied von der Erde • Adagietto"
    PERFORMER "Bruno Walter"
    REM GENRE Clasical
    REM DISCID 7910ED08
    REM COMMENT "ExactAudioCopy v1.0b3"
    FILE "01 - Symphonie Nr. 5 cis-moll - III. Adagietto. Sehr langsam.flac" WAVE
    TRACK 01 AUDIO
    TITLE "Symphonie Nr. 5 cis-moll: III. Adagietto: Sehr langsam"
    PERFORMER "Wiener Philharmoniker. Bruno Walter, conductor"
    REM DATE 1938
    INDEX 01 00:00:00
    TRACK 02 AUDIO
    TITLE "Fünf Rückert-Lieder: «Ich bin der Welt abhanden gekommen»"
    PERFORMER "Kerstin Thorborg, Wiener Philharmoniker. Bruno Walter, conductor"
    REM DATE 1936
    INDEX 00 08:09:70
    FILE "02 - Fuenf Rueckert-Lieder - ''Ich bin der Welt abhanden gekommen''.flac" WAVE
    INDEX 01 00:00:00
    TRACK 03 AUDIO
    TITLE "Das Lied von der Erde: I. Das Trinklied vom Jammer der Erde"
    PERFORMER "Charles Kullman, Wiener Philharmoniker. Bruno Walter, conductor"
    REM DATE 1936
    INDEX 00 05:55:57
    FILE "03 - Das Lied von der Erde - I. Das Trinklied vom Jammer der Erde.flac" WAVE
    INDEX 01 00:00:00
    TRACK 04 AUDIO
    TITLE "Das Lied von der Erde: II. Der Einsame im Herbst"
    PERFORMER "Kerstin Thorborg, Wiener Philharmoniker. Bruno Walter, conductor"
    REM DATE 1936
    INDEX 00 08:28:45
    FILE "04 - Das Lied von der Erde - II. Der Einsame im Herbst.flac" WAVE
    INDEX 01 00:00:00
    TRACK 05 AUDIO
    TITLE "Das Lied von der Erde: III. Von der Jugend"
    PERFORMER "Charles Kullman, Wiener Philharmoniker. Bruno Walter, conductor"
    REM DATE 1936
    INDEX 00 08:35:62
    FILE "05 - Das Lied von der Erde - III. Von der Jugend.flac" WAVE
    INDEX 01 00:00:00
    TRACK 06 AUDIO
    TITLE "Das Lied von der Erde: IV. Von der Schönheit"
    PERFORMER "Kerstin Thorborg, Wiener Philharmoniker. Bruno Walter, conductor"
    REM DATE 1936
    INDEX 00 03:05:23
    FILE "06 - Das Lied von der Erde - IV. Von der Schoenheit.flac" WAVE
    INDEX 01 00:00:00
    FILE "07 - Das Lied von der Erde - V. Der Trunkene im Fruehling.flac" WAVE
    TRACK 07 AUDIO
    TITLE "Das Lied von der Erde: V. Der Trunkene im Frühling"
    PERFORMER "Charles Kullman, Wiener Philharmoniker. Bruno Walter, conductor"
    REM DATE 1936
    INDEX 01 00:00:00
    TRACK 08 AUDIO
    TITLE "Das Lied von der Erde: VI. Der Abschied"
    PERFORMER "Kerstin Thorborg, Wiener Philharmoniker. Bruno Walter, conductor"
    REM DATE 1936
    INDEX 00 04:14:47
    FILE "08 - Das Lied von der Erde - VI. Der Abschied.flac" WAVE
    INDEX 01 00:00:00
    -
    Gustav Mahler — каталог раздач на rutracker.orgВсе мои раздачи / All my releases



  • Показать сообщения:    

    Текущее время: 03-Дек 14:37

    Часовой пояс: UTC + 3


    Вы не можете начинать темы
    Вы не можете отвечать на сообщения
    Вы не можете редактировать свои сообщения
    Вы не можете удалять свои сообщения
    Вы не можете голосовать в опросах
    Вы не можете прикреплять файлы к сообщениям
    Вы не можете скачивать файлы