(Classical) Josef Matthias Hauer - Violin Concerto op.54, Apokalyptische & Romantische Phantasie, 7th Suite op.48, Zwolftonspiel (Thomas Christian, RSO Wien - Gottfried Rabl) - 2007, APE (image+.cue) lossless


Статистика раздачи [Обновить пиров]
Размер:  295 MB   |    Зарегистрирован:  8 месяцев 20 дней   |    Скачан:  0 раз

Полного источника не было: Никогда

 
   
 
 
 

[Цитировать]

Hauer - Symphonic Works
Жанр: Classical
Страна-производитель диска: Germany
Год издания диска: 2007
Издатель (лейбл): CPO
Номер по каталогу: 777 154-2
Дата записи: 2004-2005
Аудиокодек: APE
Тип рипа: image+.cue
Битрейт аудио: lossless
Продолжительность: 01:12:54
Источник: скачано с avaxhome
Наличие сканов в содержимом раздачи: да
Треклист:
01 Apokalyptische Phantasie op.5 8:55
02 Romantische Phantasie op.37 18:25
VII. Suite für Orchester op.48:
03 Molto ritmico e marcato, alla Marcia 3:26
04 Lento, molto tranquillo 3:17
05 Allegro, alla Marcia veloce 2:04
06 Largo espressivo 3:33
07 Ländler 4:09
Konzert für Violine und Orchester op.54:
08 Allegro 6:46
09 Largo 5:45
10 Allegro 3:59
11 Zwölftonspiel für Orchester (9.8.1957) 6:30
12 Zwölftonspiel für Orchester (22.9.1957) 6:05
Исполнители:
Thomas Christian, violin (08-10)
Radio-Symphonieorchester Wien / Gottfried Rabl

Лог создания рипа

Exact Audio Copy V1.0 beta 3 from 29. August 2011
EAC extraction logfile from 30. April 2013, 19:42
Thomas Christian, Radio-Sinfonieorchester Wien, Gottfried Rabl / Hauer: Symphonic Works
Used drive : PIONEER BD-RW BDR-206 Adapter: 0 ID: 2
Read mode : Secure
Utilize accurate stream : Yes
Defeat audio cache : Yes
Make use of C2 pointers : No
Read offset correction : 667
Overread into Lead-In and Lead-Out : No
Fill up missing offset samples with silence : Yes
Delete leading and trailing silent blocks : No
Null samples used in CRC calculations : Yes
Used interface : Native Win32 interface for Win NT & 2000
Used output format : User Defined Encoder
Selected bitrate : 1024 kBit/s
Quality : High
Add ID3 tag : Yes
Command line compressor : C:\Program Files\FLAC\flac.exe
Additional command line options : -5 -T "Artist=%artist%" -T "Title=%title%" -T "Album=%albumtitle%" -T "Date=%year%" -T "Tracknumber=%tracknr%" -T "Genre=%genre%" %source% -o %dest%
TOC of the extracted CD
Track | Start | Length | Start sector | End sector
---------------------------------------------------------
1 | 0:00.00 | 8:55.30 | 0 | 40154
2 | 8:55.30 | 18:24.60 | 40155 | 123014
3 | 27:20.15 | 3:25.49 | 123015 | 138438
4 | 30:45.64 | 3:16.52 | 138439 | 153190
5 | 34:02.41 | 2:04.35 | 153191 | 162525
6 | 36:07.01 | 3:33.06 | 162526 | 178506
7 | 39:40.07 | 4:09.18 | 178507 | 197199
8 | 43:49.25 | 6:45.50 | 197200 | 227624
9 | 50:35.00 | 5:45.08 | 227625 | 253507
10 | 56:20.08 | 3:59.37 | 253508 | 271469
11 | 60:19.45 | 6:30.00 | 271470 | 300719
12 | 66:49.45 | 6:05.03 | 300720 | 328097
Range status and errors
Selected range
Filename F:\=== VINYL RIPS ===\=== EAC===\X FRESH RIP\Hauer- Rabl - Symphonic Works.wav
Peak level 100.0 %
Extraction speed 8.1 X
Range quality 100.0 %
Copy CRC 372544C1
Copy OK
No errors occurred
AccurateRip summary
Track 1 accurately ripped (confidence 2) [9909DF78] (AR v1)
Track 2 accurately ripped (confidence 3) [05836B61] (AR v1)
Track 3 accurately ripped (confidence 3) [79B06EB6] (AR v1)
Track 4 accurately ripped (confidence 3) [EE1F3CA8] (AR v1)
Track 5 accurately ripped (confidence 3) [3D62E42E] (AR v1)
Track 6 accurately ripped (confidence 3) [D60C9A54] (AR v1)
Track 7 accurately ripped (confidence 3) [DB73D3C6] (AR v1)
Track 8 accurately ripped (confidence 3) [209C4891] (AR v1)
Track 9 accurately ripped (confidence 3) [16BD25AF] (AR v1)
Track 10 accurately ripped (confidence 3) [87E673E3] (AR v1)
Track 11 accurately ripped (confidence 3) [9D605BC4] (AR v1)
Track 12 accurately ripped (confidence 3) [47C2A467] (AR v1)
All tracks accurately ripped
End of status report
---- CUETools DB Plugin V2.1.3
[CTDB TOCID: 3mCVu3ptYdE1VCXA9CTTKPRAXPw-] disk not present in database, Submit result: database access error: Timeout für Vorgang überschritten
==== Log checksum C0E1B2D7F0660DC93A4B36CCF961B7EF7A3C03864D04ABD3ACC954A63671DE4F ====

Лог проверки качества

AUDIOCHECKER v2.0 beta (build 457) - by Dester - opdester@freemail.hu
~~~~~~~~~~~~~~~~~~~~~~~~~~~~~~~~~~
-=== DO NOT EDIT THIS FILE! ===-
Path: ...\Hauer- Rabl - Symphonic Works {Germany 2007}
1 -=- Hauer- Rabl - Symphonic Works.wav -=- CDDA (100%)
204473364
[teatrix.ru].t17962.torrent 
Торрент: Зарегистрирован [ 2016-03-17 00:46 ] · 63140BE8882AEE20CEC0ADA0DA9096E8A0075459

Скачать .torrent

Скачать

12 KB

Статус: проверено
Скачан: 0 раз
Размер: 295 MB
terms.php



Быстрый ответ

Имя:

      
Для отправки сообщений необходимо включить JavaScript
Показать сообщения:    

Текущее время: 06-Дек 17:11

Часовой пояс: UTC + 3


Вы можете начинать темы
Вы можете отвечать на сообщения
Вы не можете редактировать свои сообщения
Вы не можете удалять свои сообщения
Вы не можете голосовать в опросах
Вы не можете прикреплять файлы к сообщениям
Вы можете скачивать файлы