(Classical, contemporary) Jaakko Kuusisto, John Corigliano - Violin Concertos - Elina Vahala (Vähälä), Lahti Symphony Orchestra, Jaakko Kuusisto - 2013, FLAC (image+.cue) lossless


Статистика раздачи [Обновить пиров]
Размер:  308 MB   |    Зарегистрирован:  8 месяцев 20 дней   |    Скачан:  0 раз

Полного источника не было: Никогда

 
   
 
 
 

[Цитировать]

Jaakko Kuusisto, John Corigliano - Violin Concertos - Elina Vähälä, Lahti Symphony Orchestra, Jaakko Kuusisto
Жанр: Classical, contemporary
Страна-производитель диска: Sweden
Год издания диска: 2013
Издатель (лейбл): BIS
Номер по каталогу: BIS-SACD-2020
Дата записи: 2012
Аудиокодек: FLAC
Тип рипа: image+.cue
Битрейт аудио: lossless
Продолжительность: 77:04
Источник: собственный рип
Наличие сканов в содержимом раздачи: да
Треклист:
Jaakko Kuusisto (b.1974)
[1] Leika for symphony orchestra, Op.24
[2]-[4] Concerto for Violin and Orchestra, Op.28
John Corigliano (b.1938)
[5]-[8] Concerto for Violin and Orchestra (2003)
"The Red Violin"
Исполнители:
Elina Vähälä violin
Lahti Symphony Orchestra
Jaakko Kuusisto
conductor

Лог создания рипа

Exact Audio Copy V1.0 beta 3 from 29. August 2011
EAC extraction logfile from 29. October 2013, 16:21
Elina Vähälä; Lahti Symphony Orchestra, Jaakko Kuusisto / Kuusisto, Corigliano - Violin Concertos
Used drive : HL-DT-STDVDRRW GWA-4164B Adapter: 5 ID: 0
Read mode : Secure
Utilize accurate stream : Yes
Defeat audio cache : Yes
Make use of C2 pointers : No
Read offset correction : 102
Overread into Lead-In and Lead-Out : No
Fill up missing offset samples with silence : Yes
Delete leading and trailing silent blocks : No
Null samples used in CRC calculations : Yes
Used interface : Native Win32 interface for Win NT & 2000
Used output format : User Defined Encoder
Selected bitrate : 896 kBit/s
Quality : High
Add ID3 tag : No
Command line compressor : C:\Program Files\Exact Audio Copy\FLAC\FLAC.EXE
Additional command line options : -V -8 %source%
TOC of the extracted CD
Track | Start | Length | Start sector | End sector
---------------------------------------------------------
1 | 0:00.00 | 11:46.25 | 0 | 52974
2 | 11:46.25 | 14:52.20 | 52975 | 119894
3 | 26:38.45 | 8:54.25 | 119895 | 159969
4 | 35:32.70 | 7:07.34 | 159970 | 192028
5 | 42:40.29 | 14:28.71 | 192029 | 257199
6 | 57:09.25 | 5:05.18 | 257200 | 280092
7 | 62:14.43 | 5:52.57 | 280093 | 306549
8 | 68:07.25 | 8:57.45 | 306550 | 346869
Range status and errors
Selected range
Filename C:\temp\BIS-SACD-2020 - Kuusisto, Corigliano - Violin Concertos (Vahala, Lahti Symphony Orchestra, Kuusisto - BIS)\Kuusisto, Corigliano - Violin Concertos.wav
Peak level 98.0 %
Extraction speed 3.2 X
Range quality 100.0 %
Test CRC 16E1DBC5
Copy CRC 16E1DBC5
Copy OK
No errors occurred
AccurateRip summary
Track 1 not present in database
Track 2 not present in database
Track 3 not present in database
Track 4 not present in database
Track 5 not present in database
Track 6 not present in database
Track 7 not present in database
Track 8 not present in database
None of the tracks are present in the AccurateRip database
End of status report
==== Log checksum 969F8FB589F63AE4CA9265B72B192DEABC2751A57B9D7AF00A661B4910712BC4 ====
[teatrix.ru].t17965.torrent 
Торрент: Зарегистрирован [ 2016-03-17 00:46 ] · 1338200961A87538F2720828508E332171193457

Скачать .torrent

Скачать

27 KB

Статус: проверено
Скачан: 0 раз
Размер: 308 MB
terms.php



Быстрый ответ

Имя:

      
Для отправки сообщений необходимо включить JavaScript
Показать сообщения:    

Текущее время: 06-Дек 13:16

Часовой пояс: UTC + 3


Вы можете начинать темы
Вы можете отвечать на сообщения
Вы не можете редактировать свои сообщения
Вы не можете удалять свои сообщения
Вы не можете голосовать в опросах
Вы не можете прикреплять файлы к сообщениям
Вы можете скачивать файлы