История стереокино в России (Сергей Тютин) [2013, Документальный фильм, IPTVRip]


Статистика раздачи [Обновить пиров]
Размер:  529 MB   |    Зарегистрирован:  8 месяцев 21 день   |    Скачан:  0 раз

Полного источника не было: Никогда

 
   
 
 
 

[Цитировать]

История стереокино в России
Год выпуска: 2013
Страна: Россия
Жанр: Документальный фильм
Продолжительность: 00:38:29
Перевод: Не требуется
Русские субтитры: нет
Режиссер и автор сценария: Сергей Тютин
Описание:
Фильм рассказывает об удивительной истории создания в нашей стране трехмерного кинематографа: от первых стереокинотеатров в Санкт-Петербурге в 1911 году до открытия в Москве первого в мире безочкового стереокинотеатра в 1941 году, от изобретения самой совершенной системы 3D-съемки "Стерео-70" до вручения нашим исследователям премии "Оскар" за высшие технические достижения в области объемного кинематографа в 1991 году.
Производство: Творческое объединение "Мир искусства" по заказу ГТРК "Культура"
Сэмпл
качество: IPTVRip
формат: AVI
Видео: 720x400 (1.80:1), 25 fps, XviD build 50 ~1784 kbps avg, 0.25 bit/pixel
Аудио: 48 kHz, MPEG Layer 3, 2 ch, ~128.00 kbps avg

MediaInfo

General
Complete name : E:\История стереокино в России (2013).IPTVRip.by.Черник.avi
Format : AVI
Format/Info : Audio Video Interleave
File size : 529 MiB
Duration : 38mn 29s
Overall bit rate : 1 923 Kbps
Writing application : VirtualDubMod 1.5.10.3 | www.virtualdub-fr.org || (build 2550/release)
Writing library : VirtualDubMod build 2550/release
Video
ID : 0
Format : MPEG-4 Visual
Format profile : Advanced Simple@L5
Format settings, BVOP : Yes
Format settings, QPel : No
Format settings, GMC : No warppoints
Format settings, Matrix : Default (H.263)
Codec ID : XVID
Codec ID/Hint : XviD
Duration : 38mn 29s
Bit rate : 1 785 Kbps
Width : 720 pixels
Height : 400 pixels
Display aspect ratio : 16:9
Frame rate : 25.000 fps
Color space : YUV
Chroma subsampling : 4:2:0
Bit depth : 8 bits
Scan type : Progressive
Compression mode : Lossy
Bits/(Pixel*Frame) : 0.248
Stream size : 491 MiB (93%)
Writing library : XviD 1.2.1 (UTC 2008-12-04)
Audio
ID : 1
Format : MPEG Audio
Format version : Version 1
Format profile : Layer 3
Codec ID : 55
Codec ID/Hint : MP3
Duration : 38mn 29s
Bit rate mode : Constant
Bit rate : 128 Kbps
Channel count : 2 channels
Sampling rate : 48.0 KHz
Compression mode : Lossy
Stream size : 35.2 MiB (7%)
Alignment : Aligned on interleaves
Interleave, duration : 40 ms (1.00 video frame)
Interleave, preload duration : 504 ms
Writing library : LAME3.99r
Encoding settings : -m s -V 4 -q 2 -lowpass 17 -b 128

Скриншоты

[teatrix.ru].t17966.torrent 
Торрент: Зарегистрирован [ 2016-03-17 00:46 ] · 48166CEEC27F08C5B69C7C98A7522D2EAB645564

Скачать .torrent

Скачать

11 KB

Статус: проверено
Скачан: 0 раз
Размер: 529 MB
terms.php



Показать сообщения:    

Текущее время: 07-Дек 21:15

Часовой пояс: UTC + 3


Вы не можете начинать темы
Вы не можете отвечать на сообщения
Вы не можете редактировать свои сообщения
Вы не можете удалять свои сообщения
Вы не можете голосовать в опросах
Вы не можете прикреплять файлы к сообщениям
Вы можете скачивать файлы