(Classical, oratorio) Handel - Saul - Andersen, Prohaska, Mead, Schmitt, Stoklossa, Speer, Heidrich; Dresdner Kammerchor & Barockorchester, Hans-Christoph Rademann - 3CD - 2008, FLAC (image+.cue) lossless


Статистика раздачи [Обновить пиров]
Размер:  783 MB   |    Зарегистрирован:  8 месяцев 19 дней   |    Скачан:  0 раз

Полного источника не было: Никогда

 
   
 
 
 

[Цитировать]

Handel - Saul - Andersen, Prohaska, Mead, Schmitt, Stoklossa, Speer, Heidrich; Dresdner Kammerchor & Barockorchester, Hans-Christoph Rademann
Жанр: Classical, oratorio
Страна-производитель диска: Germany
Год издания диска: 2008
Издатель (лейбл): Carus
Номер по каталогу: 83.243
Дата записи: 2008
Аудиокодек: FLAC
Тип рипа: image+.cue
Битрейт аудио: lossless
Продолжительность: 165.:07
Источник: собственный рип
Наличие сканов в содержимом раздачи: да
Треклист:
Georg Friedrich Händel (1685-1759)
Saul HWV 53
Oratorio in three acts
CD1
[1]-[41] Act I
CD2
[1]-[27] Act II
CD3
[1]-[18] Act III
Исполнители:
Saul Yorck Felix Speer bass
David Team Mead alto
Jonathan Maximilian Schmitt tenor
Michal Ditte Andersen soprano
Merab Anna Prohaska soprano
Priest Eric Stokloßa tenor
Ghost of Samuel Clemens Heidrich bass
Amalekiter Tobias Mäthger tenor
Abner Philipp Kaven baritone
Servant of Saul Felix Rumpf bass
Dresdner Kammerchor
Dresdner Barockorchester
Hans-Christoph Rademann

Лог создания рипа: CD1

Exact Audio Copy V1.0 beta 3 from 29. August 2011
EAC extraction logfile from 7. November 2013, 15:16
Dresdner Kammerchor, Dresdner Bakockorchester, Hans-Christoph Rademann / Handel - Saul - Act I
Used drive : HL-DT-STDVDRRW GWA-4164B Adapter: 5 ID: 0
Read mode : Secure
Utilize accurate stream : Yes
Defeat audio cache : Yes
Make use of C2 pointers : No
Read offset correction : 102
Overread into Lead-In and Lead-Out : No
Fill up missing offset samples with silence : Yes
Delete leading and trailing silent blocks : No
Null samples used in CRC calculations : Yes
Used interface : Native Win32 interface for Win NT & 2000
Used output format : User Defined Encoder
Selected bitrate : 896 kBit/s
Quality : High
Add ID3 tag : No
Command line compressor : C:\Program Files\Exact Audio Copy\FLAC\FLAC.EXE
Additional command line options : -V -8 %source%
TOC of the extracted CD
Track | Start | Length | Start sector | End sector
---------------------------------------------------------
1 | 0:00.00 | 11:29.03 | 0 | 51677
2 | 11:29.03 | 2:31.30 | 51678 | 63032
3 | 14:00.33 | 1:09.47 | 63033 | 68254
4 | 15:10.05 | 1:11.21 | 68255 | 73600
5 | 16:21.26 | 2:02.29 | 73601 | 82779
6 | 18:23.55 | 2:24.51 | 82780 | 93630
7 | 20:48.31 | 3:21.24 | 93631 | 108729
8 | 24:09.55 | 0:46.72 | 108730 | 112251
9 | 24:56.52 | 4:19.28 | 112252 | 131704
10 | 29:16.05 | 0:21.72 | 131705 | 133351
11 | 29:38.02 | 2:06.36 | 133352 | 142837
12 | 31:44.38 | 0:19.08 | 142838 | 144270
13 | 32:03.46 | 4:37.05 | 144271 | 165050
14 | 36:40.51 | 0:20.72 | 165051 | 166622
15 | 37:01.48 | 2:26.10 | 166623 | 177582
16 | 39:27.58 | 0:21.71 | 177583 | 179228
17 | 39:49.54 | 1:14.20 | 179229 | 184798
18 | 41:03.74 | 1:10.27 | 184799 | 190075
19 | 42:14.26 | 0:55.55 | 190076 | 194255
20 | 43:10.06 | 1:06.32 | 194256 | 199237
21 | 44:16.38 | 0:19.38 | 199238 | 200700
22 | 44:36.01 | 1:30.34 | 200701 | 207484
23 | 46:06.35 | 0:24.60 | 207485 | 209344
24 | 46:31.20 | 0:32.13 | 209345 | 211757
25 | 47:03.33 | 0:21.74 | 211758 | 213406
26 | 47:25.32 | 1:25.41 | 213407 | 219822
27 | 48:50.73 | 0:44.68 | 219823 | 223190
28 | 49:35.66 | 2:43.47 | 223191 | 235462
29 | 52:19.38 | 0:25.47 | 235463 | 237384
30 | 52:45.10 | 2:03.15 | 237385 | 246624
31 | 54:48.25 | 0:22.64 | 246625 | 248338
32 | 55:11.14 | 3:41.22 | 248339 | 264935
33 | 58:52.36 | 1:28.17 | 264936 | 271552
34 | 60:20.53 | 0:14.70 | 271553 | 272672
35 | 60:35.48 | 1:54.56 | 272673 | 281278
36 | 62:30.29 | 0:27.42 | 281279 | 283345
37 | 62:57.71 | 5:51.60 | 283346 | 309730
38 | 68:49.56 | 1:19.60 | 309731 | 315715
39 | 70:09.41 | 1:35.51 | 315716 | 322891
40 | 71:45.17 | 1:41.57 | 322892 | 330523
41 | 73:26.74 | 2:37.17 | 330524 | 342315
Range status and errors
Selected range
Filename D:\temp\Music\Handel - Saul (Rademann)\Handel - Saul - CD1.wav
Peak level 98.8 %
Extraction speed 3.3 X
Range quality 100.0 %
Test CRC D84A9425
Copy CRC D84A9425
Copy OK
No errors occurred
AccurateRip summary
Track 1 accurately ripped (confidence 1) [41C96D23] (AR v2)
Track 2 accurately ripped (confidence 1) [C6F96C5E] (AR v2)
Track 3 accurately ripped (confidence 1) [FCB4FAD1] (AR v2)
Track 4 accurately ripped (confidence 1) [24C2340E] (AR v2)
Track 5 accurately ripped (confidence 1) [B5A08B49] (AR v2)
Track 6 accurately ripped (confidence 1) [29757413] (AR v2)
Track 7 accurately ripped (confidence 1) [8FC6A983] (AR v2)
Track 8 accurately ripped (confidence 1) [BC64F4B4] (AR v2)
Track 9 accurately ripped (confidence 1) [82EB8778] (AR v2)
Track 10 accurately ripped (confidence 1) [030DE660] (AR v2)
Track 11 accurately ripped (confidence 1) [52D1B722] (AR v2)
Track 12 accurately ripped (confidence 1) [6D3BB031] (AR v2)
Track 13 accurately ripped (confidence 1) [F92D0948] (AR v2)
Track 14 accurately ripped (confidence 1) [7BA0474A] (AR v2)
Track 15 accurately ripped (confidence 1) [4AA08A03] (AR v2)
Track 16 accurately ripped (confidence 1) [48DAF607] (AR v2)
Track 17 accurately ripped (confidence 1) [35ECC132] (AR v2)
Track 18 accurately ripped (confidence 1) [50217B93] (AR v2)
Track 19 accurately ripped (confidence 1) [49ACAC74] (AR v2)
Track 20 accurately ripped (confidence 1) [10B7C78E] (AR v2)
Track 21 accurately ripped (confidence 1) [186BA9FE] (AR v2)
Track 22 accurately ripped (confidence 1) [6150D51A] (AR v2)
Track 23 accurately ripped (confidence 1) [FAA3BE4F] (AR v2)
Track 24 accurately ripped (confidence 1) [60CC8845] (AR v2)
Track 25 accurately ripped (confidence 1) [DEC81302] (AR v2)
Track 26 accurately ripped (confidence 1) [E4090239] (AR v2)
Track 27 accurately ripped (confidence 1) [C5634DDB] (AR v2)
Track 28 accurately ripped (confidence 1) [E233EBFE] (AR v2)
Track 29 accurately ripped (confidence 1) [A11C7CB7] (AR v2)
Track 30 accurately ripped (confidence 1) [DBB904D7] (AR v2)
Track 31 accurately ripped (confidence 1) [55AED501] (AR v2)
Track 32 accurately ripped (confidence 1) [DF233BE8] (AR v2)
Track 33 accurately ripped (confidence 1) [E3F4C21E] (AR v2)
Track 34 accurately ripped (confidence 1) [E07A36ED] (AR v2)
Track 35 accurately ripped (confidence 1) [A345C5B4] (AR v2)
Track 36 accurately ripped (confidence 1) [EDB57847] (AR v2)
Track 37 accurately ripped (confidence 1) [7A5E5AF2] (AR v2)
Track 38 accurately ripped (confidence 1) [28C9BF34] (AR v2)
Track 39 accurately ripped (confidence 1) [F42366F9] (AR v2)
Track 40 accurately ripped (confidence 1) [B1092E82] (AR v2)
Track 41 accurately ripped (confidence 1) [A59D0691] (AR v2)
All tracks accurately ripped
End of status report
==== Log checksum 4BA61275C9B745332B850D449F90E553EAF3BC6F69C1E66D1A1F2C005AE9B92D ====

Лог создания рипа: CD2

Exact Audio Copy V1.0 beta 3 from 29. August 2011
EAC extraction logfile from 7. November 2013, 16:10
Dresdner Kammerchor, Dresdner Bakockorchester, Hans-Christoph Rademann / Handel - Saul - Act II
Used drive : HL-DT-STDVDRRW GWA-4164B Adapter: 5 ID: 0
Read mode : Secure
Utilize accurate stream : Yes
Defeat audio cache : Yes
Make use of C2 pointers : No
Read offset correction : 102
Overread into Lead-In and Lead-Out : No
Fill up missing offset samples with silence : Yes
Delete leading and trailing silent blocks : No
Null samples used in CRC calculations : Yes
Used interface : Native Win32 interface for Win NT & 2000
Used output format : User Defined Encoder
Selected bitrate : 896 kBit/s
Quality : High
Add ID3 tag : No
Command line compressor : C:\Program Files\Exact Audio Copy\FLAC\FLAC.EXE
Additional command line options : -V -8 %source%
TOC of the extracted CD
Track | Start | Length | Start sector | End sector
---------------------------------------------------------
1 | 0:00.00 | 2:09.64 | 0 | 9738
2 | 2:09.64 | 0:33.06 | 9739 | 12219
3 | 2:42.70 | 2:06.62 | 12220 | 21731
4 | 4:49.57 | 0:48.56 | 21732 | 25387
5 | 5:38.38 | 4:12.00 | 25388 | 44287
6 | 9:50.38 | 0:19.20 | 44288 | 45732
7 | 10:09.58 | 0:39.10 | 45733 | 48667
8 | 10:48.68 | 1:57.65 | 48668 | 57507
9 | 12:46.58 | 1:03.73 | 57508 | 62305
10 | 13:50.56 | 1:56.31 | 62306 | 71036
11 | 15:47.12 | 0:31.64 | 71037 | 73425
12 | 16:19.01 | 0:59.06 | 73426 | 77856
13 | 17:18.07 | 0:29.44 | 77857 | 80075
14 | 17:47.51 | 0:30.50 | 80076 | 82375
15 | 18:18.26 | 2:25.73 | 82376 | 93323
16 | 20:44.24 | 1:21.51 | 93324 | 99449
17 | 22:06.00 | 6:04.71 | 99450 | 126820
18 | 28:10.71 | 0:35.44 | 126821 | 129489
19 | 28:46.40 | 1:15.71 | 129490 | 135185
20 | 30:02.36 | 0:41.52 | 135186 | 138312
21 | 30:44.13 | 1:31.35 | 138313 | 145172
22 | 32:15.48 | 0:55.65 | 145173 | 149362
23 | 33:11.38 | 3:28.64 | 149363 | 165026
24 | 36:40.27 | 1:05.17 | 165027 | 169918
25 | 37:45.44 | 0:37.19 | 169919 | 172712
26 | 38:22.63 | 1:04.52 | 172713 | 177564
27 | 39:27.40 | 4:29.13 | 177565 | 197752
Range status and errors
Selected range
Filename D:\temp\Music\Handel - Saul (Rademann)\Handel - Saul - CD2.wav
Peak level 83.4 %
Extraction speed 2.4 X
Range quality 99.9 %
Test CRC 799BAB20
Copy CRC 799BAB20
Copy OK
No errors occurred
AccurateRip summary
Track 1 accurately ripped (confidence 1) [B93A5125] (AR v2)
Track 2 accurately ripped (confidence 1) [2981F052] (AR v2)
Track 3 accurately ripped (confidence 1) [2A7AE27F] (AR v2)
Track 4 accurately ripped (confidence 1) [08E8A318] (AR v2)
Track 5 accurately ripped (confidence 1) [49448E09] (AR v2)
Track 6 accurately ripped (confidence 1) [7B5AF89A] (AR v2)
Track 7 accurately ripped (confidence 1) [995D5D71] (AR v2)
Track 8 accurately ripped (confidence 1) [4E3ED725] (AR v2)
Track 9 accurately ripped (confidence 1) [79AB7814] (AR v2)
Track 10 accurately ripped (confidence 1) [5CC8FC8E] (AR v2)
Track 11 accurately ripped (confidence 1) [90253C03] (AR v2)
Track 12 accurately ripped (confidence 1) [C83A2FAA] (AR v2)
Track 13 accurately ripped (confidence 1) [4A26767F] (AR v2)
Track 14 accurately ripped (confidence 1) [13843BF1] (AR v2)
Track 15 accurately ripped (confidence 1) [CF74FCE2] (AR v2)
Track 16 accurately ripped (confidence 1) [8C922102] (AR v2)
Track 17 accurately ripped (confidence 1) [9B8782C6] (AR v2)
Track 18 accurately ripped (confidence 1) [3B794E98] (AR v2)
Track 19 accurately ripped (confidence 1) [7A20D03C] (AR v2)
Track 20 accurately ripped (confidence 1) [B6BC449D] (AR v2)
Track 21 accurately ripped (confidence 1) [241CC4FF] (AR v2)
Track 22 accurately ripped (confidence 1) [F4893539] (AR v2)
Track 23 accurately ripped (confidence 1) [9228D0D6] (AR v2)
Track 24 accurately ripped (confidence 1) [3FEBAAF1] (AR v2)
Track 25 accurately ripped (confidence 1) [3AB388B1] (AR v2)
Track 26 accurately ripped (confidence 1) [09812F48] (AR v2)
Track 27 accurately ripped (confidence 1) [C54B8DEA] (AR v2)
All tracks accurately ripped
End of status report
==== Log checksum 69DB0A638E0D031BE8F29319DE2C705441A6B26BE5A0CE0D3D46BAD5751ECCAF ====

Лог создания рипа: CD3

Exact Audio Copy V1.0 beta 3 from 29. August 2011
EAC extraction logfile from 7. November 2013, 17:08
Dresdner Kammerchor, Dresdner Bakockorchester, Hans-Christoph Rademann / Handel - Saul - Act III
Used drive : HL-DT-STDVDRRW GWA-4164B Adapter: 5 ID: 0
Read mode : Secure
Utilize accurate stream : Yes
Defeat audio cache : Yes
Make use of C2 pointers : No
Read offset correction : 102
Overread into Lead-In and Lead-Out : No
Fill up missing offset samples with silence : Yes
Delete leading and trailing silent blocks : No
Null samples used in CRC calculations : Yes
Used interface : Native Win32 interface for Win NT & 2000
Used output format : User Defined Encoder
Selected bitrate : 896 kBit/s
Quality : High
Add ID3 tag : No
Command line compressor : C:\Program Files\Exact Audio Copy\FLAC\FLAC.EXE
Additional command line options : -V -8 %source%
TOC of the extracted CD
Track | Start | Length | Start sector | End sector
---------------------------------------------------------
1 | 0:00.00 | 2:25.62 | 0 | 10936
2 | 2:25.62 | 0:51.70 | 10937 | 14831
3 | 3:17.57 | 1:00.09 | 14832 | 19340
4 | 4:17.66 | 2:14.19 | 19341 | 29409
5 | 6:32.10 | 3:25.40 | 29410 | 44824
6 | 9:57.50 | 0:32.24 | 44825 | 47248
7 | 10:29.74 | 1:15.52 | 47249 | 52925
8 | 11:45.51 | 1:50.37 | 52926 | 61212
9 | 13:36.13 | 4:30.59 | 61213 | 81521
10 | 18:06.72 | 4:38.34 | 81522 | 102405
11 | 22:45.31 | 2:14.25 | 102406 | 112480
12 | 24:59.56 | 2:58.58 | 112481 | 125888
13 | 27:58.39 | 2:29.10 | 125889 | 137073
14 | 30:27.49 | 0:18.67 | 137074 | 138490
15 | 30:46.41 | 4:13.50 | 138491 | 157515
16 | 35:00.16 | 4:30.58 | 157516 | 177823
17 | 39:30.74 | 0:29.28 | 177824 | 180026
18 | 40:00.27 | 5:01.46 | 180027 | 202647
Range status and errors
Selected range
Filename D:\temp\Music\Handel - Saul (Rademann)\Handel - Saul - CD3.wav
Peak level 97.2 %
Extraction speed 1.8 X
Range quality 100.0 %
Test CRC 55053E47
Copy CRC 55053E47
Copy OK
No errors occurred
AccurateRip summary
Track 1 accurately ripped (confidence 1) [7316CF6C] (AR v2)
Track 2 accurately ripped (confidence 1) [7AC835A5] (AR v2)
Track 3 accurately ripped (confidence 1) [7D8C0BFB] (AR v2)
Track 4 accurately ripped (confidence 1) [F4E9AF61] (AR v2)
Track 5 accurately ripped (confidence 1) [5D709577] (AR v2)
Track 6 accurately ripped (confidence 1) [E4A859B1] (AR v2)
Track 7 accurately ripped (confidence 1) [1E2399B3] (AR v2)
Track 8 accurately ripped (confidence 1) [F3A4308A] (AR v2)
Track 9 accurately ripped (confidence 1) [981AC1E3] (AR v2)
Track 10 accurately ripped (confidence 1) [F69301CE] (AR v2)
Track 11 accurately ripped (confidence 1) [6E3728ED] (AR v2)
Track 12 accurately ripped (confidence 1) [C9186613] (AR v2)
Track 13 accurately ripped (confidence 1) [0E1C645B] (AR v2)
Track 14 accurately ripped (confidence 1) [F6848D7D] (AR v2)
Track 15 accurately ripped (confidence 1) [210D70A5] (AR v2)
Track 16 accurately ripped (confidence 1) [27551DCF] (AR v2)
Track 17 accurately ripped (confidence 1) [84D88184] (AR v2)
Track 18 accurately ripped (confidence 1) [3AEA439E] (AR v2)
All tracks accurately ripped
End of status report
==== Log checksum BE66CD639D3D7254CE85E800B851390780520CF6FF2BF81B467D4FF85E55E5F6 ====
[teatrix.ru].t17968.torrent 
Торрент: Зарегистрирован [ 2016-03-17 00:46 ] · 83A9EE55F3AB5EF58DCA9397928FADD44ACE6E59

Скачать .torrent

Скачать

34 KB

Статус: проверено
Скачан: 0 раз
Размер: 783 MB
terms.php



Быстрый ответ

Имя:

      
Для отправки сообщений необходимо включить JavaScript
Показать сообщения:    

Текущее время: 05-Дек 01:23

Часовой пояс: UTC + 3


Вы можете начинать темы
Вы можете отвечать на сообщения
Вы не можете редактировать свои сообщения
Вы не можете удалять свои сообщения
Вы не можете голосовать в опросах
Вы не можете прикреплять файлы к сообщениям
Вы можете скачивать файлы