Легенды мирового кино. Жан Маре (Андрей Истратов) [2013, Документальный, SATRip]


Статистика раздачи [Обновить пиров]
Размер:  338 MB   |    Зарегистрирован:  8 месяцев 21 день   |    Скачан:  0 раз

Полного источника не было: Никогда

 
   
 
 
 

[Цитировать]

--Легенды мирового кино
Жан Маре
-- Страна: Россия
Производство: ООО Телекомпания "Гамаюн"
Год: 2013
Продолжительность: 00:25:59
Жанр: Документальный цикл
Перевод: Не требуется
Субтитры: нет--Режиссер: Андрей Истратов--Описание:
К 100-летию со дня рождения Жана Маре. В 40-х - 50-х гг. прошлого века французский актер Жан Маре был известен как великолепный исполнитель романтических ролей. Это работы в фильмах - "Рюи Блаз" ("Опасное сходство"), "Граф Монте-Кристо", "Красавица и чудовище". В числе удач Жана Маре есть роли интеллектуальных героев, на которые его приглашал Жан Кокто.--Сэмпл: http://multi-up.com/932770
Качество: DVDRip
Формат: AVI
Видео-кодек: XviD
Аудио-кодек: AC3
Видео: 640x480 (1.33:1), 25 fps, XviD build 50 ~1620 kbps avg, 0.21 bit/pixel
Аудио: 48 kHz, AC3 Dolby Digital, 2/0 (L,R) ch, ~192.00 kbps

MedioInfo

Общее
Формат : AVI
Формат/Информация : Audio Video Interleave
Размер файла : 338 Мбайт
Продолжительность : 25 м.
Общий поток : 1819 Кбит/сек
TCOD : 0
TCDO : 15599600000
Видео
Идентификатор : 0
Формат : MPEG-4 Visual
Профиль формата : Advanced Simple@L5
Параметр BVOP формата : 1
Параметр QPel формата : Нет
Параметр GMC формата : Без точки перехода
Параметр матрицы формата : Default (MPEG)
Режим смешивания : Сжатый битовый поток
Идентификатор кодека : XVID
Идентификатор кодека/Подсказка : XviD
Продолжительность : 25 м.
Битрейт : 1497 Кбит/сек
Ширина : 640 пикс.
Высота : 480 пикс.
Соотношение сторон : 4:3
Частота кадров : 25,000 кадр/сек
Цветовое пространство : YUV
Подвыборка цветности : 4:2:0
Битовая глубина : 8 бит
Тип развёртки : Прогрессивная
Метод сжатия : С потерями
Бит/(Пиксели*Кадры) : 0.195
Размер потока : 278 Мбайт (82%)
Библиотека кодирования : XviD 1.2.0.dev47 (UTC 2006-11-01)
Аудио
Идентификатор : 1
Формат : AC-3
Формат/Информация : Audio Coding 3
Расширение режима : CM (complete main)
Идентификатор кодека : 2000
Продолжительность : 25 м.
Вид битрейта : Постоянный
Битрейт : 192 Кбит/сек
Канал(ы) : 2 канала(ов)
Расположение каналов : Front: L R
Частота : 44,1 КГц
Битовая глубина : 16 бит
Метод сжатия : С потерями
Задержка видео : 5 с. 921 мс.
Размер потока : 35,6 Мбайт (11%)
Выравнивание : Разделение по промежуткам
Продолжительность промежутка : 40 мс. (1,00 видеокадр)
Время предзагрузки промежутка : 69 ms

Cкриншоты

[teatrix.ru].t17972.torrent 
Торрент: Зарегистрирован [ 2016-03-17 00:46 ] · C6219DC4949B07B3DDC772E58B74C54332946EB6

Скачать .torrent

Скачать

14 KB

Статус: проверено
Скачан: 0 раз
Размер: 338 MB
terms.php



Показать сообщения:    

Текущее время: 07-Дек 00:54

Часовой пояс: UTC + 3


Вы не можете начинать темы
Вы не можете отвечать на сообщения
Вы не можете редактировать свои сообщения
Вы не можете удалять свои сообщения
Вы не можете голосовать в опросах
Вы не можете прикреплять файлы к сообщениям
Вы можете скачивать файлы