(Classical, Concerto, Violin) J.S. Bach - Violin Concertos {Akiko Suwanai, Chamber Orchestra of Europe} - 2006, FLAC (image+.cue), lossless


Статистика раздачи [Обновить пиров]
Размер:  330 MB   |    Зарегистрирован:  8 месяцев 20 дней   |    Скачан:  0 раз

Полного источника не было: Никогда

 
   
 
 
 

[Цитировать]

Akiko Suwanai & Chamber Orchestra of Europe - J.S. Bach: Violin Concertos
Жанр: Classical, Concerto, Violin
Год издания диска: 2006
Издатель (лейбл): Philips
Аудиокодек: FLAC
Тип рипа: image+.cue
Битрейт аудио: lossless
Продолжительность: 60:06
Источник (релизер): zyk2222 (verycd)
Наличие сканов в содержимом раздачи: нет
Треклист:
Johann Sebastian Bach (1685-1750)
Concerto for 2 Violins, Strings, and Continuo in D minor, BWV 1043
01. 1. Vivace (3:49)
02. 2. Largo ma non tanto (6:37)
03. 3. Allegro (7:24)
Violin Concerto No.2 in E, BWV 1042
04. 1. Allegro (7:28)
05. 2. Adagio (5:50)
06. 3. Allegro assai (2:40)
Concerto for Violin, Oboe, and Strings in D minor, BWV 1060
07. 1. Allegro (4:47)
08. 2. Adagio (4:48)
09. 3. Allegro (3:30)
Violin Concerto No.1 in A minor, BWV 1041
10. 1. (Allegro moderato) (3:40)
11. 2. Andante (5:55)
12. 3. Allegro assai (3:37)
Исполнители:
Akiko Suwanai - violin, conductor
Volkhard Steude - violin (#1-3)
Francois Leleux - oboe (#7-9)
Chamber Orchestra of Europe

Лог создания рипа

EAC 추출 로그 파일 from 5. 3월 2009, 23:03 for CD
Akiko Suwanai (violin & conductor) & Chamber Orchestra of Europe / J.S. Bach Violin Concertos
사용된 드라이브 : TSSTcorpCDDVDW TS-H653F Adapter: 3 ID: 0
읽기 방식 : 안전 (C2 가능, 정밀한 전송 가능, 캐쉬 무효 불가능)
읽기 오프셋 교정 : 0
리드-인과 리드-아웃으로 오버리드 : 아니오
사용된 출력 형식 : 내부 WAV 루틴
44.100 Hz; 16 비트; 스테레오
그 밖의 설정 :
손실된 오프셋 샘플을 무음으로 대치 : 예
처음과 끝 부분의 무음 블락 삭제 : 아니오
윈도우즈 NT & 2000을 위한 표준 Win32 인터페이스
상태와 오류 범위
선택된 범위
파일 이름 C:\Documents and Settings\kang daru\바탕 화면\Akiko Suwanai (violin & conductor) & Chamber Orchestra of Europe - J.S. Bach Violin Concertos.wav
피크 레벨 99.9 %
선택 범위 품질 100.0 %
CRC B432E2CB
복사 OK
오류 발생 없었음
상태 보고서의 끝

Содержание индексной карты (.CUE)

REM GENRE Classical
REM DATE 2006
REM DISCID 830E150C
REM COMMENT "ExactAudioCopy v0.95b4"
PERFORMER "Akiko Suwanai & Chamber Orchestra of Europe"
TITLE "J.S. Bach: Violin Concertos"
FILE "Akiko Suwanai & Chamber Orchestra of Europe - J.S. Bach- Violin Concertos.wav" WAVE
TRACK 01 AUDIO
TITLE "Concerto in D minor, BWV 1043: 1. Vivace"
PERFORMER "Akiko Suwanai & Chamber Orchestra of Europe"
INDEX 01 00:00:00
TRACK 02 AUDIO
TITLE "Concerto in D minor, BWV 1043: 2. Largo ma non tanto"
PERFORMER "Akiko Suwanai & Chamber Orchestra of Europe"
INDEX 01 03:49:00
TRACK 03 AUDIO
TITLE "Concerto in D minor, BWV 1043: 3. Allegro"
PERFORMER "Akiko Suwanai & Chamber Orchestra of Europe"
INDEX 01 10:26:00
TRACK 04 AUDIO
TITLE "Concerto No.2 in E major, BWV 1042: 1. Allegro"
PERFORMER "Akiko Suwanai & Chamber Orchestra of Europe"
INDEX 00 17:45:00
INDEX 01 17:50:00
TRACK 05 AUDIO
TITLE "Concerto No.2 in E major, BWV 1042: 2. Adagio"
PERFORMER "Akiko Suwanai & Chamber Orchestra of Europe"
INDEX 01 25:18:00
TRACK 06 AUDIO
TITLE "Concerto No.2 in E major, BWV 1042: 3. Allegro assai"
PERFORMER "Akiko Suwanai & Chamber Orchestra of Europe"
INDEX 01 31:08:00
TRACK 07 AUDIO
TITLE "Concerto in D minor, BWV 1060: 1. Allegro"
PERFORMER "Akiko Suwanai & Chamber Orchestra of Europe"
INDEX 00 33:42:00
INDEX 01 33:48:00
TRACK 08 AUDIO
TITLE "Concerto in D minor, BWV 1060: 2. Adagio"
PERFORMER "Akiko Suwanai & Chamber Orchestra of Europe"
INDEX 01 38:35:24
TRACK 09 AUDIO
TITLE "Concerto in D minor, BWV 1060: 3. Allegro"
PERFORMER "Akiko Suwanai & Chamber Orchestra of Europe"
INDEX 01 43:23:00
TRACK 10 AUDIO
TITLE "Concerto No.1 in A minor, BWV 1041: 1. (Allegro moderato)"
PERFORMER "Akiko Suwanai & Chamber Orchestra of Europe"
INDEX 00 46:48:00
INDEX 01 46:53:00
TRACK 11 AUDIO
TITLE "Concerto No.1 in A minor, BWV 1041: 2. Andante"
PERFORMER "Akiko Suwanai & Chamber Orchestra of Europe"
INDEX 01 50:33:36
TRACK 12 AUDIO
TITLE "Concerto No.1 in A minor, BWV 1041: 3. Allegro assai"
PERFORMER "Akiko Suwanai & Chamber Orchestra of Europe"
INDEX 01 56:28:36

Отчет CUETools

[CUETools log; Date: 15.12.2013 23:58:32; Version: 2.1.4]
[CTDB TOCID: D32F2o7a4WrsQhl2QWBwx0UpNfg-] found.
Track | CTDB Status
1 | (4/4) Accurately ripped
2 | (4/4) Accurately ripped
3 | (4/4) Accurately ripped
4 | (4/4) Accurately ripped
5 | (4/4) Accurately ripped
6 | (4/4) Accurately ripped
7 | (4/4) Accurately ripped
8 | (4/4) Accurately ripped
9 | (4/4) Accurately ripped
10 | (4/4) Accurately ripped
11 | (4/4) Accurately ripped
12 | (4/4) Accurately ripped
[AccurateRip ID: 001cb8f9-0107e563-830e150c] found.
Track [ CRC | V2 ] Status
01 [5264913e|24ce221d] (00+00/35) No match
02 [8ffa0ccc|9ba77889] (00+00/35) No match
03 [feff4062|60510b74] (00+00/35) No match
04 [3561adf7|82e52ca2] (00+00/34) No match
05 [da84a4ff|9f1fcf95] (00+00/35) No match
06 [13e507e7|6be24f3f] (00+00/35) No match
07 [f72539ff|2c1c833d] (00+00/35) No match
08 [ecd6e244|0c36431b] (00+00/34) No match
09 [8988f8fe|bdbfaa03] (00+00/34) No match
10 [d62e4683|db38ce93] (00+00/35) No match
11 [a733be5d|3894f651] (00+00/35) No match
12 [79a853a7|0eafd4ed] (00+00/33) No match
Offsetted by 6:
01 [4a622c5f] (23/35) Accurately ripped
02 [d0559e60] (23/35) Accurately ripped
03 [0b0acf5a] (23/35) Accurately ripped
04 [ec397b18] (22/34) Accurately ripped
05 [2ddb1610] (23/35) Accurately ripped
06 [13eee759] (23/35) Accurately ripped
07 [79208cfa] (23/35) Accurately ripped
08 [746cdbfb] (22/34) Accurately ripped
09 [1875995e] (22/34) Accurately ripped
10 [5cc419b7] (23/35) Accurately ripped
11 [70d9eab2] (23/35) Accurately ripped
12 [dc03283f] (18/33) Accurately ripped
Track Peak [ CRC32 ] [W/O NULL]
-- 99,9 [920AE91E] [B432E2CB]
01 99,0 [EA51868F] [9B8DFEB0]
02 84,7 [15E6AC67] [3918799C]
03 99,9 [8AD84692] [00F6405F]
04 99,9 [4FF3F067] [D9AB1296]
05 73,0 [3058F4E3] [B37C037E]
06 97,2 [8D02E127] [8A7815DD]
07 99,9 [C770C4A5] [D51864AD]
08 91,7 [EF1A6CA5] [EA4C94B1]
09 98,8 [2AAE4479] [93E00762]
10 99,8 [E160C016] [A3712A27]
11 82,7 [A763799F] [D3562096]
12 99,2 [E409E1DA] [EAFAC47D]

Review by Stephen Eddins

Akiko Suwanai (born in 1972) is one of the brightest violinists to have emerged in the late 20th century, winning the Tchaikovsky International Competition, the youngest person to do so, in 1990. She has gone on to an impressive concert and recording career that encompasses both traditional repertoire and world premieres. Her 2006 album J.S. Bach: Violin Concertos was an instant success, and for three weeks was at the top of the iTunes U.S. Classical Chart. Her performance is impressive: incisive, nuanced, and idiomatic. Her tone has an appealing warmth, but she remains true to the character of the music and doesn't lapse into Romantic tone quality or interpretations. She brings a high level of energy and momentum to the fast movements and her slow movements are sensuous with supple, elastic phrasing. Suwanai's program is exceptionally attractive and includes the most popular of Bach's concertos featuring the violin. Included are the Concerto for Two Violins in D minor, BWV 1043, and the Concerto for Violin and Oboe, BWV 1060, and the solo violin concertos, BWV 1041 and BWV 1042. Violinist Volkhard Steude and oboist François Leleux join her in the double concertos. She's accompanied with verve and sensitivity by the Chamber Orchestra of Europe, which plays without a conductor but is capably guided by concertmaster Alexander Janiczek. The sound on the beautifully produced album is clean and natural.
[teatrix.ru].t17975.torrent 
Торрент: Зарегистрирован [ 2016-03-17 00:46 ] · A8A593FFF85D8A35615D96E8567A3962885B5C3A

Скачать .torrent

Скачать

14 KB

Статус: проверено
Скачан: 0 раз
Размер: 330 MB
terms.php



Быстрый ответ

Имя:

      
Для отправки сообщений необходимо включить JavaScript
Показать сообщения:    

Текущее время: 06-Дек 13:12

Часовой пояс: UTC + 3


Вы можете начинать темы
Вы можете отвечать на сообщения
Вы не можете редактировать свои сообщения
Вы не можете удалять свои сообщения
Вы не можете голосовать в опросах
Вы не можете прикреплять файлы к сообщениям
Вы можете скачивать файлы