(Sacred) Gerd Wachowski, Wurzburger Bachchor, Christian Kabitz - Jewels from a German Christmas (Wachowski Sucher J.S.Bach Eccard Reger Distler Schroter Praetorius Thiel) - 1995, FLAC (image+.cue) lossless


Статистика раздачи [Обновить пиров]
Размер:  225 MB   |    Зарегистрирован:  8 месяцев 17 дней   |    Скачан:  0 раз

Полного источника не было: Никогда

Личеров:  1  [  0 KB/s  ]   Подробная статистика пиров
 
   
 
 
 

[Цитировать]

Jewels from a German Christmas: Alte Deutsche Weihnachtslieder & Weihnachtliche Orgelmusik
Жанр: Sacred, Christmas
Страна-производитель диска: Germany 1995
Год издания диска: 1995
Издатель (лейбл): MDG
Номер по каталогу: 605 1516-2
Дата записи: 1993, 1995
Аудиокодек: FLAC
Тип рипа: image+.cue
Битрейт аудио: lossless
Продолжительность: 01:03:16
Источник: скачано с avaxhome
Наличие сканов в содержимом раздачи: да
Исполнители: Gerd Wachowski, organ; Würzburger Bachchor, Christian Kabitz

Треклист

01 Bells/Glocken (St. Jakob Rothenburg o.d. Tauber) 0'44
02 Gerd Wachowski - Christmas March/Weihnachtlicher Festmarsch (Improvisations on Nun freut euch, ihr Christen Herbei, o ihr Gläubigen Ich steh an deiner Krippen hier, Organ) 3'49
03 Friedrich Sucher - Macht hoch die Tür (Chorus) 2'50
04 J.S. Bach - Mit Ernst, o Menschenkinder (Chorus) 2'04
05 Gerd Wachowski - Ihr Kinderlein kommet (Improvisation, Organ) 1'55
06 Johann Eccard - Übers Gebirg Maria geht (Chorus) 2'50
07 Max Reger - Und unser lieben Frauen (Chorus) 2'13
08 Hugo Distler - Maria durch ein Dornwald ging (Chorus) 2'00
Gerd Wachowski - Christmas Chorale Preludes / Weihnachtliche Choralvorspiele, Organ, Improvisations on
09 Macht hoch die Tür 1'09
10 Der Heiland ist geboren 0'57
11 Weißt du, wieviel Sternlein 0'45
12 Nun freut euch ihr Christen 0'50
13 Leonhard Schröter - Freut euch ihr lieben Christen (Chorus) 1'10
14 Michael Praetorius - Psallite (Chorus) 1'20
15 Johann Eccard - Vom Himmel hoch (Chorus) 1'59
16 Gerd Wachowski - Vom Himmel hoch (Improvisation, Organ) 2'40
J.S. Bach (Chorus) -
17 Ich steh an deiner Krippen 2'18
18 O Jesulein zart 2'26
19 Freuet euch, ihr Christen alle 1'41
Gerd Wachowski - Christmas Concerto/Weihnachtsconcerto, Organ, Improvisations on
20 Lobt Gott, ihr Christen 4'54
21 Es kommt ein Schiff 3'55
22 Nun singet und seid froh 2'47
Michael Praetorius (Chorus)
23 Es ist ein Ros entsprungen 2'20
24 Joseph, lieber Joseph mein 1'50
25 Gerd Wachowski - Stille Nacht (Improvisation, Organ) 5'25
26 Carl Thiel - Preis sei Gott (Chorus) 2'20
27 Gerd Wachowski - O du fröhliche (Organ) 2'28
28 Bells/Glocken (St. Jakob Rothenburg) 1'25

Лог создания рипа

Exact Audio Copy V1.0 beta 3 from 29. August 2011
EAC extraction logfile from 10. July 2013, 15:42
Bachchor Würzburg, Gerd Wachowski (Organ), Christian Kabitz / Jewels from a German Christmas
Used drive : PIONEER BD-RW BDR-206 Adapter: 0 ID: 2
Read mode : Secure
Utilize accurate stream : Yes
Defeat audio cache : Yes
Make use of C2 pointers : No
Read offset correction : 667
Overread into Lead-In and Lead-Out : No
Fill up missing offset samples with silence : Yes
Delete leading and trailing silent blocks : No
Null samples used in CRC calculations : Yes
Used interface : Native Win32 interface for Win NT & 2000
Used output format : User Defined Encoder
Selected bitrate : 1024 kBit/s
Quality : High
Add ID3 tag : Yes
Command line compressor : C:\Program Files\FLAC\flac.exe
Additional command line options : -5 -T "Artist=%artist%" -T "Title=%title%" -T "Album=%albumtitle%" -T "Date=%year%" -T "Tracknumber=%tracknr%" -T "Genre=%genre%" %source% -o %dest%
TOC of the extracted CD
Track | Start | Length | Start sector | End sector
---------------------------------------------------------
1 | 0:00.00 | 0:44.09 | 0 | 3308
2 | 0:44.09 | 3:49.74 | 3309 | 20557
3 | 4:34.08 | 2:50.03 | 20558 | 33310
4 | 7:24.11 | 2:04.41 | 33311 | 42651
5 | 9:28.52 | 1:55.72 | 42652 | 51348
6 | 11:24.49 | 2:50.35 | 51349 | 64133
7 | 14:15.09 | 2:13.06 | 64134 | 74114
8 | 16:28.15 | 2:00.70 | 74115 | 83184
9 | 18:29.10 | 1:09.10 | 83185 | 88369
10 | 19:38.20 | 0:57.60 | 88370 | 92704
11 | 20:36.05 | 0:45.01 | 92705 | 96080
12 | 21:21.06 | 0:50.31 | 96081 | 99861
13 | 22:11.37 | 1:10.15 | 99862 | 105126
14 | 23:21.52 | 1:20.46 | 105127 | 111172
15 | 24:42.23 | 1:59.27 | 111173 | 120124
16 | 26:41.50 | 2:40.26 | 120125 | 132150
17 | 29:22.01 | 2:16.16 | 132151 | 142366
18 | 31:38.17 | 2:26.38 | 142367 | 153354
19 | 34:04.55 | 1:41.41 | 153355 | 160970
20 | 35:46.21 | 4:54.55 | 160971 | 183075
21 | 40:41.01 | 3:55.21 | 183076 | 200721
22 | 44:36.22 | 2:47.44 | 200722 | 213290
23 | 47:23.66 | 2:20.42 | 213291 | 223832
24 | 49:44.33 | 1:50.74 | 223833 | 232156
25 | 51:35.32 | 5:25.43 | 232157 | 256574
26 | 57:01.00 | 2:20.49 | 256575 | 267123
27 | 59:21.49 | 2:28.60 | 267124 | 278283
28 | 61:50.34 | 1:25.47 | 278284 | 284705
Range status and errors
Selected range
Filename F:\=== VINYL RIPS ===\=== EAC===\X FRESH RIP\VA - Jewels from a German Christmas.wav
Peak level 98.4 %
Extraction speed 7.7 X
Range quality 99.9 %
Copy CRC 95026A14
Copy OK
No errors occurred
AccurateRip summary
Track 1 accurately ripped (confidence 1) [FF11EBA4] (AR v1)
Track 2 accurately ripped (confidence 1) [837415DF] (AR v1)
Track 3 accurately ripped (confidence 1) [1689CC10] (AR v1)
Track 4 accurately ripped (confidence 1) [CC59987E] (AR v1)
Track 5 accurately ripped (confidence 1) [252433F7] (AR v1)
Track 6 accurately ripped (confidence 1) [AF5A6506] (AR v1)
Track 7 accurately ripped (confidence 1) [C63ADE10] (AR v1)
Track 8 accurately ripped (confidence 1) [F52687DF] (AR v1)
Track 9 accurately ripped (confidence 1) [8A5B9C7D] (AR v1)
Track 10 accurately ripped (confidence 1) [1FCC1F96] (AR v1)
Track 11 accurately ripped (confidence 1) [53CEADE2] (AR v1)
Track 12 accurately ripped (confidence 1) [A8908E4A] (AR v1)
Track 13 accurately ripped (confidence 1) [DA12DE6D] (AR v1)
Track 14 accurately ripped (confidence 1) [96D6C9A3] (AR v1)
Track 15 accurately ripped (confidence 1) [3388983A] (AR v1)
Track 16 accurately ripped (confidence 1) [C9923420] (AR v1)
Track 17 accurately ripped (confidence 1) [E7DD7B04] (AR v1)
Track 18 accurately ripped (confidence 1) [1A586978] (AR v1)
Track 19 accurately ripped (confidence 1) [6A1F9182] (AR v1)
Track 20 accurately ripped (confidence 1) [8FB6D0C4] (AR v1)
Track 21 accurately ripped (confidence 1) [55FDD452] (AR v1)
Track 22 accurately ripped (confidence 1) [D2810526] (AR v1)
Track 23 accurately ripped (confidence 1) [5AC2ECA6] (AR v1)
Track 24 accurately ripped (confidence 1) [225FEC4C] (AR v1)
Track 25 accurately ripped (confidence 1) [8A97C97C] (AR v1)
Track 26 accurately ripped (confidence 1) [6AB95F19] (AR v1)
Track 27 accurately ripped (confidence 1) [E83AFA51] (AR v1)
Track 28 accurately ripped (confidence 1) [E376FA07] (AR v1)
All tracks accurately ripped
End of status report
---- CUETools DB Plugin V2.1.3
[CTDB TOCID: i9lVOL.mfc57Wh3S6bMY.3ztGBo-] disk not present in database, Submit result: i9lVOL.mfc57Wh3S6bMY.3ztGBo- has been uploaded
==== Log checksum EF38C3046D7B49544D177EC84B787774BB750E58A59927558F181CE7BF5B1E36 ====

Лог проверки качества

AUDIOCHECKER v2.0 beta (build 457) - by Dester - opdester@freemail.hu
~~~~~~~~~~~~~~~~~~~~~~~~~~~~~~~~~~
-=== DO NOT EDIT THIS FILE! ===-
Path: ...\Jewels from a German Christmas {1995}
1 -=- Jewels from a German Christmas.flac -=- CDDA (76%)
85795140
[teatrix.ru].t17977.torrent 
Торрент: Зарегистрирован [ 2016-03-17 00:46 ] · B0FAB00ACB25FEE5414C06AE84EF956A6B8579A8

Скачать .torrent

Скачать

18 KB

Статус: проверено
Скачан: 0 раз
Размер: 225 MB
terms.php



Быстрый ответ

Имя:

      
Для отправки сообщений необходимо включить JavaScript
Показать сообщения:    

Текущее время: 03-Дек 20:42

Часовой пояс: UTC + 3


Вы можете начинать темы
Вы можете отвечать на сообщения
Вы не можете редактировать свои сообщения
Вы не можете удалять свои сообщения
Вы не можете голосовать в опросах
Вы не можете прикреплять файлы к сообщениям
Вы можете скачивать файлы