(Medieval, Renaissance) Martin Hummel; Ensemble Dulce Melos, Marc Lewon - Das Lochamer Liederbuch / The Locham Song Book - 2008, APE (image+.cue) lossless


 

[Цитировать]

Das Lochamer Liederbuch
Жанр: Medieval, Renaissance
Страна-производитель диска: Germany
Год издания диска: 2008
Издатель (лейбл): Naxos
Номер по каталогу: 8.557803
Дата записи: 2005
Аудиокодек: APE
Тип рипа: image+.cue
Битрейт аудио: lossless
Продолжительность: 01:11:18
Источник: скачано с avaxhome
Наличие сканов в содержимом раздачи: да
Треклист:
01 Wach auf mein hort der leucht dort her 3:48
02 Der winter will hin weichen 1:59
03 Czart lip wie suß dein anfanck ist 1:02
04 Verlangen thut mich krencken 2:51
05 Mein hercz in hohen frewden ist 2:20
06 Möcht ich dein wegeren 2:51
07 Do mit ein gut Jare/Der Summer 2:15
08 Ach meyden dw vil sene pein 4:30
09 Mit ganczem willen wünsch ich dir 3:04
10 Mein trawt geselle vnd mein liebster hort 1:41
11 Anauois 1:50
12 Paumgartner 6:01
13 Mein frewd möcht sich wol meren 2:37
14 All mein gedencken dy ich hab 2:55
15 Ich sach ein pild In plaber wat 1:36
16 Ich spring an disem ringe 2:43
17 Es fur ein pawr gen holz 1:38
18 Mir ist mein pferd vernagellt gar 2:08
19 Ein vrouleeen edel von naturen 3:02
20 Wilhelmus Legrant 2:06
21 Ellend dw hast 2:47
22 Der wallt hat sich entlawbet 3:45
23 Ellend dw hast 1:43
24 Des klafferst neyden 4:02
25 Benedicite almechtiger got 2:49
26 Ich bin pey Ir 3:17
Исполнители:
Martin Hummel, Baritone
Ensemble Dulce Melos / Marc Lewon

Лог создания рипа

Exact Audio Copy V1.0 beta 3 from 29. August 2011
EAC extraction logfile from 29. April 2013, 22:04
Martin Hummel, Ensemble Dulce Melos, Marc Lewon / Das Lochamer Liederbuch
Used drive : PIONEER BD-RW BDR-206 Adapter: 0 ID: 2
Read mode : Secure
Utilize accurate stream : Yes
Defeat audio cache : Yes
Make use of C2 pointers : No
Read offset correction : 667
Overread into Lead-In and Lead-Out : No
Fill up missing offset samples with silence : Yes
Delete leading and trailing silent blocks : No
Null samples used in CRC calculations : Yes
Used interface : Native Win32 interface for Win NT & 2000
Used output format : User Defined Encoder
Selected bitrate : 1024 kBit/s
Quality : High
Add ID3 tag : Yes
Command line compressor : C:\Program Files\FLAC\flac.exe
Additional command line options : -5 -T "Artist=%artist%" -T "Title=%title%" -T "Album=%albumtitle%" -T "Date=%year%" -T "Tracknumber=%tracknr%" -T "Genre=%genre%" %source% -o %dest%
TOC of the extracted CD
Track | Start | Length | Start sector | End sector
---------------------------------------------------------
1 | 0:00.00 | 3:47.64 | 0 | 17088
2 | 3:47.64 | 1:58.54 | 17089 | 25992
3 | 5:46.43 | 1:02.31 | 25993 | 30673
4 | 6:48.74 | 2:50.65 | 30674 | 43488
5 | 9:39.64 | 2:19.60 | 43489 | 53973
6 | 11:59.49 | 2:50.49 | 53974 | 66772
7 | 14:50.23 | 2:14.60 | 66773 | 76882
8 | 17:05.08 | 4:29.71 | 76883 | 97128
9 | 21:35.04 | 3:03.59 | 97129 | 110912
10 | 24:38.63 | 1:41.34 | 110913 | 118521
11 | 26:20.22 | 1:50.37 | 118522 | 126808
12 | 28:10.59 | 6:00.38 | 126809 | 153846
13 | 34:11.22 | 2:37.01 | 153847 | 165622
14 | 36:48.23 | 2:54.68 | 165623 | 178740
15 | 39:43.16 | 1:36.21 | 178741 | 185961
16 | 41:19.37 | 2:42.61 | 185962 | 198172
17 | 44:02.23 | 1:37.53 | 198173 | 205500
18 | 45:40.01 | 2:07.51 | 205501 | 215076
19 | 47:47.52 | 3:01.66 | 215077 | 228717
20 | 50:49.43 | 2:06.11 | 228718 | 238178
21 | 52:55.54 | 2:46.41 | 238179 | 250669
22 | 55:42.20 | 3:44.65 | 250670 | 267534
23 | 59:27.10 | 1:43.19 | 267535 | 275278
24 | 61:10.29 | 4:01.69 | 275279 | 293422
25 | 65:12.23 | 2:49.09 | 293423 | 306106
26 | 68:01.32 | 3:16.43 | 306107 | 320849
Range status and errors
Selected range
Filename F:\=== VINYL RIPS ===\=== EAC===\X FRESH RIP\Martin Hummel, Ensemble Dulce Melos, Marc Lewon - Das Lochamer Liederbuch.wav
Peak level 97.8 %
Extraction speed 8.1 X
Range quality 100.0 %
Copy CRC E61BB080
Copy OK
No errors occurred
AccurateRip summary
Track 1 accurately ripped (confidence 2) [790CE2CF] (AR v1)
Track 2 accurately ripped (confidence 2) [52BA7490] (AR v1)
Track 3 accurately ripped (confidence 2) [BC1077EF] (AR v1)
Track 4 accurately ripped (confidence 2) [300857A6] (AR v1)
Track 5 accurately ripped (confidence 2) [3DEFC1AC] (AR v1)
Track 6 accurately ripped (confidence 2) [BEA7205E] (AR v1)
Track 7 accurately ripped (confidence 2) [E52B6D77] (AR v1)
Track 8 accurately ripped (confidence 2) [84D60CBD] (AR v1)
Track 9 accurately ripped (confidence 2) [CF999580] (AR v1)
Track 10 accurately ripped (confidence 2) [AC571485] (AR v1)
Track 11 accurately ripped (confidence 2) [32098B8C] (AR v1)
Track 12 accurately ripped (confidence 2) [50D41A48] (AR v1)
Track 13 accurately ripped (confidence 2) [699C0F9F] (AR v1)
Track 14 accurately ripped (confidence 2) [4258D63C] (AR v1)
Track 15 accurately ripped (confidence 2) [92BE01AE] (AR v1)
Track 16 accurately ripped (confidence 2) [12EDF295] (AR v1)
Track 17 accurately ripped (confidence 2) [03258AC0] (AR v1)
Track 18 accurately ripped (confidence 2) [36138F65] (AR v1)
Track 19 accurately ripped (confidence 2) [6E6C8AE7] (AR v1)
Track 20 accurately ripped (confidence 2) [30949AC4] (AR v1)
Track 21 accurately ripped (confidence 2) [7893EC20] (AR v1)
Track 22 accurately ripped (confidence 2) [A5F1B5F0] (AR v1)
Track 23 accurately ripped (confidence 2) [A3133E04] (AR v1)
Track 24 accurately ripped (confidence 2) [DC62E945] (AR v1)
Track 25 accurately ripped (confidence 2) [4BD5782F] (AR v1)
Track 26 accurately ripped (confidence 2) [02D16C35] (AR v1)
All tracks accurately ripped
End of status report
---- CUETools DB Plugin V2.1.3
[CTDB TOCID: f9TsFRSB5v0juIeYKCUfqF4iykU-] found, Submit result: f9TsFRSB5v0juIeYKCUfqF4iykU- has been confirmed
[1baf32e8] (1/1) Accurately ripped
==== Log checksum B34B07609E023E10FEEBB2C64172FA5CF6AEDC05345C0477E06C6D8267C5D6CB ====

Лог проверки качества

AUDIOCHECKER v2.0 beta (build 457) - by Dester - opdester@freemail.hu
~~~~~~~~~~~~~~~~~~~~~~~~~~~~~~~~~~
-=== DO NOT EDIT THIS FILE! ===-
Path: ...\Martin Hummel, Ensemble Dulce Melos - Das Lochamer Liederbuch {2008}
1 -=- Martin Hummel, Ensemble Dulce Melos, Marc Lewon - Das Lochamer Liederbuch.wav -=- CDDA (100%)
127416692



Показать сообщения:    

Текущее время: 10-Дек 19:41

Часовой пояс: UTC + 3


Вы не можете начинать темы
Вы не можете отвечать на сообщения
Вы не можете редактировать свои сообщения
Вы не можете удалять свои сообщения
Вы не можете голосовать в опросах
Вы не можете прикреплять файлы к сообщениям
Вы не можете скачивать файлы