(Classical / Cello Concerto) Robert Schumann - Konzert fur Violoncello • Adagio und Allegro • Fantasiestucke, Op. 73 • Funf Stucke im Volkston (Heinrich Schiff, Gerhard Oppitz, Bernard Haitink, 1988/1991) - 1993, FLAC (tracks+.cue) lossless


Статистика раздачи [Обновить пиров]
Размер:  241 MB   |    Зарегистрирован:  8 месяцев 22 дня   |    Скачан:  0 раз

Полного источника не было: Никогда

 
   
 
 
 

[Цитировать]

Robert Schumann | Роберт Шуманн
(1810–1856)



Konzert für Violoncello und Orchester | Adagio und Allegro
Fantasiestücke, Op. 73 | Fünf Stücke im Volkston

Концерт для виолончели с оркестром | Adagio и Allegro
Пьесы-фантазии, Op. 73 | Пять пьес в народном стиле



Heinrich Schiff celloGerhard Oppitz piano
Berliner Philharmoniker
Bernard Haitink conductor


Жанр: Classical / Cello
Даты записи: 1988, 1991
Формат записи: DDD, Stereo
Год издания диска: 1993
Издатель (лейбл): Philips
Номер по каталогу: 422 414-2
Аудиокодек: FLAC
Тип рипа: tracks+.cue
Битрейт аудио: lossless
Продолжительность: 1:00:03
Наличие сканов в содержимом раздачи: только обложка
Источник: What.CD
Релизёр: smacito


Tracklist / Треклист
Konzert für Violoncello und Orchester a-moll, Op. 129 - 22:23
I. Nicht zu schnell - 10:55
  • II. Langsam - 4:03
  • III. Sehr lebhaft - 7:25
    Heinrich Schiff (cello), Berliner Philharmoniker. Bernard Haitink, conductor
    Recorded: XII.1988

    Adagio und Allegro, Op. 70 - 9:39
    I. Langsam, mit innigem Ausdruck - 4:42
  • II. Rasch und feurig - 4:57
    Fantasiestücke, Op. 73 - 12:17
    I. Zart und mit Ausdruck - 4:10
  • II. Lebhaft, leicht - 3:46
  • III. Rasch und mit Feuer - 4:22
    Fünf Stücke im Volkston, Op. 102 - 15:44
    I. «Vanitas vanitatum». Mit Humor - 2:58
  • II. Langsam - 3:33
  • III. Nicht schnell, mit viel Ton zu spielen - 4:37
  • IV. Nicht zu rasch - 1:54
  • V. Stark und markiert - 2:42
    Heinrich Schiff (cello), Gerhard Oppitz (piano)
    Recorded: I.1991


    -

    EAC log / Отчёт EAC

    Exact Audio Copy V1.0 beta 3 from 29. August 2011
    EAC extraction logfile from 6. September 2013, 10:38
    Schiff, Haitink, Berliner Philharmoniker / Cello Concerto
    Used drive : PLEXTOR CD-R PX-W2410A Adapter: 2 ID: 0
    Read mode : Secure
    Utilize accurate stream : Yes
    Defeat audio cache : Yes
    Make use of C2 pointers : No
    Read offset correction : 98
    Overread into Lead-In and Lead-Out : No
    Fill up missing offset samples with silence : Yes
    Delete leading and trailing silent blocks : No
    Null samples used in CRC calculations : Yes
    Used interface : Native Win32 interface for Win NT & 2000
    Gap handling : Appended to previous track
    Used output format : User Defined Encoder
    Selected bitrate : 1024 kBit/s
    Quality : High
    Add ID3 tag : No
    Command line compressor : C:\Program Files (x86)\Exact Audio Copy\Flac\flac.exe
    Additional command line options : -8 -V -T "ARTIST=%artist%" -T "TITLE=%title%" -T "ALBUM=%albumtitle%" -T "DATE=%year%" -T "TRACKNUMBER=%tracknr%" -T "GENRE=%genre%" -T "PERFORMER=%albuminterpret%" -T "COMPOSER=%composer%" %haslyrics%--tag-from-file=LYRICS="%lyricsfile%"%haslyrics% -T "ALBUMARTIST=%albumartist%" -T "DISCNUMBER=%cdnumber%" -T "TOTALDISCS=%totalcds%" -T "TOTALTRACKS=%numtracks%" -T "COMMENT=%comment%" %source% -o %dest%
    TOC of the extracted CD
    Track | Start | Length | Start sector | End sector
    ---------------------------------------------------------
    1 | 0:00.33 | 10:54.62 | 33 | 49144
    2 | 10:55.20 | 4:03.28 | 49145 | 67397
    3 | 14:58.48 | 7:25.07 | 67398 | 100779
    4 | 22:23.55 | 4:41.53 | 100780 | 121907
    5 | 27:05.33 | 4:56.62 | 121908 | 144169
    6 | 32:02.20 | 4:09.50 | 144170 | 162894
    7 | 36:11.70 | 3:45.38 | 162895 | 179807
    8 | 39:57.33 | 4:22.00 | 179808 | 199457
    9 | 44:19.33 | 2:58.25 | 199458 | 212832
    10 | 47:17.58 | 3:33.25 | 212833 | 228832
    11 | 50:51.08 | 4:36.50 | 228833 | 249582
    12 | 55:27.58 | 1:53.50 | 249583 | 258107
    13 | 57:21.33 | 2:42.00 | 258108 | 270257
    Track 1
    Filename D:\My Documents\My Music\Heinrich Schiff - 1993 - Schumann, Cello Concerto [FLAC]\01 - Cello Concerto. 1. Nicht zu schnell.wav
    Pre-gap length 0:00:02.44
    Peak level 68.9 %
    Extraction speed 9.2 X
    Track quality 100.0 %
    Test CRC B19C5ACE
    Copy CRC B19C5ACE
    Accurately ripped (confidence 11) [A9FF1E3E] (AR v2)
    Copy OK
    Track 2
    Filename D:\My Documents\My Music\Heinrich Schiff - 1993 - Schumann, Cello Concerto [FLAC]\02 - Cello Concerto. 2. Langsam.wav
    Peak level 40.5 %
    Extraction speed 8.5 X
    Track quality 99.9 %
    Test CRC 4F696F52
    Copy CRC 4F696F52
    Accurately ripped (confidence 11) [6924E628] (AR v2)
    Copy OK
    Track 3
    Filename D:\My Documents\My Music\Heinrich Schiff - 1993 - Schumann, Cello Concerto [FLAC]\03 - Cello Concerto. 3. Sehr lebhaft.wav
    Peak level 82.8 %
    Extraction speed 11.3 X
    Track quality 100.0 %
    Test CRC 12DDCEC1
    Copy CRC 12DDCEC1
    Accurately ripped (confidence 11) [8016E8FE] (AR v2)
    Copy OK
    Track 4
    Filename D:\My Documents\My Music\Heinrich Schiff - 1993 - Schumann, Cello Concerto [FLAC]\04 - Adagio and Allegro for piano and cello. 1. Langsam, mit innigem Ausdruck.wav
    Pre-gap length 0:00:12.29
    Peak level 56.9 %
    Extraction speed 10.5 X
    Track quality 100.0 %
    Test CRC D9767CA9
    Copy CRC D9767CA9
    Accurately ripped (confidence 10) [0E8B7686] (AR v2)
    Copy OK
    Track 5
    Filename D:\My Documents\My Music\Heinrich Schiff - 1993 - Schumann, Cello Concerto [FLAC]\05 - Adagio and Allegro for piano and cello. 2. Rasch und feurig.wav
    Peak level 75.5 %
    Extraction speed 9.5 X
    Track quality 99.9 %
    Test CRC 73826E22
    Copy CRC 73826E22
    Accurately ripped (confidence 10) [33B47E32] (AR v2)
    Copy OK
    Track 6
    Filename D:\My Documents\My Music\Heinrich Schiff - 1993 - Schumann, Cello Concerto [FLAC]\06 - Fantasiestücke for cello and piano. 1. Zart und mit Ausdruck.wav
    Pre-gap length 0:00:08.49
    Peak level 46.6 %
    Extraction speed 9.4 X
    Track quality 99.9 %
    Test CRC 3861DE58
    Copy CRC 3861DE58
    Accurately ripped (confidence 10) [FF05B441] (AR v2)
    Copy OK
    Track 7
    Filename D:\My Documents\My Music\Heinrich Schiff - 1993 - Schumann, Cello Concerto [FLAC]\07 - Fantasiestücke for cello and piano. 2. Lebhaft, leicht.wav
    Pre-gap length 0:00:03.00
    Peak level 53.5 %
    Extraction speed 11.4 X
    Track quality 100.0 %
    Test CRC 0C7244FD
    Copy CRC 0C7244FD
    Accurately ripped (confidence 10) [C59AD253] (AR v2)
    Copy OK
    Track 8
    Filename D:\My Documents\My Music\Heinrich Schiff - 1993 - Schumann, Cello Concerto [FLAC]\08 - Fantasiestücke for cello and piano. 3. Rasch und mit Feuer.wav
    Pre-gap length 0:00:01.00
    Peak level 86.5 %
    Extraction speed 8.3 X
    Track quality 100.0 %
    Test CRC F5098AA6
    Copy CRC F5098AA6
    Accurately ripped (confidence 10) [050D8959] (AR v2)
    Copy OK
    Track 9
    Filename D:\My Documents\My Music\Heinrich Schiff - 1993 - Schumann, Cello Concerto [FLAC]\09 - 5 Stücke im Volkston for cello and piano. 1. «Vanitas vanitatum» mit Humor.wav
    Pre-gap length 0:00:09.00
    Peak level 76.8 %
    Extraction speed 10.6 X
    Track quality 100.0 %
    Test CRC 7893FB3B
    Copy CRC 7893FB3B
    Accurately ripped (confidence 10) [C86E7E1D] (AR v2)
    Copy OK
    Track 10
    Filename D:\My Documents\My Music\Heinrich Schiff - 1993 - Schumann, Cello Concerto [FLAC]\10 - 5 Stücke im Volkston for cello and piano. 2. Langsam.wav
    Pre-gap length 0:00:04.33
    Peak level 29.3 %
    Extraction speed 11.1 X
    Track quality 100.0 %
    Test CRC BF104BF8
    Copy CRC BF104BF8
    Accurately ripped (confidence 10) [AE67A424] (AR v2)
    Copy OK
    Track 11
    Filename D:\My Documents\My Music\Heinrich Schiff - 1993 - Schumann, Cello Concerto [FLAC]\11 - 5 Stücke im Volkston for cello and piano. 3. Nicht schnell, mit viel Ton zu spielen.wav
    Pre-gap length 0:00:03.66
    Peak level 56.8 %
    Extraction speed 11.6 X
    Track quality 100.0 %
    Test CRC 4CBCB226
    Copy CRC 4CBCB226
    Accurately ripped (confidence 10) [10CDF20B] (AR v2)
    Copy OK
    Track 12
    Filename D:\My Documents\My Music\Heinrich Schiff - 1993 - Schumann, Cello Concerto [FLAC]\12 - 5 Stücke im Volkston for cello and piano. 4. Nicht zu rasch.wav
    Pre-gap length 0:00:03.33
    Peak level 75.0 %
    Extraction speed 10.9 X
    Track quality 100.0 %
    Test CRC 8E6CE27B
    Copy CRC 8E6CE27B
    Accurately ripped (confidence 10) [9D967CD5] (AR v2)
    Copy OK
    Track 13
    Filename D:\My Documents\My Music\Heinrich Schiff - 1993 - Schumann, Cello Concerto [FLAC]\13 - 5 Stücke im Volkston for cello and piano. 5. Stark und markiert.wav
    Pre-gap length 0:00:03.00
    Peak level 90.4 %
    Extraction speed 7.8 X
    Track quality 99.9 %
    Test CRC 8193AA60
    Copy CRC 8193AA60
    Accurately ripped (confidence 10) [18990BF8] (AR v2)
    Copy OK
    All tracks accurately ripped
    No errors occurred
    End of status report
    ==== Log checksum F816DD2B638A673D5FD7782DAB412C6195C5E921C435C1286ED7B81A54FD2C3F ====

    auCDtect Task Manager log / Отчёт auCDtect Task Manager

    -----------------------
    DON'T MODIFY THIS FILE
    -----------------------
    PERFORMER: auCDtect Task Manager, ver. 1.5.1RC3 build 1.5.1.4
    Copyright (c) 2008-2010 y-soft. All rights reserved
    ANALYZER: auCDtect: CD records authenticity detector, version 0.8.2
    Copyright (c) 2004 Oleg Berngardt. All rights reserved.
    Copyright (c) 2004 Alexander Djourik. All rights reserved.
    FILE: 08 - Fantasiestuecke, Op. 73 - III. Rasch und mit Feuer.flac
    Size: 20444176 Hash: 4E1659ED721A159F6F1EFF48A8FF7C08 Accuracy: -m0
    Conclusion: CDDA 100%
    Signature: 71A9C222180A7AFCF2786EA92A4E27BA4AF3C875
    FILE: 07 - Fantasiestuecke, Op. 73 - II. Lebhaft, leicht.flac
    Size: 14914359 Hash: 8A25DB3DC3F1C9A9CFE6EA36AE3105C5 Accuracy: -m0
    Conclusion: CDDA 100%
    Signature: 09288F03BF9764F5ADB3813403B8307E13E33EF1
    FILE: 06 - Fantasiestuecke, Op. 73 - I. Zart und mit Ausdruck.flac
    Size: 14661666 Hash: A8527B4CFF8A45F95E84F305EACAC065 Accuracy: -m0
    Conclusion: CDDA 100%
    Signature: B1AF8B8CC503F77999A8EC9237BC5ECA3DF61F62
    FILE: 05 - Adagio und Allegro, Op. 70 - II. Rasch und feurig.flac
    Size: 22984667 Hash: 8E886F7060BD31843404F310B0117327 Accuracy: -m0
    Conclusion: CDDA 100%
    Signature: FB5C47657BF5A3B9B50099C3F2181817C1BE4183
    FILE: 04 - Adagio und Allegro, Op. 70 - I. Langsam, mit innigem Ausdruck.flac
    Size: 16051795 Hash: C2A16C1892CC01F08873F2A9DBE1479C Accuracy: -m0
    Conclusion: CDDA 94%
    Signature: 65D23CF5EC64B50CC275F4EB23CE1BC0F2402A63
    FILE: 03 - Konzert fuer Violoncello und Orchester a-moll, Op. 129 - III. Sehr lebhaft.flac
    Size: 34435520 Hash: 8C352D430C248C01B54D8E8FB0B420D0 Accuracy: -m0
    Conclusion: CDDA 100%
    Signature: 739398BC7DED1B1FBBE563B03B802C65EDCE1DDE
    FILE: 02 - Konzert fuer Violoncello und Orchester a-moll, Op. 129 - II. Langsam.flac
    Size: 15709117 Hash: 0364167CA25AA42AFDBF22547287F0F3 Accuracy: -m0
    Conclusion: CDDA 100%
    Signature: 2C4E284D3D497ED347B30AD9348C36CD91221FE5
    FILE: 01 - Konzert fuer Violoncello und Orchester a-moll, Op. 129 - I. Nicht zu schnell.flac
    Size: 49722822 Hash: 48EB8B15B141FC81301C25D118E0C5FA Accuracy: -m0
    Conclusion: CDDA 100%
    Signature: 8C89FBED690FFCAE173B8EF23CE2CD6269A0B284
    FILE: 13 - Fuenf Stuecke im Volkston, Op. 102 - V. Stark und markiert.flac
    Size: 12229183 Hash: 4A0A16E02A04CA8CE242C5AAC54C4EDC Accuracy: -m0
    Conclusion: CDDA 99%
    Signature: E29B38612AD1F6A93FBEB8F156FFA25640BA8974
    FILE: 12 - Fuenf Stuecke im Volkston, Op. 102 - IV. Nicht zu rasch.flac
    Size: 8740959 Hash: 692EFC148C9C048CA9644354B4C481F9 Accuracy: -m0
    Conclusion: CDDA 100%
    Signature: B057399ED26B94384F2E421CF826F90700EBF736
    FILE: 11 - Fuenf Stuecke im Volkston, Op. 102 - III. Nicht schnell, mit viel Ton zu spielen.flac
    Size: 17532698 Hash: 63D8E028592559B233D74CD46AC88CF6 Accuracy: -m0
    Conclusion: CDDA 100%
    Signature: CF6526DF305FB0289274BD37B9944477145E5506
    FILE: 10 - Fuenf Stuecke im Volkston, Op. 102 - II. Langsam.flac
    Size: 12048090 Hash: D478A1FA02887FD68A5773FFA3B18625 Accuracy: -m0
    Conclusion: CDDA 100%
    Signature: 20092A53766BEAEB13856214756DDD0A4EC1B97F
    FILE: 09 - Fuenf Stuecke im Volkston, Op. 102 - I. ''Vanitas vanitatum''. Mit Humor.flac
    Size: 12536903 Hash: 7E3E0C79166EC9B8D6ED472B82833DCB Accuracy: -m0
    Conclusion: CDDA 100%
    Signature: 31626FC83C3061D75E66F00817AA088A04011B31

    CUETools log / Отчёт CUETools

    [CUETools log; Date: 16.12.2013 21:56:33; Version: 2.1.4]
    Pregap length 00:00:33.
    [AccurateRip ID: 0022425a-01457e61-bd0e130d] found.
    Track [ CRC | V2 ] Status
    01 [8e5e47bc|a9ff1e3e] (09+11/20) Accurately ripped
    02 [e5987819|6924e628] (09+11/20) Accurately ripped
    03 [783d45d9|8016e8fe] (09+11/20) Accurately ripped
    04 [77d6ae04|0e8b7686] (09+10/19) Accurately ripped
    05 [621aaa45|33b47e32] (09+10/19) Accurately ripped
    06 [7bb491c0|ff05b441] (09+10/19) Accurately ripped
    07 [a061ce33|c59ad253] (09+10/19) Accurately ripped
    08 [8963f1be|050d8959] (09+10/19) Accurately ripped
    09 [946ce65f|c86e7e1d] (09+10/19) Accurately ripped
    10 [f00b49a7|ae67a424] (09+10/19) Accurately ripped
    11 [a8cae929|10cdf20b] (09+10/19) Accurately ripped
    12 [8d853b2a|9d967cd5] (09+10/19) Accurately ripped
    13 [76f8a5f3|18990bf8] (09+10/19) Accurately ripped
    Track Peak [ CRC32 ] [W/O NULL] [ LOG ]
    -- 90,4 [20B06910] [500D539D]
    01 68,9 [B19C5ACE] [4B4701C2] CRC32
    02 40,5 [4F696F52] [42E08673] CRC32
    03 82,8 [12DDCEC1] [49787343] CRC32
    04 56,9 [D9767CA9] [1B8CD4CB] CRC32
    05 75,5 [73826E22] [47BB9427] CRC32
    06 46,6 [3861DE58] [D2EF2CAD] CRC32
    07 53,5 [0C7244FD] [50C75809] CRC32
    08 86,5 [F5098AA6] [D809F5A0] CRC32
    09 76,8 [7893FB3B] [AB7FEF61] CRC32
    10 29,3 [BF104BF8] [908FE892] CRC32
    11 56,8 [4CBCB226] [325A6555] CRC32
    12 75,0 [8E6CE27B] [68A88BD7] CRC32
    13 90,4 [8193AA60] [53CA184B] CRC32

    CUE sheet

    TITLE "Robert Schumann: Violoncellokonzert • Stücke für Violoncello und Klavier"
    PERFORMER "Heinrich Schiff"
    REM GENRE Classical
    REM DISCID BD0E130D
    REM COMMENT "ExactAudioCopy v1.0b3"
    CATALOG 0028942241428
    FILE "01 - Konzert fuer Violoncello und Orchester a-moll, Op. 129 - I. Nicht zu schnell.flac" WAVE
    TRACK 01 AUDIO
    TITLE "Konzert für Violoncello und Orchester a-moll, Op. 129: I. Nicht zu schnell"
    PERFORMER "Heinrich Schiff (cello), Berliner Philharmoniker. Bernard Haitink, conductor"
    REM DATE 1988
    PREGAP 00:00:33
    INDEX 01 00:00:00
    FILE "02 - Konzert fuer Violoncello und Orchester a-moll, Op. 129 - II. Langsam.flac" WAVE
    TRACK 02 AUDIO
    TITLE "Konzert für Violoncello und Orchester a-moll, Op. 129: II. Langsam"
    PERFORMER "Heinrich Schiff (cello), Berliner Philharmoniker. Bernard Haitink, conductor"
    REM DATE 1988
    INDEX 01 00:00:00
    FILE "03 - Konzert fuer Violoncello und Orchester a-moll, Op. 129 - III. Sehr lebhaft.flac" WAVE
    TRACK 03 AUDIO
    TITLE "Konzert für Violoncello und Orchester a-moll, Op. 129: III. Sehr lebhaft"
    PERFORMER "Heinrich Schiff (cello), Berliner Philharmoniker. Bernard Haitink, conductor"
    REM DATE 1988
    INDEX 01 00:00:00
    TRACK 04 AUDIO
    TITLE "Adagio und Allegro, Op. 70: I. Langsam, mit innigem Ausdruck"
    PERFORMER "Heinrich Schiff (cello), Gerhard Oppitz (piano)"
    REM DATE 1991
    INDEX 00 07:12:60
    FILE "04 - Adagio und Allegro, Op. 70 - I. Langsam, mit innigem Ausdruck.flac" WAVE
    INDEX 01 00:00:00
    FILE "05 - Adagio und Allegro, Op. 70 - II. Rasch und feurig.flac" WAVE
    TRACK 05 AUDIO
    TITLE "Adagio und Allegro, Op. 70: II. Rasch und feurig"
    PERFORMER "Heinrich Schiff (cello), Gerhard Oppitz (piano)"
    REM DATE 1991
    INDEX 01 00:00:00
    TRACK 06 AUDIO
    TITLE "Fantasiestücke, Op. 73: I. Zart und mit Ausdruck"
    PERFORMER "Heinrich Schiff (cello), Gerhard Oppitz (piano)"
    REM DATE 1991
    INDEX 00 04:48:25
    FILE "06 - Fantasiestuecke, Op. 73 - I. Zart und mit Ausdruck.flac" WAVE
    INDEX 01 00:00:00
    TRACK 07 AUDIO
    TITLE "Fantasiestücke, Op. 73: II. Lebhaft, leicht"
    PERFORMER "Heinrich Schiff (cello), Gerhard Oppitz (piano)"
    REM DATE 1991
    INDEX 00 04:06:50
    FILE "07 - Fantasiestuecke, Op. 73 - II. Lebhaft, leicht.flac" WAVE
    INDEX 01 00:00:00
    TRACK 08 AUDIO
    TITLE "Fantasiestücke, Op. 73: III. Rasch und mit Feuer"
    PERFORMER "Heinrich Schiff (cello), Gerhard Oppitz (piano)"
    REM DATE 1991
    INDEX 00 03:44:38
    FILE "08 - Fantasiestuecke, Op. 73 - III. Rasch und mit Feuer.flac" WAVE
    INDEX 01 00:00:00
    TRACK 09 AUDIO
    TITLE "Fünf Stücke im Volkston, Op. 102: I. «Vanitas vanitatum». Mit Humor"
    PERFORMER "Heinrich Schiff (cello), Gerhard Oppitz (piano)"
    REM DATE 1991
    INDEX 00 04:13:00
    FILE "09 - Fuenf Stuecke im Volkston, Op. 102 - I. ''Vanitas vanitatum''. Mit Humor.flac" WAVE
    INDEX 01 00:00:00
    TRACK 10 AUDIO
    TITLE "Fünf Stücke im Volkston, Op. 102: II. Langsam"
    PERFORMER "Heinrich Schiff (cello), Gerhard Oppitz (piano)"
    REM DATE 1991
    INDEX 00 02:54:00
    FILE "10 - Fuenf Stuecke im Volkston, Op. 102 - II. Langsam.flac" WAVE
    INDEX 01 00:00:00
    TRACK 11 AUDIO
    TITLE "Fünf Stücke im Volkston, Op. 102: III. Nicht schnell, mit viel Ton zu spielen"
    PERFORMER "Heinrich Schiff (cello), Gerhard Oppitz (piano)"
    REM DATE 1991
    INDEX 00 03:29:50
    FILE "11 - Fuenf Stuecke im Volkston, Op. 102 - III. Nicht schnell, mit viel Ton zu spielen.flac" WAVE
    INDEX 01 00:00:00
    TRACK 12 AUDIO
    TITLE "Fünf Stücke im Volkston, Op. 102: IV. Nicht zu rasch"
    PERFORMER "Heinrich Schiff (cello), Gerhard Oppitz (piano)"
    REM DATE 1991
    INDEX 00 04:33:25
    FILE "12 - Fuenf Stuecke im Volkston, Op. 102 - IV. Nicht zu rasch.flac" WAVE
    INDEX 01 00:00:00
    TRACK 13 AUDIO
    TITLE "Fünf Stücke im Volkston, Op. 102: V. Stark und markiert"
    PERFORMER "Heinrich Schiff (cello), Gerhard Oppitz (piano)"
    REM DATE 1991
    INDEX 00 01:50:50
    FILE "13 - Fuenf Stuecke im Volkston, Op. 102 - V. Stark und markiert.flac" WAVE
    INDEX 01 00:00:00
    -
    Robert Schumann — каталог раздач на rutracker.orgВсе мои раздачи / All my releases
    [teatrix.ru].t17979.torrent 
    Торрент: Зарегистрирован [ 2016-03-17 00:46 ] · 7F596A8010B8114D23388F22C7DC6BBEB5F8EF44

    Скачать .torrent

    Скачать

    21 KB

    Статус: проверено
    Скачан: 0 раз
    Размер: 241 MB
    terms.php



  • Быстрый ответ

    Имя:

          
    Для отправки сообщений необходимо включить JavaScript
    Показать сообщения:    

    Текущее время: 08-Дек 23:12

    Часовой пояс: UTC + 3


    Вы можете начинать темы
    Вы можете отвечать на сообщения
    Вы не можете редактировать свои сообщения
    Вы не можете удалять свои сообщения
    Вы не можете голосовать в опросах
    Вы не можете прикреплять файлы к сообщениям
    Вы можете скачивать файлы