(Classical Crossover) Nana Mouskouri - Classic - 1999, FLAC (tracks+.cue) lossless


 

[Цитировать]

NANA MOUSKOURI - CLASSIC
Жанр: Classical Crossover
Страна-производитель диска: France
Год издания диска: 1999
Издатель (лейбл): Mercury / Universal
Номер по каталогу: 546 893-2
Страна: Greece
Аудиокодек: FLAC
Тип рипа: tracks+.cue
Битрейт аудио: lossless
Продолжительность: 01:01:54
Источник: What.CD
Наличие сканов в содержимом раздачи: да
Треклист:
01. L'Amour Gipsy (Verdi)
02. To Foss Afto (Tchaikovski)
03. Sanctus (Ramirez)
04. Blow The Wind Southerly (Trad.)
05. Panis Angelicus (Franck)
06. Schlafe Mein Prinzchen (Flies)
07. Clair De Lune (Beethoven)
08. Barcarolle (Offenbach)
09. Ti Ipermako (Trad.)
10. Hymne À La Joie (Beethoven)
11. Où Va La Jeunesse (Brahms)
12. Kyrie (Ramirez)
13. Kamia Fora (Bizet)
14. Les Amours D'Automne (Stolz)
15. La Fiancée D'Ecosse (Donizetti)
16. Ave Maria (Gounod-Bach)
17. Chœur De Murmures (Puccini)
18. La Vergine Degli Angeli (Verdi)

EAC

Exact Audio Copy V0.99 prebeta 4 from 23. January 2008
EAC extraction logfile from 1. January 2010, 20:06
Nana Mouskouri / Classic
Used drive : MATSHITADVD-RAM UJ870BJ Adapter: 0 ID: 1
Read mode : Secure
Utilize accurate stream : Yes
Defeat audio cache : Yes
Make use of C2 pointers : No
Read offset correction : 102
Overread into Lead-In and Lead-Out : No
Fill up missing offset samples with silence : Yes
Delete leading and trailing silent blocks : No
Null samples used in CRC calculations : Yes
Used interface : Native Win32 interface for Win NT & 2000
Gap handling : Appended to previous track
Used output format : User Defined Encoder
Selected bitrate : 768 kBit/s
Quality : High
Add ID3 tag : No
Command line compressor : C:\Program Files (x86)\Exact Audio Copy\FLAC\FLAC.EXE
Additional command line options : -8 -V -T "ARTIST=%a" -T "TITLE=%t" -T "ALBUM=%g" -T "DATE=%y" -T "TRACKNUMBER=%n" -T "TOTALTRACKS=%x" -T "GENRE=%m" -T "ALBUM ARTIST=%v" -T "ALBUMARTIST=%v" -T "COMMENT=EAC V0.99 prebeta 5, Secure Mode, Test & Copy, Accurat
TOC of the extracted CD
Track | Start | Length | Start sector | End sector
---------------------------------------------------------
1 | 0:00.00 | 3:04.72 | 0 | 13871
2 | 3:04.72 | 4:10.08 | 13872 | 32629
3 | 7:15.05 | 3:29.07 | 32630 | 48311
4 | 10:44.12 | 3:06.58 | 48312 | 62319
5 | 13:50.70 | 3:42.30 | 62320 | 78999
6 | 17:33.25 | 3:17.10 | 79000 | 93784
7 | 20:50.35 | 3:56.35 | 93785 | 111519
8 | 24:46.70 | 3:26.27 | 111520 | 126996
9 | 28:13.22 | 4:14.43 | 126997 | 146089
10 | 32:27.65 | 4:10.07 | 146090 | 164846
11 | 36:37.72 | 2:43.55 | 164847 | 177126
12 | 39:21.52 | 3:05.13 | 177127 | 191014
13 | 42:26.65 | 3:09.27 | 191015 | 205216
14 | 45:36.17 | 3:04.40 | 205217 | 219056
15 | 48:40.57 | 3:57.73 | 219057 | 236904
16 | 52:38.55 | 2:54.52 | 236905 | 250006
17 | 55:33.32 | 2:39.35 | 250007 | 261966
18 | 58:12.67 | 3:42.05 | 261967 | 278621
Track 1
Filename H:\FLAC Albums\Nana Mouskouri - Classic () [FLAC]\01 - L'Amour Gipsy.wav
Pre-gap length 0:00:02.00
Peak level 100.0 %
Track quality 99.9 %
Test CRC B3909C93
Copy CRC B3909C93
Track not present in AccurateRip database
Copy OK
Track 2
Filename H:\FLAC Albums\Nana Mouskouri - Classic () [FLAC]\02 - To Foss Afto.wav
Pre-gap length 0:00:19.76
Peak level 73.7 %
Track quality 100.0 %
Test CRC 0E6A67E3
Copy CRC 0E6A67E3
Track not present in AccurateRip database
Copy OK
Track 3
Filename H:\FLAC Albums\Nana Mouskouri - Classic () [FLAC]\03 - Sanctus.wav
Pre-gap length 0:00:03.80
Peak level 100.0 %
Track quality 100.0 %
Test CRC 053ECE12
Copy CRC 053ECE12
Track not present in AccurateRip database
Copy OK
Track 4
Filename H:\FLAC Albums\Nana Mouskouri - Classic () [FLAC]\04 - Blow The Wind Southerly.wav
Pre-gap length 0:00:03.02
Peak level 52.4 %
Track quality 100.0 %
Test CRC 3252ABCC
Copy CRC 3252ABCC
Track not present in AccurateRip database
Copy OK
Track 5
Filename H:\FLAC Albums\Nana Mouskouri - Classic () [FLAC]\05 - Panis Angelicus.wav
Pre-gap length 0:00:19.82
Peak level 100.0 %
Track quality 100.0 %
Test CRC 6B53A834
Copy CRC 6B53A834
Track not present in AccurateRip database
Copy OK
Track 6
Filename H:\FLAC Albums\Nana Mouskouri - Classic () [FLAC]\06 - Schlafe Mein Prinzchen.wav
Pre-gap length 0:00:03.42
Peak level 77.3 %
Track quality 100.0 %
Test CRC D49ADAE5
Copy CRC D49ADAE5
Track not present in AccurateRip database
Copy OK
Track 7
Filename H:\FLAC Albums\Nana Mouskouri - Classic () [FLAC]\07 - Clair De Lune.wav
Pre-gap length 0:00:02.52
Peak level 84.4 %
Track quality 100.0 %
Test CRC 4381151B
Copy CRC 4381151B
Track not present in AccurateRip database
Copy OK
Track 8
Filename H:\FLAC Albums\Nana Mouskouri - Classic () [FLAC]\08 - Barcarolle.wav
Pre-gap length 0:00:03.64
Peak level 95.6 %
Track quality 100.0 %
Test CRC 008CFE4E
Copy CRC 008CFE4E
Track not present in AccurateRip database
Copy OK
Track 9
Filename H:\FLAC Albums\Nana Mouskouri - Classic () [FLAC]\09 - Ti Ipermako.wav
Pre-gap length 0:00:02.89
Peak level 100.0 %
Track quality 100.0 %
Test CRC A0E85AF2
Copy CRC A0E85AF2
Track not present in AccurateRip database
Copy OK
Track 10
Filename H:\FLAC Albums\Nana Mouskouri - Classic () [FLAC]\10 - Hymne A La Joie.wav
Pre-gap length 0:00:02.50
Peak level 100.0 %
Track quality 100.0 %
Test CRC 04BBA5B1
Copy CRC 04BBA5B1
Track not present in AccurateRip database
Copy OK
Track 11
Filename H:\FLAC Albums\Nana Mouskouri - Classic () [FLAC]\11 - Ou Va La Jeunesse.wav
Pre-gap length 0:00:02.86
Peak level 92.6 %
Track quality 100.0 %
Test CRC 3A884A2E
Copy CRC 3A884A2E
Track not present in AccurateRip database
Copy OK
Track 12
Filename H:\FLAC Albums\Nana Mouskouri - Classic () [FLAC]\12 - Kyrie.wav
Pre-gap length 0:00:02.13
Peak level 100.0 %
Track quality 100.0 %
Test CRC FC6D5B41
Copy CRC FC6D5B41
Track not present in AccurateRip database
Copy OK
Track 13
Filename H:\FLAC Albums\Nana Mouskouri - Classic () [FLAC]\13 - Kamia Fora.wav
Pre-gap length 0:00:02.53
Peak level 87.4 %
Track quality 100.0 %
Test CRC D4CA8222
Copy CRC D4CA8222
Track not present in AccurateRip database
Copy OK
Track 14
Filename H:\FLAC Albums\Nana Mouskouri - Classic () [FLAC]\14 - Les Amours D'Automne.wav
Pre-gap length 0:00:02.86
Peak level 100.0 %
Track quality 100.0 %
Test CRC 376971C3
Copy CRC 376971C3
Track not present in AccurateRip database
Copy OK
Track 15
Filename H:\FLAC Albums\Nana Mouskouri - Classic () [FLAC]\15 - La Fiancee D'Ecosse.wav
Pre-gap length 0:00:02.53
Peak level 100.0 %
Track quality 100.0 %
Test CRC FE9C6AA8
Copy CRC FE9C6AA8
Track not present in AccurateRip database
Copy OK
Track 16
Filename H:\FLAC Albums\Nana Mouskouri - Classic () [FLAC]\16 - Ave Marie.wav
Pre-gap length 0:00:02.94
Peak level 100.0 %
Track quality 99.9 %
Test CRC CB3BC7FF
Copy CRC CB3BC7FF
Track not present in AccurateRip database
Copy OK
Track 17
Filename H:\FLAC Albums\Nana Mouskouri - Classic () [FLAC]\17 - Cheur De Murmures.wav
Pre-gap length 0:00:02.66
Peak level 80.2 %
Track quality 100.0 %
Test CRC 63D7B6BC
Copy CRC 63D7B6BC
Track not present in AccurateRip database
Copy OK
Track 18
Filename H:\FLAC Albums\Nana Mouskouri - Classic () [FLAC]\18 - La Vergine Degli Angeli.wav
Pre-gap length 0:00:02.86
Peak level 100.0 %
Track quality 100.0 %
Test CRC D1A64AA7
Copy CRC D1A64AA7
Track not present in AccurateRip database
Copy OK
None of the tracks are present in the AccurateRip database
No errors occurred
End of status report

CUE

REM DISCID 180E8212
REM COMMENT "ExactAudioCopy v0.99pb4"
PERFORMER "Nana Mouskouri"
TITLE "Classic"
FILE "01 - L'Amour Gipsy.wav" WAVE
TRACK 01 AUDIO
TITLE "L'Amour Gipsy"
PERFORMER "Nana Mouskouri"
INDEX 01 00:00:00
TRACK 02 AUDIO
TITLE "To Foss Afto"
PERFORMER "Nana Mouskouri"
INDEX 00 02:45:15
FILE "02 - To Foss Afto.wav" WAVE
INDEX 01 00:00:00
TRACK 03 AUDIO
TITLE "Sanctus"
PERFORMER "Nana Mouskouri"
INDEX 00 04:06:23
FILE "03 - Sanctus.wav" WAVE
INDEX 01 00:00:00
TRACK 04 AUDIO
TITLE "Blow The Wind Southerly"
PERFORMER "Nana Mouskouri"
INDEX 00 03:26:05
FILE "04 - Blow The Wind Southerly.wav" WAVE
INDEX 01 00:00:00
TRACK 05 AUDIO
TITLE "Panis Angelicus"
PERFORMER "Nana Mouskouri"
INDEX 00 02:46:71
FILE "05 - Panis Angelicus.wav" WAVE
INDEX 01 00:00:00
TRACK 06 AUDIO
TITLE "Schlafe Mein Prinzchen"
PERFORMER "Nana Mouskouri"
INDEX 00 03:38:73
FILE "06 - Schlafe Mein Prinzchen.wav" WAVE
INDEX 01 00:00:00
TRACK 07 AUDIO
TITLE "Clair De Lune"
PERFORMER "Nana Mouskouri"
INDEX 00 03:14:46
FILE "07 - Clair De Lune.wav" WAVE
INDEX 01 00:00:00
TRACK 08 AUDIO
TITLE "Barcarolle"
PERFORMER "Nana Mouskouri"
INDEX 00 03:52:62
FILE "08 - Barcarolle.wav" WAVE
INDEX 01 00:00:00
TRACK 09 AUDIO
TITLE "Ti Ipermako"
PERFORMER "Nana Mouskouri"
INDEX 00 03:23:35
FILE "09 - Ti Ipermako.wav" WAVE
INDEX 01 00:00:00
TRACK 10 AUDIO
TITLE "Hymne A La Joie"
PERFORMER "Nana Mouskouri"
INDEX 00 04:12:05
FILE "10 - Hymne A La Joie.wav" WAVE
INDEX 01 00:00:00
TRACK 11 AUDIO
TITLE "Ou Va La Jeunesse"
PERFORMER "Nana Mouskouri"
INDEX 00 04:07:17
FILE "11 - Ou Va La Jeunesse.wav" WAVE
INDEX 01 00:00:00
TRACK 12 AUDIO
TITLE "Kyrie"
PERFORMER "Nana Mouskouri"
INDEX 00 02:41:45
FILE "12 - Kyrie.wav" WAVE
INDEX 01 00:00:00
TRACK 13 AUDIO
TITLE "Kamia Fora"
PERFORMER "Nana Mouskouri"
INDEX 00 03:02:48
FILE "13 - Kamia Fora.wav" WAVE
INDEX 01 00:00:00
TRACK 14 AUDIO
TITLE "Les Amours D'Automne"
PERFORMER "Nana Mouskouri"
INDEX 00 03:06:37
FILE "14 - Les Amours D'Automne.wav" WAVE
INDEX 01 00:00:00
TRACK 15 AUDIO
TITLE "La Fiancee D'Ecosse"
PERFORMER "Nana Mouskouri"
INDEX 00 03:02:00
FILE "15 - La Fiancee D'Ecosse.wav" WAVE
INDEX 01 00:00:00
TRACK 16 AUDIO
TITLE "Ave Marie"
PERFORMER "Nana Mouskouri"
INDEX 00 03:55:02
FILE "16 - Ave Marie.wav" WAVE
INDEX 01 00:00:00
TRACK 17 AUDIO
TITLE "Cheur De Murmures"
PERFORMER "Nana Mouskouri"
INDEX 00 02:52:02
FILE "17 - Cheur De Murmures.wav" WAVE
INDEX 01 00:00:00
TRACK 18 AUDIO
TITLE "La Vergine Degli Angeli"
PERFORMER "Nana Mouskouri"
INDEX 00 02:36:45
FILE "18 - La Vergine Degli Angeli.wav" WAVE
INDEX 01 00:00:00

AUDIOCHECKER

AUDIOCHECKER v2.0 beta (build 457) - by Dester - opdester@freemail.hu
~~~~~~~~~~~~~~~~~~~~~~~~~~~~~~~~~~
-=== НЕ РЕДАКТИРУЙТЕ ЭТОТ ФАЙЛ! ===-
Путь: ...\1999 - Classiс
01 -=- 01 - L'Amour Gipsy.flac -=- CDDA (100%)
02 -=- 02 - To Foss Afto.flac -=- CDDA (100%)
03 -=- 03 - Sanctus.flac -=- CDDA (100%)
04 -=- 04 - Blow The Wind Southerly.flac -=- CDDA (100%)
05 -=- 05 - Panis Angelicus.flac -=- CDDA (100%)
06 -=- 06 - Schlafe Mein Prinzchen.flac -=- CDDA (100%)
07 -=- 07 - Clair De Lune.flac -=- CDDA (99%)
08 -=- 08 - Barcarolle.flac -=- CDDA (100%)
09 -=- 09 - Ti Ipermako.flac -=- CDDA (100%)
10 -=- 10 - Hymne A La Joie.flac -=- CDDA (100%)
11 -=- 11 - Ou Va La Jeunesse.flac -=- CDDA (100%)
12 -=- 12 - Kyrie.flac -=- CDDA (100%)
13 -=- 13 - Kamia Fora.flac -=- CDDA (100%)
14 -=- 14 - Les Amours D'Automne.flac -=- CDDA (100%)
15 -=- 15 - La Fiancee D'Ecosse.flac -=- CDDA (100%)
16 -=- 16 - Ave Marie.flac -=- CDDA (100%)
17 -=- 17 - Cheur De Murmures.flac -=- CDDA (100%)
18 -=- 18 - La Vergine Degli Angeli.flac -=- CDDA (100%)
Сводка 99,94% CDDA
143550340

-За нахождение и предоставление материала благодарим sander996-



Показать сообщения:    

Текущее время: 04-Дек 19:22

Часовой пояс: UTC + 3


Вы не можете начинать темы
Вы не можете отвечать на сообщения
Вы не можете редактировать свои сообщения
Вы не можете удалять свои сообщения
Вы не можете голосовать в опросах
Вы не можете прикреплять файлы к сообщениям
Вы не можете скачивать файлы