Джастин Тимберлейк. История Успеха / Pop Profiles. Justin Timberlake (Кэл Савиль/Cal Saville) [2011, Документальный, музыка, IPTVRip]


Статистика раздачи [Обновить пиров]
Размер:  755 MB   |    Зарегистрирован:  8 месяцев 23 дня   |    Скачан:  0 раз

Полного источника не было: Никогда

 
   
 
 
 

[Цитировать]

Джастин Тимберлейк. История Успеха / Pop Profiles. Justin Timberlake
Год выпуска: 2011
Страна: Великобритания
Жанр: Документальный, музыка
Продолжительность: 00:23:40
Перевод: Профессиональный (двухголосый закадровый)
Русские субтитры: нет
Режиссер: Кэл Савиль/Cal Saville
Описание: Ему подвластны и сцена и широкий экран! У него в загашнике 6 "Грэмми" и одна "Эмми"! Как Джастин Тимберлейк нашел свою дорогу из клуба "Микки Мауса" к статусу секс -иконы?
Доп. информация: Решил порыться в своих залежах и вот, что накопал!=)
качество: IPTV
формат: MPG-PS
Видео: Mpeg Video, 704*576, 4:3, 4 114 kbps, 25 fps
Аудио: MPEG Audio, 256 kbps, 48.0 kHz, 2 ch
Сэмпл:
http://www.sendspace.com/file/fa8p20

MediaInfo

General
Complete name : I:\Джастин Тимберлэйк. История Успеха.mpeg1
Format : MPEG-PS
File size : 755 MiB
Duration : 23mn 40s
Overall bit rate : 4 459 Kbps
Writing library : (c) 1998-2011 Womble Multimedia, Inc. / MPEG Video Wizard DVD 5.0.1.100 (03/2011) / May 27 2011
Video
ID : 224 (0xE0)
Format : MPEG Video
Format version : Version 2
Format profile : Main@Main
Format settings, BVOP : Yes
Format settings, Matrix : Default
Format settings, GOP : M=2, N=12
Duration : 23mn 40s
Bit rate mode : Variable
Bit rate : 4 114 Kbps
Nominal bit rate : 10 000 Kbps
Width : 704 pixels
Height : 576 pixels
Display aspect ratio : 4:3
Frame rate : 25.000 fps
Standard : PAL
Color space : YUV
Chroma subsampling : 4:2:0
Bit depth : 8 bits
Scan type : Progressive
Compression mode : Lossy
Bits/(Pixel*Frame) : 0.406
Stream size : 697 MiB (92%)
Writing library : (c) 1998-2011 Womble Multimedia, Inc. / MPEG Video Wizard DVD 5.0.1.100 (03/2011) / May 27 2011
Audio
ID : 192 (0xC0)
Format : MPEG Audio
Format version : Version 1
Format profile : Layer 2
Duration : 23mn 40s
Bit rate mode : Constant
Bit rate : 256 Kbps
Channel(s) : 2 channels
Sampling rate : 48.0 KHz
Compression mode : Lossy
Delay relative to video : -40ms
Stream size : 43.4 MiB (6%)

Скриншоты

Если скачали - не уходите с раздачи, пожалуйста!
[teatrix.ru].t17982.torrent 
Торрент: Зарегистрирован [ 2016-03-17 00:46 ] · 494BBD698E70D20502A074F7D128D73DB119702B

Скачать .torrent

Скачать

15 KB

Статус: проверено
Скачан: 0 раз
Размер: 755 MB
terms.php



Быстрый ответ

Имя:

      
Для отправки сообщений необходимо включить JavaScript
Показать сообщения:    

Текущее время: 09-Дек 20:32

Часовой пояс: UTC + 3


Вы можете начинать темы
Вы можете отвечать на сообщения
Вы не можете редактировать свои сообщения
Вы не можете удалять свои сообщения
Вы не можете голосовать в опросах
Вы не можете прикреплять файлы к сообщениям
Вы можете скачивать файлы