(Classical, Concerto, Piano) Poulenc - Les Animaux modeles, Concert champetre, Improvisations 13 & 15 {Stefano Bollani, Jan Latham-Koenig, Filarmonica '900 del Teatro Regio di Torino} - 2007, FLAC (tracks+.cue), lossless


Статистика раздачи [Обновить пиров]
Размер:  331 MB   |    Зарегистрирован:  8 месяцев 23 дня   |    Скачан:  0 раз

Полного источника не было: Никогда

 
   
 
 
 

[Цитировать]

Stefano Bollani & Jan Latham-Koenig - Poulenc: Les Animaux modeles, Concert champetre, Improvisations 13 & 15
Жанр: Classical, Concerto, Piano
Страна-производитель диска: Великобритания
Год издания диска: 2007
Издатель (лейбл): Avie Records
Номер по каталогу: AV2135
Аудиокодек: FLAC
Тип рипа: tracks+.cue
Битрейт аудио: lossless
Продолжительность: 74:03
Источник (релизер): artofcool (what)
Наличие сканов в содержимом раздачи: да
Треклист:
Francis Poulenc (1899-1963)
Les Animaux modeles
01. I. Le petit jour (3:33)
02. II. L'Ours et les deux Compagnons (4:22)
03. III. La Cigale et la Formi (5:44)
04. IV. Le Lion amoureux (6:53)
05. V. L'Homme entre deux ages et ses deux maitresses (1:48)
06. VI. La mort et le boucheron (5:31)
07. VII. Les deux Coqs (9:13)
08. VIII. Le repas de midi (3:05)
Concert champetre pour piano et orchestre
09. Adagio, Allegro molto (10:28)
10. Andante (Mouvement de Sicilienne) (6:47)
11. Finale (Presto) (8:03)
12. Improvisation 13 (4:15)
13. Improvisation 15 (4:21)
Исполнители:
Stefano Bollani - piano
Filarmonica '900 del Teatro Regio di Torino
Jan Latham-Koenig - conductor
Recorded at Conservatorio "Giuseppe Verdi", Torino (Italy) on March 6-9, 2007.

Лог создания рипа

Exact Audio Copy V0.99 prebeta 5 from 4. May 2009
EAC extraction logfile from 10. May 2011, 21:27
Francis Poulenc / Filarmonica '900 del Teatro Regio di Torino - Jan Latham-Koenig & Stefano Bollani
Used drive : HL-DT-STDVD+-RW GH50N Adapter: 1 ID: 0
Read mode : Secure
Utilize accurate stream : Yes
Defeat audio cache : No
Make use of C2 pointers : No
Read offset correction : 667
Overread into Lead-In and Lead-Out : No
Fill up missing offset samples with silence : Yes
Delete leading and trailing silent blocks : No
Null samples used in CRC calculations : Yes
Used interface : Native Win32 interface for Win NT & 2000
Gap handling : Appended to previous track
Used output format : User Defined Encoder
Selected bitrate : 768 kBit/s
Quality : High
Add ID3 tag : No
Command line compressor : C:\Program Files (x86)\Exact Audio Copy\FLAC\FLAC.EXE
Additional command line options : -6 -V -T "ARTIST=%a" -T "TITLE=%t" -T "ALBUM=%g" -T "DATE=%y" -T "TRACKNUMBER=%n" -T "GENRE=%m" -T "COMMENT=%e" %s -o %d
TOC of the extracted CD
Track | Start | Length | Start sector | End sector
---------------------------------------------------------
1 | 0:00.00 | 3:33.06 | 0 | 15980
2 | 3:33.06 | 4:22.05 | 15981 | 35635
3 | 7:55.11 | 5:43.58 | 35636 | 61418
4 | 13:38.69 | 6:52.59 | 61419 | 92377
5 | 20:31.53 | 1:48.14 | 92378 | 100491
6 | 22:19.67 | 5:31.23 | 100492 | 125339
7 | 27:51.15 | 9:13.31 | 125340 | 166845
8 | 37:04.46 | 3:05.04 | 166846 | 180724
9 | 40:09.50 | 10:27.59 | 180725 | 227808
10 | 50:37.34 | 6:47.02 | 227809 | 258335
11 | 57:24.36 | 8:02.43 | 258336 | 294528
12 | 65:27.04 | 4:14.63 | 294529 | 313641
13 | 69:41.67 | 4:21.07 | 313642 | 333223
Track 1
Filename K:\EAC rips\Francis Poulenc - Filarmonica '900 del Teatro Regio di Torino - Jan Latham-Koenig & Stefano Bollani\01 - Poulenc - Les Animaux modèles I - Filarmonica 900 - Francis Poulenc - Filarmonica '900 del Teatro Regio di Torino - Jan Latham
Pre-gap length 0:00:02.00
Peak level 96.6 %
Track quality 100.0 %
Test CRC 85A2C7AD
Copy CRC 85A2C7AD
Accurately ripped (confidence 1) [F7FD0A46]
Copy OK
Track 2
Filename K:\EAC rips\Francis Poulenc - Filarmonica '900 del Teatro Regio di Torino - Jan Latham-Koenig & Stefano Bollani\02 - Poulenc - Les Animaux modèles II - Filarmonica 900 - Francis Poulenc - Filarmonica '900 del Teatro Regio di Torino - Jan Latha
Peak level 96.6 %
Track quality 100.0 %
Test CRC E1FC0C6C
Copy CRC E1FC0C6C
Accurately ripped (confidence 1) [CA8EAAA8]
Copy OK
Track 3
Filename K:\EAC rips\Francis Poulenc - Filarmonica '900 del Teatro Regio di Torino - Jan Latham-Koenig & Stefano Bollani\03 - Poulenc - Les Animaux modèles III - Filarmonica 900 - Francis Poulenc - Filarmonica '900 del Teatro Regio di Torino - Jan Lath
Peak level 96.6 %
Track quality 100.0 %
Test CRC 389527BF
Copy CRC 389527BF
Accurately ripped (confidence 1) [4F18B526]
Copy OK
Track 4
Filename K:\EAC rips\Francis Poulenc - Filarmonica '900 del Teatro Regio di Torino - Jan Latham-Koenig & Stefano Bollani\04 - Poulenc - Les Animaux modèles IV - Filarmonica 900 - Francis Poulenc - Filarmonica '900 del Teatro Regio di Torino - Jan Latha
Peak level 96.6 %
Track quality 100.0 %
Test CRC 03AD1563
Copy CRC 03AD1563
Accurately ripped (confidence 1) [DE5BF12A]
Copy OK
Track 5
Filename K:\EAC rips\Francis Poulenc - Filarmonica '900 del Teatro Regio di Torino - Jan Latham-Koenig & Stefano Bollani\05 - Poulenc - Les Animaux modèles V - Filarmonica 900 - Francis Poulenc - Filarmonica '900 del Teatro Regio di Torino - Jan Latham
Peak level 87.6 %
Track quality 100.0 %
Test CRC 6D220A54
Copy CRC 6D220A54
Accurately ripped (confidence 1) [7CA2C4BA]
Copy OK
Track 6
Filename K:\EAC rips\Francis Poulenc - Filarmonica '900 del Teatro Regio di Torino - Jan Latham-Koenig & Stefano Bollani\06 - Poulenc - Les Animaux modèles VI - Filarmonica 900 - Francis Poulenc - Filarmonica '900 del Teatro Regio di Torino - Jan Latha
Peak level 83.2 %
Track quality 100.0 %
Test CRC D502EF5F
Copy CRC D502EF5F
Accurately ripped (confidence 1) [21C2F06F]
Copy OK
Track 7
Filename K:\EAC rips\Francis Poulenc - Filarmonica '900 del Teatro Regio di Torino - Jan Latham-Koenig & Stefano Bollani\07 - Poulenc - Les Animaux modèles VII - Filarmonica 900 - Francis Poulenc - Filarmonica '900 del Teatro Regio di Torino - Jan Lath
Peak level 96.6 %
Track quality 100.0 %
Test CRC D95873E4
Copy CRC D95873E4
Accurately ripped (confidence 1) [51A39FED]
Copy OK
Track 8
Filename K:\EAC rips\Francis Poulenc - Filarmonica '900 del Teatro Regio di Torino - Jan Latham-Koenig & Stefano Bollani\08 - Poulenc - Les Animaux modèles VIII - Filarmonica 900 - Francis Poulenc - Filarmonica '900 del Teatro Regio di Torino - Jan Lat
Peak level 96.6 %
Track quality 100.0 %
Test CRC 42716C05
Copy CRC 42716C05
Accurately ripped (confidence 1) [FF15B7AE]
Copy OK
Track 9
Filename K:\EAC rips\Francis Poulenc - Filarmonica '900 del Teatro Regio di Torino - Jan Latham-Koenig & Stefano Bollani\09 - Poulenc - Concert champêtre I - Bollani & Filarmonica 900 - Francis Poulenc - Filarmonica '900 del Teatro Regio di Torino - Ja
Pre-gap length 0:00:04.77
Peak level 96.6 %
Track quality 100.0 %
Test CRC 6590C20D
Copy CRC 6590C20D
Accurately ripped (confidence 1) [63CF8E7A]
Copy OK
Track 10
Filename K:\EAC rips\Francis Poulenc - Filarmonica '900 del Teatro Regio di Torino - Jan Latham-Koenig & Stefano Bollani\10 - Poulenc - Concert champêtre II - Bollani & Filarmonica 900 - Francis Poulenc - Filarmonica '900 del Teatro Regio di Torino - J
Peak level 81.6 %
Track quality 100.0 %
Test CRC 8C8ABEBD
Copy CRC 8C8ABEBD
Accurately ripped (confidence 1) [D111F415]
Copy OK
Track 11
Filename K:\EAC rips\Francis Poulenc - Filarmonica '900 del Teatro Regio di Torino - Jan Latham-Koenig & Stefano Bollani\11 - Poulenc - Concert champêtre III - Bollani & Filarmonica 900 - Francis Poulenc - Filarmonica '900 del Teatro Regio di Torino -
Peak level 96.6 %
Track quality 100.0 %
Test CRC C39AC2D7
Copy CRC C39AC2D7
Accurately ripped (confidence 1) [26CE32FF]
Copy OK
Track 12
Filename K:\EAC rips\Francis Poulenc - Filarmonica '900 del Teatro Regio di Torino - Jan Latham-Koenig & Stefano Bollani\12 - Poulenc - Improvisation 13 - Bollani - Francis Poulenc - Filarmonica '900 del Teatro Regio di Torino - Jan Latham-Koenig & Ste
Pre-gap length 0:00:05.77
Peak level 77.7 %
Track quality 100.0 %
Test CRC 25DC7B1D
Copy CRC 25DC7B1D
Accurately ripped (confidence 1) [AA64989E]
Copy OK
Track 13
Filename K:\EAC rips\Francis Poulenc - Filarmonica '900 del Teatro Regio di Torino - Jan Latham-Koenig & Stefano Bollani\13 - Poulenc - Improvisation 15 - Bollani - Francis Poulenc - Filarmonica '900 del Teatro Regio di Torino - Jan Latham-Koenig & Ste
Pre-gap length 0:00:03.77
Peak level 80.1 %
Track quality 100.0 %
Test CRC EF510D30
Copy CRC EF510D30
Accurately ripped (confidence 1) [1F626014]
Copy OK
All tracks accurately ripped
No errors occurred
End of status report

Содержание индексной карты (.CUE)

REM GENRE Classical
REM DATE 2007
REM DISCID A4115A0D
REM COMMENT "ExactAudioCopy v0.99pb5"
PERFORMER "Stefano Bollani & Jan Latham-Koenig"
TITLE "Poulenc: Les Animaux modeles, Concert champetre"
FILE "01 - Les Animaux modeles- I. Le petit jour.wav" WAVE
TRACK 01 AUDIO
TITLE "Les Animaux modeles: I. Le petit jour"
PERFORMER "Stefano Bollani & Jan Latham-Koenig"
INDEX 01 00:00:00
FILE "02 - Les Animaux modeles- II. L'Ours et les deux Compagnons.wav" WAVE
TRACK 02 AUDIO
TITLE "Les Animaux modeles: II. L'Ours et les deux Compagnons"
PERFORMER "Stefano Bollani & Jan Latham-Koenig"
INDEX 01 00:00:00
FILE "03 - Les Animaux modeles- III. La Cigale et la Formi.wav" WAVE
TRACK 03 AUDIO
TITLE "Les Animaux modeles: III. La Cigale et la Formi"
PERFORMER "Stefano Bollani & Jan Latham-Koenig"
INDEX 01 00:00:00
FILE "04 - Les Animaux modeles- IV. Le Lion amoureux.wav" WAVE
TRACK 04 AUDIO
TITLE "Les Animaux modeles: IV. Le Lion amoureux"
PERFORMER "Stefano Bollani & Jan Latham-Koenig"
INDEX 01 00:00:00
FILE "05 - Les Animaux modeles- V. L'Homme entre deux ages et ses deux maitresses.wav" WAVE
TRACK 05 AUDIO
TITLE "Les Animaux modeles: V. L'Homme entre deux ages et ses deux maitresses"
PERFORMER "Stefano Bollani & Jan Latham-Koenig"
INDEX 01 00:00:00
FILE "06 - Les Animaux modeles- VI. La mort et le boucheron.wav" WAVE
TRACK 06 AUDIO
TITLE "Les Animaux modeles: VI. La mort et le boucheron"
PERFORMER "Stefano Bollani & Jan Latham-Koenig"
INDEX 01 00:00:00
FILE "07 - Les Animaux modeles- VII. Les deux Coqs.wav" WAVE
TRACK 07 AUDIO
TITLE "Les Animaux modeles: VII. Les deux Coqs"
PERFORMER "Stefano Bollani & Jan Latham-Koenig"
INDEX 01 00:00:00
FILE "08 - Les Animaux modeles- VIII. Le repas de midi.wav" WAVE
TRACK 08 AUDIO
TITLE "Les Animaux modeles: VIII. Le repas de midi"
PERFORMER "Stefano Bollani & Jan Latham-Koenig"
INDEX 01 00:00:00
TRACK 09 AUDIO
TITLE "Concert champetre pour piano et orchestre: Adagio, Allegro molto"
PERFORMER "Stefano Bollani & Jan Latham-Koenig"
INDEX 00 03:00:21
FILE "09 - Concert champetre pour piano et orchestre- Adagio, Allegro molto.wav" WAVE
INDEX 01 00:00:00
FILE "10 - Concert champetre pour piano et orchestre- Andante (Mouvement de Sicilienne).wav" WAVE
TRACK 10 AUDIO
TITLE "Concert champetre pour piano et orchestre: Andante (Mouvement de Sicilienne)"
PERFORMER "Stefano Bollani & Jan Latham-Koenig"
INDEX 01 00:00:00
FILE "11 - Concert champetre pour piano et orchestre- Finale (Presto).wav" WAVE
TRACK 11 AUDIO
TITLE "Concert champetre pour piano et orchestre: Finale (Presto)"
PERFORMER "Stefano Bollani & Jan Latham-Koenig"
INDEX 01 00:00:00
TRACK 12 AUDIO
TITLE "Improvisation 13"
PERFORMER "Stefano Bollani & Jan Latham-Koenig"
INDEX 00 07:56:60
FILE "12 - Improvisation 13.wav" WAVE
INDEX 01 00:00:00
TRACK 13 AUDIO
TITLE "Improvisation 15"
PERFORMER "Stefano Bollani & Jan Latham-Koenig"
INDEX 00 04:11:05
FILE "13 - Improvisation 15.wav" WAVE
INDEX 01 00:00:00

Отчет CUETools

[CUETools log; Date: 19.12.2013 3:23:21; Version: 2.1.4]
[CTDB TOCID: 060o2.pGWDpLOV2ldvUZ_a0SIT4-] found.
Track | CTDB Status
1 | (1/1) Accurately ripped
2 | (1/1) Accurately ripped
3 | (1/1) Accurately ripped
4 | (1/1) Accurately ripped
5 | (1/1) Accurately ripped
6 | (1/1) Accurately ripped
7 | (1/1) Accurately ripped
8 | (1/1) Accurately ripped
9 | (1/1) Accurately ripped
10 | (1/1) Accurately ripped
11 | (1/1) Accurately ripped
12 | (1/1) Accurately ripped
13 | (1/1) Accurately ripped
[AccurateRip ID: 0021aa95-015a2406-a4115a0d] found.
Track [ CRC | V2 ] Status
01 [f7fd0a46|e3ae1e73] (0+2/2) Accurately ripped
02 [ca8eaaa8|5570b26f] (0+2/2) Accurately ripped
03 [4f18b526|c4860daa] (0+2/2) Accurately ripped
04 [de5bf12a|e9a6ee3c] (0+2/2) Accurately ripped
05 [7ca2c4ba|aa80054d] (0+2/2) Accurately ripped
06 [21c2f06f|fdded208] (0+2/2) Accurately ripped
07 [51a39fed|426b7c32] (0+2/2) Accurately ripped
08 [ff15b7ae|0d6fda6d] (0+2/2) Accurately ripped
09 [63cf8e7a|16165e21] (0+2/2) Accurately ripped
10 [d111f415|5bddf011] (0+2/2) Accurately ripped
11 [26ce32ff|dff584bf] (0+2/2) Accurately ripped
12 [aa64989e|1b0ea2db] (0+2/2) Accurately ripped
13 [1f626014|0794f75e] (0+2/2) Accurately ripped
Track Peak [ CRC32 ] [W/O NULL] [ LOG ]
-- 96,6 [EAA360EE] [7AFF1735]
01 96,6 [85A2C7AD] [3DA88380] CRC32
02 96,6 [E1FC0C6C] [8F29AE47] CRC32
03 96,6 [389527BF] [472D2A30] CRC32
04 96,6 [03AD1563] [D2FAE253] CRC32
05 87,6 [6D220A54] [5A78B31D] CRC32
06 83,2 [D502EF5F] [E7390A0C] CRC32
07 96,6 [D95873E4] [43D4C070] CRC32
08 96,6 [42716C05] [DD5216B4] CRC32
09 96,6 [6590C20D] [D2E27BCB] CRC32
10 81,6 [8C8ABEBD] [B7D4AA53] CRC32
11 96,6 [C39AC2D7] [40D512E5] CRC32
12 77,7 [25DC7B1D] [E95D18FD] CRC32
13 80,1 [EF510D30] [37353F95] CRC32

Об альбоме (сборнике)

A rare outing for Poulenc's delightful, tune-filled ballet score.
Poulenc's third and final ballet, Les animaux modeles, was begun, he wrote, "in the darkest days of the summer of 1940, and one way or another I wanted to find a reason for hope in the future of my country". The fables of La Fontaine provided him with the plot and it was first performed on August 8, 1942, in occupied Paris (in the penultimate section, "Les deux coqs", Poulenc mischievously quotes the song "Non, non, vous n'aurez pas notre Alsace-Lorraine" for an audience made up mainly of German officials).
Why we don't hear this delicious score more often is a mystery. Too many good tunes, probably. Its eight movements are quintessential Poulenc with the characteristic melange of harmonic and stylistic influences that make their composer's voice so unmistakable. There is also a good deal of self-plagiarising (spot the quotes from the Organ Concerto and the contemporaneous Babar the Elephant). Only one other recording is currently available, apart from the abbreviated version recorded by Georges Prêtre from 1966. The Turin players match the Parisians every step of the way with their incision, sure-footedness and sheer panache.
Stefano Bollani, whose career has been mainly in jazz, makes a good fist of the Concerto champetre (commissioned by the harpsichordist Wanda Landowska, of course, but sanctioned by the composer to be played on the piano as well), rounding off the disc with his own "elaborations" of two of Poulenc's late Improvisations, No 13 from 1958 and No 15 ("Hommage a Edith Piaf"), from 1959, the last of the cycle.
-- Jeremy Nicholas, Gramophone [12/2007]
[teatrix.ru].t17988.torrent 
Торрент: Зарегистрирован [ 2016-03-17 00:46 ] · 2143BFC2348DF022FBA638CDCD9081C4830AD74D

Скачать .torrent

Скачать

15 KB

Статус: проверено
Скачан: 0 раз
Размер: 331 MB
terms.php



Быстрый ответ

Имя:

      
Для отправки сообщений необходимо включить JavaScript
Показать сообщения:    

Текущее время: 09-Дек 18:28

Часовой пояс: UTC + 3


Вы можете начинать темы
Вы можете отвечать на сообщения
Вы не можете редактировать свои сообщения
Вы не можете удалять свои сообщения
Вы не можете голосовать в опросах
Вы не можете прикреплять файлы к сообщениям
Вы можете скачивать файлы