(Classical) R.Schumann - Introduction & Allegro appassionato Op.92, Geistervariationen WoO 24, Introduction & Concert-Allegro Op.134, Six Etudes in Canonic Form Op.56 - C. Eschenbach, T. Barto - 2010, FLAC (image+.cue) lossless


Статистика раздачи [Обновить пиров]
Размер:  243 MB   |    Зарегистрирован:  8 месяцев 24 дня   |    Скачан:  0 раз

Полного источника не было: Никогда

 
   
 
 
 

[Цитировать]

R.Schumann - Introduction & Allegro appassionato, etc. - C. Eschenbach, T. Barto
Жанр: Classical
Страна-производитель диска: Austria
Год издания диска: 2010
Издатель (лейбл): Ondine
Аудиокодек: FLAC
Тип рипа: image+.cue
Битрейт аудио: lossless
Продолжительность: 1:13:49
Источник: скачано с
сайт-источник/ник/другое: odeonmusic.blogspot.com
Наличие сканов в содержимом раздачи: да
Треклист:
01. Introduction & Allegro appassionato - Op.92 [0:18:06.09]
Geistervariationen-WoO-24
02. 01 [0:02:25.02]
03. 02 [0:02:07.35]
04. 03 [0:02:20.62]
05. 04 [0:02:41.02]
06. 05 [0:02:41.66]
07. 06 [0:04:55.53]
08. Introduction & Concert-Allegro - Op.134 [0:17:15.13]
Six-Etudes-in-Canonic-Form-Op.56
09. 01 [0:02:57.20]
10. 02 [0:05:39.69]
11. 03 [0:02:59.40]
12. 04 [0:03:53.24]
13. 05 [0:01:52.12]
14. 06 [0:03:53.74]
Исполнители:
Tzimon Barto - piano
Christoph Eschenbach - piano (tracks 9-14 )
NDR Sinfonieorchester
Christoph Eschenbach - conductor

Лог создания рипа

Exact Audio Copy V1.0 beta 3 from 29. August 2011
EAC extraction logfile from 5. October 2012, 11:26
Christopf Eschenbach Tzimon Barto / Schumann - Introduction & Allegro appassionato, etc. - Eschenbach
Used drive : TSSTcorpCDDVDW TS-L633M Adapter: 1 ID: 0
Read mode : Secure
Utilize accurate stream : Yes
Defeat audio cache : Yes
Make use of C2 pointers : No
Read offset correction : 6
Overread into Lead-In and Lead-Out : No
Fill up missing offset samples with silence : Yes
Delete leading and trailing silent blocks : No
Null samples used in CRC calculations : Yes
Used interface : Native Win32 interface for Win NT & 2000
Used output format : User Defined Encoder
Selected bitrate : 320 kBit/s
Quality : High
Add ID3 tag : No
Command line compressor : C:\Program Files\Exact Audio Copy\Flac\flac.exe
Additional command line options : -8 -V -T "TITLE=%title%" -T "ARTIST=%artist%" -T "ALBUMARTIST=%albumartist%" -T "ALBUM=%albumtitle%" -T "DATE=%year%" -T "TRACKNUMBER=%tracknr%" -T "TRACKTOTAL=%numtracks%" -T "GENRE=%genre%" -T "COMMENT=%comment%" -T "PERFORMER=%albuminterpret%" -T "COMPOSER=%composer%" %source% -o %dest%
TOC of the extracted CD
Track | Start | Length | Start sector | End sector
---------------------------------------------------------
1 | 0:00.00 | 18:06.09 | 0 | 81458
2 | 18:06.09 | 2:25.02 | 81459 | 92335
3 | 20:31.11 | 2:07.35 | 92336 | 101895
4 | 22:38.46 | 2:20.62 | 101896 | 112457
5 | 24:59.33 | 2:41.02 | 112458 | 124534
6 | 27:40.35 | 2:41.66 | 124535 | 136675
7 | 30:22.26 | 4:55.53 | 136676 | 158853
8 | 35:18.04 | 17:15.13 | 158854 | 236491
9 | 52:33.17 | 2:57.20 | 236492 | 249786
10 | 55:30.37 | 5:39.69 | 249787 | 275280
11 | 61:10.31 | 2:59.40 | 275281 | 288745
12 | 64:09.71 | 3:53.24 | 288746 | 306244
13 | 68:03.20 | 1:52.12 | 306245 | 314656
14 | 69:55.32 | 3:53.74 | 314657 | 332205
Range status and errors
Selected range
Filename C:\Users\JS\Desktop\Schumann - Introduction & Allegro appassionato, etc. - Eschenbach\Schumann - Introduction & Allegro appassionato, etc. - Eschenbach.wav
Peak level 97.7 %
Extraction speed 2.3 X
Range quality 100.0 %
Test CRC AD70DF10
Copy CRC AD70DF10
Copy OK
No errors occurred
AccurateRip summary
Track 1 accurately ripped (confidence 2) [A1262C89] (AR v1)
Track 2 accurately ripped (confidence 2) [0359426D] (AR v1)
Track 3 accurately ripped (confidence 2) [AC84BEB9] (AR v1)
Track 4 accurately ripped (confidence 2) [E1531E48] (AR v1)
Track 5 accurately ripped (confidence 2) [10D19AB2] (AR v1)
Track 6 accurately ripped (confidence 2) [3481785E] (AR v1)
Track 7 accurately ripped (confidence 2) [2E46599F] (AR v1)
Track 8 accurately ripped (confidence 2) [59BFCD3A] (AR v1)
Track 9 accurately ripped (confidence 2) [24EAF936] (AR v1)
Track 10 accurately ripped (confidence 2) [84AD5096] (AR v1)
Track 11 accurately ripped (confidence 2) [1CC8DBCB] (AR v1)
Track 12 accurately ripped (confidence 2) [2599AF25] (AR v1)
Track 13 accurately ripped (confidence 2) [00613A76] (AR v1)
Track 14 accurately ripped (confidence 2) [CBA65E1C] (AR v1)
All tracks accurately ripped
End of status report
[teatrix.ru].t17993.torrent 
Торрент: Зарегистрирован [ 2016-03-17 00:46 ] · 106444772D447C18DFE40C4658858454FBA83E04

Скачать .torrent

Скачать

21 KB

Статус: проверено
Скачан: 0 раз
Размер: 243 MB
terms.php



Быстрый ответ

Имя:

      
Для отправки сообщений необходимо включить JavaScript
Показать сообщения:    

Текущее время: 10-Дек 17:43

Часовой пояс: UTC + 3


Вы можете начинать темы
Вы можете отвечать на сообщения
Вы не можете редактировать свои сообщения
Вы не можете удалять свои сообщения
Вы не можете голосовать в опросах
Вы не можете прикреплять файлы к сообщениям
Вы можете скачивать файлы