(Classical / Baroque) Arcangelo Corelli - 12 Concerti Grossi Op.6 - I Solisti Italiani - 2010, FLAC (image+.cue) lossless


Статистика раздачи [Обновить пиров]
Размер:  668 MB   |    Зарегистрирован:  8 месяцев 25 дней   |    Скачан:  0 раз

Полного источника не было: Никогда

 
   
 
 
 

[Цитировать]

Arcangelo Corelli - 12 Concerti Grossi Op.6 - I Solisti Italiani
Жанр: Classical / Baroque
Страна-производитель диска: Japan
Год издания диска: 2010
Издатель (лейбл): DENON
Номер по каталогу: COCO-73119-20
Дата записи: 1989
Аудиокодек: FLAC
Тип рипа: image+.cue
Битрейт аудио: lossless
Продолжительность: 125'51
Источник: собственный рип
Наличие сканов в содержимом раздачи: да
Исполнители:
I Solisti Italiani

Треклист:

CD 1
Concerto No.1 in D major
1. Largo
2. Allegro
3. Largo
4. Allegro
5. Largo
6. Allegro
7. Allegro
Concerto No.2 in F major
8. Vivace-Allegro-Adagio-Vivace-Allegro-Largo andante
9. Allegro
10.Grave-Andante largo
11. All1egro
Concerto No.3 in C minor
12. Largo
13. Allegro
14. Grave
15. Vivace
16. Allegro
Concerto No.4 in D major
17. Adagio-Allegro
18. Adagio
19. Vivace
20. Allegro-Allegro
Concerto No.5 in B-flat major
21. Adagio-Allegro
22. Adagio
23. Allegro
24. Largo-Allegro
Concerto No.6 in F major
25. Adagio
26. Allegro
27. Largo
28. Vivace
29. Allegro
CD 2
Concerto No.7 in D major
1. Vivace—Allegro
2. Adagio
3. Allegro
4. Andante largo
5. Allegro
6. Vivace
Concerto No.8 in G minor ("Christmas Concerto")
7. Vivace-Grave
8. Allegro
9. Adagio-Allegro-Adagio
10. Vivace
11. Allegro
12. Largo. Pastorale ad libitum
Concerto No.9 in F major
13. Preludio:Largo
14. Allemanda: Allegro
15. Corrente:Vivace
16. Gavotta:Allegro
17. Adagio
18. Menuetto: Vivace
Concerto No.10 in C major
19. Preludio:Andante largo
20. Allemanda:Allegro
21. Adagio
22. Corrente:Vivace
23. Allegro
24. Menuetto:Vivace
Concerto No.11 in B-flat major
25. Preludio:Andante largo
26. Allemanda:Allegro
27. Adagio-Andante largo
28. Sarabanda: Largo
29. Giga:Vivace
Concerto No.12 in F major
30. Preludio:Adagio
31. Allegro
32. Adagio
33. Sarabanda:Vivace
34. Giga:Allegro

EAC log - CD 1

Exact Audio Copy V1.0 beta 3 from 29. August 2011
EAC extraction logfile from 26. November 2013, 20:20
I Solisti Italiani / Corelli - 12 Concerti Grossi
Used drive : Optiarc DVD RW AD-7173A Adapter: 3 ID: 0
Read mode : Secure
Utilize accurate stream : Yes
Defeat audio cache : Yes
Make use of C2 pointers : No
Read offset correction : 48
Overread into Lead-In and Lead-Out : No
Fill up missing offset samples with silence : Yes
Delete leading and trailing silent blocks : No
Null samples used in CRC calculations : Yes
Used interface : Native Win32 interface for Win NT & 2000
Used output format : Internal WAV Routines
Sample format : 44.100 Hz; 16 Bit; Stereo
TOC of the extracted CD
Track | Start | Length | Start sector | End sector
---------------------------------------------------------
1 | 0:00.00 | 1:09.50 | 0 | 5224
2 | 1:09.50 | 1:32.07 | 5225 | 12131
3 | 2:41.57 | 1:50.45 | 12132 | 20426
4 | 4:32.27 | 1:12.55 | 20427 | 25881
5 | 5:45.07 | 3:20.60 | 25882 | 40941
6 | 9:05.67 | 1:55.03 | 40942 | 49569
7 | 11:00.70 | 2:12.37 | 49570 | 59506
8 | 13:13.32 | 3:44.65 | 59507 | 76371
9 | 16:58.22 | 1:50.35 | 76372 | 84656
10 | 18:48.57 | 1:51.30 | 84657 | 93011
11 | 20:40.12 | 1:49.68 | 93012 | 101254
12 | 22:30.05 | 2:18.62 | 101255 | 111666
13 | 24:48.67 | 1:51.73 | 111667 | 120064
14 | 26:40.65 | 1:38.65 | 120065 | 127479
15 | 28:19.55 | 2:22.37 | 127480 | 138166
16 | 30:42.17 | 2:24.60 | 138167 | 149026
17 | 33:07.02 | 3:13.18 | 149027 | 163519
18 | 36:20.20 | 2:13.50 | 163520 | 173544
19 | 38:33.70 | 1:10.00 | 173545 | 178794
20 | 39:43.70 | 3:18.65 | 178795 | 193709
21 | 43:02.60 | 3:12.07 | 193710 | 208116
22 | 46:14.67 | 1:47.33 | 208117 | 216174
23 | 48:02.25 | 2:10.35 | 216175 | 225959
24 | 50:12.60 | 3:24.65 | 225960 | 241324
25 | 53:37.50 | 1:55.47 | 241325 | 249996
26 | 55:33.22 | 1:59.58 | 249997 | 258979
27 | 57:33.05 | 3:52.62 | 258980 | 276441
28 | 61:25.67 | 2:10.38 | 276442 | 286229
29 | 63:36.30 | 1:54.02 | 286230 | 294781
Range status and errors
Selected range
Filename C:\Scanned\1\I Solisti Italiani - Corelli - 12 Concerti Grossi.wav
Peak level 99.2 %
Extraction speed 4.5 X
Range quality 99.9 %
Copy CRC 132BB7D7
Copy OK
No errors occurred
AccurateRip summary
Track 1 accurately ripped (confidence 2) [CD05DDF3] (AR v2)
Track 2 accurately ripped (confidence 2) [1ADCB734] (AR v2)
Track 3 accurately ripped (confidence 2) [6935D6C5] (AR v2)
Track 4 accurately ripped (confidence 2) [35B81FDD] (AR v2)
Track 5 accurately ripped (confidence 2) [910ED883] (AR v2)
Track 6 accurately ripped (confidence 2) [CFBF2D9C] (AR v2)
Track 7 accurately ripped (confidence 2) [947E3F16] (AR v2)
Track 8 accurately ripped (confidence 2) [51AD4FC1] (AR v2)
Track 9 accurately ripped (confidence 2) [E78F957C] (AR v2)
Track 10 accurately ripped (confidence 2) [0B22E999] (AR v2)
Track 11 accurately ripped (confidence 2) [C8E3CE7C] (AR v2)
Track 12 accurately ripped (confidence 2) [82E6E03E] (AR v2)
Track 13 accurately ripped (confidence 2) [C051389B] (AR v2)
Track 14 accurately ripped (confidence 2) [845E154A] (AR v2)
Track 15 accurately ripped (confidence 2) [87DAF8BA] (AR v2)
Track 16 accurately ripped (confidence 2) [5C29B971] (AR v2)
Track 17 accurately ripped (confidence 2) [F7A14C18] (AR v2)
Track 18 accurately ripped (confidence 2) [83C2C022] (AR v2)
Track 19 accurately ripped (confidence 2) [FA140DEC] (AR v2)
Track 20 accurately ripped (confidence 2) [3355250B] (AR v2)
Track 21 accurately ripped (confidence 2) [2DE62C4C] (AR v2)
Track 22 accurately ripped (confidence 2) [902800E9] (AR v2)
Track 23 accurately ripped (confidence 2) [959677BB] (AR v2)
Track 24 accurately ripped (confidence 2) [23316079] (AR v2)
Track 25 accurately ripped (confidence 2) [D2828A71] (AR v2)
Track 26 accurately ripped (confidence 2) [38C2E728] (AR v2)
Track 27 accurately ripped (confidence 2) [E5FB91EB] (AR v2)
Track 28 accurately ripped (confidence 2) [361797F7] (AR v2)
Track 29 accurately ripped (confidence 2) [47A52219] (AR v2)
All tracks accurately ripped
End of status report
==== Log checksum 83F809C6E9859DFE1EA1685E46775053F41C499AEC3F2E29373F2D0BF7D0F6CC ====

EAC log - CD 2

Exact Audio Copy V1.0 beta 3 from 29. August 2011
EAC extraction logfile from 26. November 2013, 20:39
I Solisti Italiani / Corelli - 12 Concerti Grossi
Used drive : Optiarc DVD RW AD-7173A Adapter: 3 ID: 0
Read mode : Secure
Utilize accurate stream : Yes
Defeat audio cache : Yes
Make use of C2 pointers : No
Read offset correction : 48
Overread into Lead-In and Lead-Out : No
Fill up missing offset samples with silence : Yes
Delete leading and trailing silent blocks : No
Null samples used in CRC calculations : Yes
Used interface : Native Win32 interface for Win NT & 2000
Used output format : Internal WAV Routines
Sample format : 44.100 Hz; 16 Bit; Stereo
TOC of the extracted CD
Track | Start | Length | Start sector | End sector
---------------------------------------------------------
1 | 0:00.00 | 1:20.15 | 0 | 6014
2 | 1:20.15 | 1:00.60 | 6015 | 10574
3 | 2:21.00 | 2:10.03 | 10575 | 20327
4 | 4:31.03 | 2:26.17 | 20328 | 31294
5 | 6:57.20 | 1:13.28 | 31295 | 36797
6 | 8:10.48 | 1:15.25 | 36798 | 42447
7 | 9:25.73 | 1:34.05 | 42448 | 49502
8 | 11:00.03 | 2:32.15 | 49503 | 60917
9 | 13:32.18 | 3:16.17 | 60918 | 75634
10 | 16:48.35 | 1:20.30 | 75635 | 81664
11 | 18:08.65 | 1:58.63 | 81665 | 90577
12 | 20:07.53 | 3:47.27 | 90578 | 107629
13 | 23:55.05 | 1:34.48 | 107630 | 114727
14 | 25:29.53 | 2:39.72 | 114728 | 126724
15 | 28:09.50 | 1:27.23 | 126725 | 133272
16 | 29:36.73 | 0:54.57 | 133273 | 137379
17 | 30:31.55 | 0:53.33 | 137380 | 141387
18 | 31:25.13 | 1:41.35 | 141388 | 148997
19 | 33:06.48 | 2:01.62 | 148998 | 158134
20 | 35:08.35 | 1:44.23 | 158135 | 165957
21 | 36:52.58 | 0:57.32 | 165958 | 170264
22 | 37:50.15 | 1:53.23 | 170265 | 178762
23 | 39:43.38 | 1:41.60 | 178763 | 186397
24 | 41:25.23 | 1:55.67 | 186398 | 195089
25 | 43:21.15 | 2:06.15 | 195090 | 204554
26 | 45:27.30 | 1:53.10 | 204555 | 213039
27 | 47:20.40 | 2:12.70 | 213040 | 223009
28 | 49:33.35 | 1:08.13 | 223010 | 228122
29 | 50:41.48 | 1:25.42 | 228123 | 234539
30 | 52:07.15 | 2:03.20 | 234540 | 243784
31 | 54:10.35 | 2:39.08 | 243785 | 255717
32 | 56:49.43 | 2:00.55 | 255718 | 264772
33 | 58:50.23 | 0:52.25 | 264773 | 268697
34 | 59:42.48 | 3:13.40 | 268698 | 283212
Range status and errors
Selected range
Filename C:\Scanned\2\I Solisti Italiani - Corelli - 12 Concerti Grossi.wav
Peak level 89.7 %
Extraction speed 5.3 X
Range quality 99.9 %
Copy CRC A55CB6B1
Copy OK
No errors occurred
AccurateRip summary
Track 1 accurately ripped (confidence 2) [89BD0A85] (AR v2)
Track 2 accurately ripped (confidence 2) [69CB6760] (AR v2)
Track 3 accurately ripped (confidence 2) [FA88847D] (AR v2)
Track 4 accurately ripped (confidence 2) [7095980F] (AR v2)
Track 5 accurately ripped (confidence 2) [E7005E63] (AR v2)
Track 6 accurately ripped (confidence 2) [B3CCB723] (AR v2)
Track 7 accurately ripped (confidence 2) [64DC8F68] (AR v2)
Track 8 accurately ripped (confidence 2) [48519B63] (AR v2)
Track 9 accurately ripped (confidence 2) [44DAFA35] (AR v2)
Track 10 accurately ripped (confidence 2) [C7A730DE] (AR v2)
Track 11 accurately ripped (confidence 2) [31360886] (AR v2)
Track 12 accurately ripped (confidence 2) [72FBEB87] (AR v2)
Track 13 accurately ripped (confidence 2) [6743BC15] (AR v2)
Track 14 accurately ripped (confidence 2) [EB095D3B] (AR v2)
Track 15 accurately ripped (confidence 2) [6207EDCE] (AR v2)
Track 16 accurately ripped (confidence 2) [50DDB085] (AR v2)
Track 17 accurately ripped (confidence 2) [2A6661D0] (AR v2)
Track 18 accurately ripped (confidence 2) [291886B2] (AR v2)
Track 19 accurately ripped (confidence 2) [0F789F05] (AR v2)
Track 20 accurately ripped (confidence 2) [1FE8DB33] (AR v2)
Track 21 accurately ripped (confidence 2) [12466DD4] (AR v2)
Track 22 accurately ripped (confidence 2) [CA48A6A2] (AR v2)
Track 23 accurately ripped (confidence 2) [BF7DA9B0] (AR v2)
Track 24 accurately ripped (confidence 2) [E253F393] (AR v2)
Track 25 accurately ripped (confidence 2) [BE9C1ACB] (AR v2)
Track 26 accurately ripped (confidence 2) [E75694F2] (AR v2)
Track 27 accurately ripped (confidence 2) [317875B1] (AR v2)
Track 28 accurately ripped (confidence 2) [923278E8] (AR v2)
Track 29 accurately ripped (confidence 2) [24DB33A3] (AR v2)
Track 30 accurately ripped (confidence 2) [F7CF3E6D] (AR v2)
Track 31 accurately ripped (confidence 2) [71AB268F] (AR v2)
Track 32 accurately ripped (confidence 2) [4948FE0D] (AR v2)
Track 33 accurately ripped (confidence 2) [94326252] (AR v2)
Track 34 accurately ripped (confidence 2) [A8AFB22E] (AR v2)
All tracks accurately ripped
End of status report
==== Log checksum E443F618790A6713B1F9C6A51D7F3E9CF3F3AC9A85330A911206E226443E994F ====
[teatrix.ru].t17994.torrent 
Торрент: Зарегистрирован [ 2016-03-17 00:46 ] · CE43743A9DED9B1D1441AD28FF8C585E885BAA67

Скачать .torrent

Скачать

14 KB

Статус: проверено
Скачан: 0 раз
Размер: 668 MB
terms.php



Быстрый ответ

Имя:

      
Для отправки сообщений необходимо включить JavaScript
Показать сообщения:    

Текущее время: 11-Дек 13:02

Часовой пояс: UTC + 3


Вы можете начинать темы
Вы можете отвечать на сообщения
Вы не можете редактировать свои сообщения
Вы не можете удалять свои сообщения
Вы не можете голосовать в опросах
Вы не можете прикреплять файлы к сообщениям
Вы можете скачивать файлы