(Classical / Baroque) Antonio Vivaldi - 6 Concerti, Op.12 - I Solisti Italiani - 2007, FLAC (image+.cue) lossless


Статистика раздачи [Обновить пиров]
Размер:  336 MB   |    Зарегистрирован:  8 месяцев 22 дня   |    Скачан:  0 раз

Полного источника не было: Никогда

 
   
 
 
 

[Цитировать]

Antonio Vivaldi - 6 Concerti, Op.12 - I Solisti Italiani
Жанр: Classical / Baroque
Страна-производитель диска: Japan
Год издания диска: 2007
Издатель (лейбл): DENON
Номер по каталогу: COCO-70897
Дата записи: 1994
Аудиокодек: FLAC
Тип рипа: image+.cue
Битрейт аудио: lossless
Продолжительность: 57'51
Источник: собственный рип
Наличие сканов в содержимом раздачи: да

Треклист:

Concerto No.1 in G minor for violin, strings & continuo RV317, F.I-211, P.343
1. I - Allegro
2. II - Largo
3. III - Allegro
Concerto No.2 in D minor for violin, strings & continuo, RV244, F.I-212, P.263
4. I - Allegro
5. II - Larghetto
6. III - Allegro
Concerto No.3 in D major for strings & continuo, RV124, F.XI-42, P.157
7. I - Allegro
8. II -Grave
9. III - Allegro
Concerto No.4 in С major for violin, strings & continuo, RV173, F.I-213, P.11
10. I - Largo e spiccato. (Allegro molto moderato)
11. II - Largo
12. III - Allegro
Concerto No.5 in B-flal major for violin, strings & continue, RV379, F.I-86, P.344
13. I - Allegro
14. II - Largo
15. III - Allegro
Concerto No.6 in B-flat major for violin, strings & continuo, RV361, F.I-214, P.345
16. I - Allegro
17. II - Largo
18. III - Allegro

Исполнители:

I Solisti Italiani
Violin:
Antonio De Secondi (solo: No.2)
Luca Fanfoni
Federico Guglielmo (solo: No.1)
Giovanni Guglielmo (solo: No.6)
Carlo Lazari (solo: No.4)
Gigino Maestri (solo: No.5)
Viola:
Alfonso Ghedin
Marcello Turio

Violoncello:
Giorgio Ravenna
Alfredo Riccardi

Double bass: Gianni Amadio
harpsichord: Edoardo Farina

EAC log

Exact Audio Copy V1.0 beta 3 from 29. August 2011
EAC extraction logfile from 26. November 2013, 19:53
Antonio Vivaldi / Antonio Vivaldi: 6 Concerti, Op. 12
Used drive : Optiarc DVD RW AD-7173A Adapter: 3 ID: 0
Read mode : Secure
Utilize accurate stream : Yes
Defeat audio cache : Yes
Make use of C2 pointers : No
Read offset correction : 48
Overread into Lead-In and Lead-Out : No
Fill up missing offset samples with silence : Yes
Delete leading and trailing silent blocks : No
Null samples used in CRC calculations : Yes
Used interface : Native Win32 interface for Win NT & 2000
Used output format : Internal WAV Routines
Sample format : 44.100 Hz; 16 Bit; Stereo
TOC of the extracted CD
Track | Start | Length | Start sector | End sector
---------------------------------------------------------
1 | 0:00.00 | 4:26.00 | 0 | 19949
2 | 4:26.00 | 4:58.05 | 19950 | 42304
3 | 9:24.05 | 3:21.32 | 42305 | 57411
4 | 12:45.37 | 3:52.13 | 57412 | 74824
5 | 16:37.50 | 3:18.55 | 74825 | 89729
6 | 19:56.30 | 2:43.57 | 89730 | 102011
7 | 22:40.12 | 2:20.45 | 102012 | 112556
8 | 25:00.57 | 2:01.25 | 112557 | 121656
9 | 27:02.07 | 1:54.05 | 121657 | 130211
10 | 28:56.12 | 4:04.73 | 130212 | 148584
11 | 33:01.10 | 2:34.22 | 148585 | 160156
12 | 35:35.32 | 2:51.18 | 160157 | 172999
13 | 38:26.50 | 3:47.70 | 173000 | 190094
14 | 42:14.45 | 3:05.50 | 190095 | 204019
15 | 45:20.20 | 3:26.42 | 204020 | 219511
16 | 48:46.62 | 4:15.23 | 219512 | 238659
17 | 53:02.10 | 2:33.65 | 238660 | 250199
18 | 55:36.00 | 4:02.10 | 250200 | 268359
Range status and errors
Selected range
Filename C:\Scanned\1\Antonio Vivaldi - Antonio Vivaldi- 6 Concerti, Op. 12.wav
Peak level 96.1 %
Extraction speed 3.9 X
Range quality 99.9 %
Copy CRC 2C54C53B
Copy OK
No errors occurred
AccurateRip summary
Track 1 cannot be verified as accurate (confidence 2) [E9C98EC9], AccurateRip returned [42141968] (AR v2)
Track 2 cannot be verified as accurate (confidence 2) [001856C8], AccurateRip returned [63546E8E] (AR v2)
Track 3 cannot be verified as accurate (confidence 2) [1234113E], AccurateRip returned [1AF09A9D] (AR v2)
Track 4 cannot be verified as accurate (confidence 2) [BD6E1748], AccurateRip returned [E8DC66BA] (AR v2)
Track 5 cannot be verified as accurate (confidence 2) [ADC22535], AccurateRip returned [0B4DC10D] (AR v2)
Track 6 cannot be verified as accurate (confidence 2) [A501260A], AccurateRip returned [609EEBFF] (AR v2)
Track 7 cannot be verified as accurate (confidence 2) [0181914C], AccurateRip returned [44EE9B0B] (AR v2)
Track 8 cannot be verified as accurate (confidence 2) [E9786E76], AccurateRip returned [56D9BFD5] (AR v2)
Track 9 cannot be verified as accurate (confidence 2) [74739B13], AccurateRip returned [2618537D] (AR v2)
Track 10 cannot be verified as accurate (confidence 2) [4273A5EB], AccurateRip returned [454761E2] (AR v2)
Track 11 cannot be verified as accurate (confidence 2) [81528D64], AccurateRip returned [5EA5C597] (AR v2)
Track 12 cannot be verified as accurate (confidence 2) [9A3C5BBF], AccurateRip returned [B67E4EF0] (AR v2)
Track 13 cannot be verified as accurate (confidence 2) [4E5C2943], AccurateRip returned [64BB4EA0] (AR v2)
Track 14 cannot be verified as accurate (confidence 2) [6C5B161B], AccurateRip returned [1717F567] (AR v2)
Track 15 cannot be verified as accurate (confidence 2) [A328CD9A], AccurateRip returned [52554DD3] (AR v2)
Track 16 cannot be verified as accurate (confidence 2) [9EC63FB8], AccurateRip returned [4AFA54AF] (AR v2)
Track 17 cannot be verified as accurate (confidence 2) [04D0E6C3], AccurateRip returned [14F9E61E] (AR v2)
Track 18 cannot be verified as accurate (confidence 2) [18DD45F1], AccurateRip returned [4BC32A18] (AR v2)
No tracks could be verified as accurate
You may have a different pressing from the one(s) in the database
End of status report
==== Log checksum 12218BD344AB57BF4AA5F74A930E93A829937B94CDF6C37722B656A1D104B91C ====
[teatrix.ru].t17995.torrent 
Торрент: Зарегистрирован [ 2016-03-17 00:46 ] · 11ACF1D6B64E5438294A58ACDAD0B46EF1EA6149

Скачать .torrent

Скачать

14 KB

Статус: проверено
Скачан: 0 раз
Размер: 336 MB
terms.php



Быстрый ответ

Имя:

      
Для отправки сообщений необходимо включить JavaScript
Показать сообщения:    

Текущее время: 08-Дек 19:05

Часовой пояс: UTC + 3


Вы можете начинать темы
Вы можете отвечать на сообщения
Вы не можете редактировать свои сообщения
Вы не можете удалять свои сообщения
Вы не можете голосовать в опросах
Вы не можете прикреплять файлы к сообщениям
Вы можете скачивать файлы