(Classical / Baroque) Italian Baroque Oboe Concerti - I Solisti Italiani - 2007, FLAC (image+.cue) lossless


Статистика раздачи [Обновить пиров]
Размер:  344 MB   |    Зарегистрирован:  8 месяцев 19 дней   |    Скачан:  0 раз

Полного источника не было: Никогда

 
   
 
 
 

[Цитировать]

Italian Baroque Oboe Concerti - I Solisti Italiani
Жанр: Classical / Baroque
Страна-производитель диска: Japan
Год издания диска: 2007
Издатель (лейбл): DENON
Номер по каталогу: COCO-70898
Дата записи: 1992
Аудиокодек: FLAC
Тип рипа: image+.cue
Битрейт аудио: lossless
Продолжительность: 58'26
Источник: собственный рип
Наличие сканов в содержимом раздачи: да
I Solisti Italiani
Hansjorg Schellenberger, oboe
violins:
Paolo Ciociola, Antonio De Secondi
Luca Fanfoni, Fedrico Guglielmo
Giovanni Gugiielmo, Giqino Maestri

violas:
Alfonso Ghedin, Marcello Turio
violoncellos:
Alfredo Riccardi, Giorgio Ravenna
double bass:
Gianni Amadio
harpsichord:
Edoardo Farina

Треклист:

Antonio Vivaldi (1678-1741)
Concerto in D Minor, Op.8 No.9 RV454 F.VII-1, for Oboe, Strings & Continuo
1. I - Allegro (moderato)
2. II - Largo
3. III - Allegro
Tomaso Albinoni (1671-1751)
Concerto a cinque in B-flat Major, Op.9 No.11, for Oboe, Strings & Continuo
4. I - Allegro
5. II - Adagio
6. III - Allegro
Domenico Scarlatti (1685-1757)
3 Sinfonias for Oboe, Strings & Continuo
No.1 in G Major
7. I - Allegro
8. II - Grave
9. III - Minuet; Allegro
No.2 in B-flat Major
10. I - Allegro
11. II - Grave
12. III - Allegro
No.3 in G Major
13. I - Allegro
14. II - Grave
15. III - Allegro
Antonio Vivaldi
Concerto in С Major. RV447 F.VII-6, for Oboe, Strings & Continuo
16. I - Allegro non molto
17. II - Larghetto
18. III - Minuetto
Tomaso Albinoni
Concerto о cinque in D Minor, Op.9 No.2, for Oboe, Strings & Continuo
19. I - Allegro e non presto
20. II - Adagio
21. III - Allegro

EAC log

Exact Audio Copy V1.0 beta 3 from 29. August 2011
EAC extraction logfile from 22. December 2013, 17:56
Hansjörg Schellenberger, I Solisti Italiani / Italian Baroque Oboe Concerti
Used drive : Optiarc DVD RW AD-7173A Adapter: 3 ID: 0
Read mode : Secure
Utilize accurate stream : Yes
Defeat audio cache : Yes
Make use of C2 pointers : No
Read offset correction : 48
Overread into Lead-In and Lead-Out : No
Fill up missing offset samples with silence : Yes
Delete leading and trailing silent blocks : No
Null samples used in CRC calculations : Yes
Used interface : Native Win32 interface for Win NT & 2000
Used output format : Internal WAV Routines
Sample format : 44.100 Hz; 16 Bit; Stereo
TOC of the extracted CD
Track | Start | Length | Start sector | End sector
---------------------------------------------------------
1 | 0:00.00 | 3:19.40 | 0 | 14964
2 | 3:19.40 | 2:25.23 | 14965 | 25862
3 | 5:44.63 | 2:38.50 | 25863 | 37762
4 | 8:23.38 | 4:11.37 | 37763 | 56624
5 | 12:35.00 | 2:22.63 | 56625 | 67337
6 | 14:57.63 | 3:16.37 | 67338 | 82074
7 | 18:14.25 | 1:40.45 | 82075 | 89619
8 | 19:54.70 | 0:50.05 | 89620 | 93374
9 | 20:45.00 | 1:44.50 | 93375 | 101224
10 | 22:29.50 | 2:49.13 | 101225 | 113912
11 | 25:18.63 | 0:35.52 | 113913 | 116589
12 | 25:54.40 | 0:49.50 | 116590 | 120314
13 | 26:44.15 | 2:36.18 | 120315 | 132032
14 | 29:20.33 | 1:37.50 | 132033 | 139357
15 | 30:58.08 | 1:25.70 | 139358 | 145802
16 | 32:24.03 | 5:07.65 | 145803 | 168892
17 | 37:31.68 | 4:10.35 | 168893 | 187677
18 | 41:42.28 | 6:31.10 | 187678 | 217012
19 | 48:13.38 | 3:50.72 | 217013 | 234334
20 | 52:04.35 | 4:53.65 | 234335 | 256374
21 | 56:58.25 | 2:51.50 | 256375 | 269249
Range status and errors
Selected range
Filename C:\Scanned\1\Hansjörg Schellenberger, I Solisti Italiani - Italian Baroque Oboe Concerti.wav
Peak level 98.9 %
Extraction speed 4.9 X
Range quality 100.0 %
Copy CRC A4E69F39
Copy OK
No errors occurred
AccurateRip summary
Track 1 cannot be verified as accurate (confidence 3) [2D471043], AccurateRip returned [70CB8607] (AR v2)
Track 2 cannot be verified as accurate (confidence 3) [35FCA4AD], AccurateRip returned [12670078] (AR v2)
Track 3 cannot be verified as accurate (confidence 3) [2BD56DCB], AccurateRip returned [FD213858] (AR v2)
Track 4 cannot be verified as accurate (confidence 3) [7D974A74], AccurateRip returned [BC31E66A] (AR v2)
Track 5 cannot be verified as accurate (confidence 3) [6819B5EB], AccurateRip returned [7B5B0CFB] (AR v2)
Track 6 cannot be verified as accurate (confidence 3) [9D751B51], AccurateRip returned [9A10F0EE] (AR v2)
Track 7 cannot be verified as accurate (confidence 3) [7EBE2AD4], AccurateRip returned [5DAD5CF1] (AR v2)
Track 8 cannot be verified as accurate (confidence 3) [CA9B63FA], AccurateRip returned [073F3CDA] (AR v2)
Track 9 cannot be verified as accurate (confidence 3) [261BF138], AccurateRip returned [5792CBD2] (AR v2)
Track 10 cannot be verified as accurate (confidence 3) [795AC38B], AccurateRip returned [0DFE0294] (AR v2)
Track 11 cannot be verified as accurate (confidence 3) [C025E6EB], AccurateRip returned [B7A9F57D] (AR v2)
Track 12 cannot be verified as accurate (confidence 3) [D085EF76], AccurateRip returned [17BB6623] (AR v2)
Track 13 cannot be verified as accurate (confidence 3) [0BC950C7], AccurateRip returned [6216F80F] (AR v2)
Track 14 cannot be verified as accurate (confidence 3) [3CE3183F], AccurateRip returned [7715218F] (AR v2)
Track 15 cannot be verified as accurate (confidence 3) [66F8A19D], AccurateRip returned [ACC33600] (AR v2)
Track 16 cannot be verified as accurate (confidence 3) [47BEFA63], AccurateRip returned [098EEADB] (AR v2)
Track 17 cannot be verified as accurate (confidence 3) [4ACCC6C3], AccurateRip returned [0ED08387] (AR v2)
Track 18 cannot be verified as accurate (confidence 3) [A3E4514B], AccurateRip returned [FF2E94A6] (AR v2)
Track 19 cannot be verified as accurate (confidence 3) [214111F6], AccurateRip returned [E8934415] (AR v2)
Track 20 cannot be verified as accurate (confidence 3) [DF50247B], AccurateRip returned [C60D23EE] (AR v2)
Track 21 cannot be verified as accurate (confidence 3) [FA8EB6CB], AccurateRip returned [DD02CB26] (AR v2)
No tracks could be verified as accurate
You may have a different pressing from the one(s) in the database
End of status report
==== Log checksum 9BB83DA5AE9EBD77A7CC380F6F1A12B124E05FD7173DF563581B2FE70E2C6D6E ====
[teatrix.ru].t17998.torrent 
Торрент: Зарегистрирован [ 2016-03-17 00:46 ] · CE60BC484E9CD7A919E2291C34A673122ACC2554

Скачать .torrent

Скачать

15 KB

Статус: проверено
Скачан: 0 раз
Размер: 344 MB
terms.php



Быстрый ответ

Имя:

      
Для отправки сообщений необходимо включить JavaScript
Показать сообщения:    

Текущее время: 05-Дек 19:35

Часовой пояс: UTC + 3


Вы можете начинать темы
Вы можете отвечать на сообщения
Вы не можете редактировать свои сообщения
Вы не можете удалять свои сообщения
Вы не можете голосовать в опросах
Вы не можете прикреплять файлы к сообщениям
Вы можете скачивать файлы