(Classical / Baroque) Ombra Mai Fu (Celebrated Baroque Pieces) - I Solisti Italiani (Galluppi, Handel, Pachelbel, Bonporti, Geminiani, Vivaldi, Albinoni, J.S Bach) - 2010, FLAC (image+.cue) lossless


Статистика раздачи [Обновить пиров]
Размер:  314 MB   |    Зарегистрирован:  8 месяцев 20 дней   |    Скачан:  1 раз

Полного источника не было: 2 месяца 18 дней

 
   
 
 
 

[Цитировать]

Ombra Mai Fù
Celebrated Baroque Pieces - I Solisti Italiani
Жанр: Classical / Baroque
Страна-производитель диска: Japan
Год издания диска: 2010
Издатель (лейбл): DENON
Номер по каталогу: COCO-73168
Дата записи: 1988
Аудиокодек: FLAC
Тип рипа: image+.cue
Битрейт аудио: lossless
Продолжительность: 63'27
Источник: собственный рип
Наличие сканов в содержимом раздачи: да
Исполнители:
I Solisti Italiani

Треклист:

1. Galluppi: Andantino con moto from Concerto in G major for Harpsichord and Strings
2. Handel: Overture: (Allegro) from Water Music, Suite II in F major HWV 349
(Variant II to No.11/Transcription for Trumpet, Strings and Basso continuo)
3. Pachelbel: Canon for 3 Violin & Basso cntinuo
4. Bonporti: Rezitativo: Adagio assai
from Concerto in F major for Violin and Strings, Op.11 No.5
5. Geminiani: Concerto Grosso in D minor "La Follia"
from Sonata for Violin, Viola and Basso continuo, Op.5 No.12 by Arcangelo Corelli
6. Handel: Largo (Ombra mai fix) from "Serse (Xerxes)" Opera, HWV 40
(Transcription for Trumper, Strings and Basso continuo)
7. Vivaldi: Concerto in G major for Strings and Basso continuo RV. 151 F. XI-11 "Alia rustica"
8. Albinoni - (Giazotto): Adagio in G minor for Strings ond Organ
9. Handel: Allegro from Concerto grosso in D minor, Op.6 No. 10, HWV 328
10. J.S Bach: Air from Overture (Orchestral Suite) No.3 in D major, BWV 1068
11. Vivaldi: Andante from Concerto in D minor for 2 Violins, Strings and Basso continuo, RV.395a F II-3
12. J.S Bach: Allegro from Concerto in D minor for 2 Violins, Strings and Basso continuo, BWV 1043
13. J.S Bach: Jesus Bleibet Meine Freude, Chorale from "Herz und Mund und Tat und Leben" Cantata BWV 147
(Transcription for Trumpet, Strings and Basso continuo)

EAC log

Exact Audio Copy V1.0 beta 3 from 29. August 2011
EAC extraction logfile from 22. December 2013, 22:20
I Solisti Italiani / Ombra Mai Fu - Pachelbel Canon - Celebrated Baroque Pieces
Used drive : Optiarc DVD RW AD-7173A Adapter: 3 ID: 0
Read mode : Secure
Utilize accurate stream : Yes
Defeat audio cache : Yes
Make use of C2 pointers : No
Read offset correction : 48
Overread into Lead-In and Lead-Out : No
Fill up missing offset samples with silence : Yes
Delete leading and trailing silent blocks : No
Null samples used in CRC calculations : Yes
Used interface : Native Win32 interface for Win NT & 2000
Used output format : Internal WAV Routines
Sample format : 44.100 Hz; 16 Bit; Stereo
TOC of the extracted CD
Track | Start | Length | Start sector | End sector
---------------------------------------------------------
1 | 0:00.00 | 3:04.63 | 0 | 13862
2 | 3:04.63 | 3:25.42 | 13863 | 29279
3 | 6:30.30 | 5:08.38 | 29280 | 52417
4 | 11:38.68 | 4:54.57 | 52418 | 74524
5 | 16:33.50 | 11:12.23 | 74525 | 124947
6 | 27:45.73 | 3:31.40 | 124948 | 140812
7 | 31:17.38 | 3:47.35 | 140813 | 157872
8 | 35:04.73 | 9:43.17 | 157873 | 201614
9 | 44:48.15 | 2:57.63 | 201615 | 214952
10 | 47:46.03 | 5:43.62 | 214953 | 240739
11 | 53:29.65 | 2:20.40 | 240740 | 251279
12 | 55:50.30 | 5:03.18 | 251280 | 274022
13 | 60:53.48 | 3:49.40 | 274023 | 291237
Range status and errors
Selected range
Filename C:\Scanned\1\I Solisti Italiani - Ombra Mai Fu - Pachelbel Canon - Celebrated Baroque Pieces.wav
Peak level 92.3 %
Extraction speed 4.1 X
Range quality 99.9 %
Copy CRC BC4848E8
Copy OK
No errors occurred
AccurateRip summary
Track 1 accurately ripped (confidence 3) [7158330E] (AR v2)
Track 2 accurately ripped (confidence 3) [4812142D] (AR v2)
Track 3 accurately ripped (confidence 3) [F27659C2] (AR v2)
Track 4 accurately ripped (confidence 3) [5D3AAB04] (AR v2)
Track 5 accurately ripped (confidence 3) [C0F7772D] (AR v2)
Track 6 accurately ripped (confidence 3) [9297407C] (AR v2)
Track 7 accurately ripped (confidence 3) [E85BCB4E] (AR v2)
Track 8 accurately ripped (confidence 3) [DF526C2B] (AR v2)
Track 9 accurately ripped (confidence 3) [CC772F64] (AR v2)
Track 10 accurately ripped (confidence 3) [3E2079CA] (AR v2)
Track 11 accurately ripped (confidence 3) [52020051] (AR v2)
Track 12 accurately ripped (confidence 3) [1B65920A] (AR v2)
Track 13 accurately ripped (confidence 3) [D4623715] (AR v2)
All tracks accurately ripped
End of status report
==== Log checksum 668469BA46B74D97A95E35F12D07EC1EA5058C9153C4E6BCBF47AE615491A3BA ====
[teatrix.ru].t17999.torrent 
Торрент: Зарегистрирован [ 2016-03-17 00:46 ] · 94390117FB1479C08EBD4FB06D5330F744DED9C8

Скачать .torrent

Скачать

13 KB

Статус: проверено
Скачан: 1 раз
Размер: 314 MB
terms.php



Быстрый ответ

Имя:

      
Для отправки сообщений необходимо включить JavaScript
Показать сообщения:    

Текущее время: 06-Дек 17:04

Часовой пояс: UTC + 3


Вы можете начинать темы
Вы можете отвечать на сообщения
Вы не можете редактировать свои сообщения
Вы не можете удалять свои сообщения
Вы не можете голосовать в опросах
Вы не можете прикреплять файлы к сообщениям
Вы можете скачивать файлы