(Sacred) Stuttgarter Hymnus-Chorknaben, Homburg, Johannsen u.a. - Machet die Tore weit (Hammerschmidt Praetorius Wilcocks Brahms Eccard Riedel J.S.Bach Becker Reda) 2011 APE (img+cue) lossless


Статистика раздачи [Обновить пиров]
Размер:  281 MB   |    Зарегистрирован:  8 месяцев 25 дней   |    Скачан:  0 раз

Полного источника не было: Никогда

 
   
 
 
 

[Цитировать]

Machet die Tore weit: Chor- und Orgelmusik zu Advent und Weihnachten
Жанр: Sacred
Страна-производитель диска: Germany
Год издания диска: 2011
Издатель (лейбл): MDG "Scene"
Номер по каталогу: 902 1725-6
Дата записи: 2011
Аудиокодек: APE
Тип рипа: image+.cue
Битрейт аудио: lossless
Продолжительность: 01:05:39
Источник: скачано с avaxhome
Наличие сканов в содержимом раздачи: да
Треклист:
01 Hammerschmidt, Andreas - Machet die Tore weit 1:56
02 Praetorius, Michael - Der Morgenstern ist aufgedrungen 2:40
03 Schmidt, Walter - Zu Beth´lem überm Stall 2:27
04 Praetorius, Michael - Den die Hirten lobeten sehre 5:51
05 Schütz, Heinrich - Die Himmel erzählen die Ehre 4:07
06 Clanché, Jean - Wunderbare Freude 5:00
07 Wilcocks, David - Herbei o ihr Gläubigen 4:26
08 Brahms, Johannes - O Heiland, reiß die Himmel auf 4:29
09 Eccard, Johann - Nun kommt der Heiden Heiland 2:56
10 Wilcocks, David - O komm, o komm Immanuel 4:09
11 Praetorius, Michael - Es ist ein Ros entsprungen 4:20
12 Reda, Siegfried - Magnificat peregrini toni 4:44
13 Eccard, Johann - Übers Gebirg Maria ging 2:55
14 Riedel, Carl - Kommet, ihr Hirten 1:31
15 Becker, Albert - Fürchtet euch nicht 2:53
16 Schütz, Heinrich - Also hat Gott die Welt geliebt 2:30
17 Bach, Johann Sebastian - Fürchte dich nicht 8:44
Исполнители:
Stuttgarter Hymnus-Chorknaben
Kay Johannsen, Orgel (01, 02, 04, 05, 06, 07, 09, 10, 11, 12, 16, 17)
Michael Aures, Schlagzeug (01, 02, 03, 04, 07, 11)
Daniel Kartmann, Schlagzeug (01, 02, 03, 07, 09, 11)
Katarzyna Mycka, Marimbaphon und Vibraphon (03, 06, 09, 10, 11)
Handel's Company Continuo (Sibylle Huntgeburth, Violoncello Jörg Lühring, Violone) (05, 16, 17)
Rainer Johannes Homburg, Leitung

Лог создания рипа

Exact Audio Copy V1.0 beta 3 from 29. August 2011
EAC extraction logfile from 8. July 2013, 19:28
Stuttgarter Hymnus-Chorknaben / Machet die Tore weit - Chor- und Orgelmusik zu Advent und Weihnachten
Used drive : PIONEER BD-RW BDR-206 Adapter: 0 ID: 2
Read mode : Secure
Utilize accurate stream : Yes
Defeat audio cache : Yes
Make use of C2 pointers : No
Read offset correction : 667
Overread into Lead-In and Lead-Out : No
Fill up missing offset samples with silence : Yes
Delete leading and trailing silent blocks : No
Null samples used in CRC calculations : Yes
Used interface : Native Win32 interface for Win NT & 2000
Used output format : User Defined Encoder
Selected bitrate : 1024 kBit/s
Quality : High
Add ID3 tag : Yes
Command line compressor : C:\Program Files\FLAC\flac.exe
Additional command line options : -5 -T "Artist=%artist%" -T "Title=%title%" -T "Album=%albumtitle%" -T "Date=%year%" -T "Tracknumber=%tracknr%" -T "Genre=%genre%" %source% -o %dest%
TOC of the extracted CD
Track | Start | Length | Start sector | End sector
---------------------------------------------------------
1 | 0:00.00 | 1:55.50 | 0 | 8674
2 | 1:55.50 | 2:40.10 | 8675 | 20684
3 | 4:35.60 | 2:27.11 | 20685 | 31720
4 | 7:02.71 | 5:51.33 | 31721 | 58078
5 | 12:54.29 | 4:07.14 | 58079 | 76617
6 | 17:01.43 | 5:00.30 | 76618 | 99147
7 | 22:01.73 | 4:25.46 | 99148 | 119068
8 | 26:27.44 | 4:29.13 | 119069 | 139256
9 | 30:56.57 | 2:56.13 | 139257 | 152469
10 | 33:52.70 | 4:09.34 | 152470 | 171178
11 | 38:02.29 | 4:20.11 | 171179 | 190689
12 | 42:22.40 | 4:44.34 | 190690 | 212023
13 | 47:06.74 | 2:55.09 | 212024 | 225157
14 | 50:02.08 | 1:30.66 | 225158 | 231973
15 | 51:32.74 | 2:53.05 | 231974 | 244953
16 | 54:26.04 | 2:29.42 | 244954 | 256170
17 | 56:55.46 | 8:43.42 | 256171 | 295437
Range status and errors
Selected range
Filename F:\=== VINYL RIPS ===\=== EAC===\X FRESH RIP\Stuttgarter Hymnus-Chorknaben - Machet die Tore weit.wav
Peak level 100.0 %
Extraction speed 7.8 X
Range quality 99.9 %
Test CRC 818CE853
Copy CRC 818CE853
Copy OK
No errors occurred
AccurateRip summary
Track 1 not present in database
Track 2 not present in database
Track 3 not present in database
Track 4 not present in database
Track 5 not present in database
Track 6 not present in database
Track 7 not present in database
Track 8 not present in database
Track 9 not present in database
Track 10 not present in database
Track 11 not present in database
Track 12 not present in database
Track 13 not present in database
Track 14 not present in database
Track 15 not present in database
Track 16 not present in database
Track 17 not present in database
None of the tracks are present in the AccurateRip database
End of status report
---- CUETools DB Plugin V2.1.3
[CTDB TOCID: ju1Rcj__r3bpzUFAo6xGUBLeayE-] disk not present in database, Submit result: ju1Rcj__r3bpzUFAo6xGUBLeayE- has been uploaded
==== Log checksum 6F107E62298B29DACD976DCB7ECF1659404C89B5BC787693BCA415141F84345E ====

Лог проверки качества

AUDIOCHECKER v2.0 beta (build 457) - by Dester - opdester@freemail.hu
~~~~~~~~~~~~~~~~~~~~~~~~~~~~~~~~~~
-=== DO NOT EDIT THIS FILE! ===-
Path: ...\CD
1 -=- Stuttgarter Hymnus-Chorknaben - Machet die Tore weit.wav -=- CDDA (99%)
190203924
[teatrix.ru].t18000.torrent 
Торрент: Зарегистрирован [ 2016-03-17 00:46 ] · 90C4AFBEDB46EAC80A04AF0F5F19090890BC6CF9

Скачать .torrent

Скачать

12 KB

Статус: проверено
Скачан: 0 раз
Размер: 281 MB
terms.php



Быстрый ответ

Имя:

      
Для отправки сообщений необходимо включить JavaScript
Показать сообщения:    

Текущее время: 11-Дек 14:56

Часовой пояс: UTC + 3


Вы можете начинать темы
Вы можете отвечать на сообщения
Вы не можете редактировать свои сообщения
Вы не можете удалять свои сообщения
Вы не можете голосовать в опросах
Вы не можете прикреплять файлы к сообщениям
Вы можете скачивать файлы