(Cantata) Handel - Italian cantatas, The Alchymist - Kirkby, Nelson, Thomas; AAM, Hogwood - 1991, FLAC (image+.cue) lossless


 

[Цитировать]

George Frideric Handel - Italian cantatas, The Alchymist - Kirkby, Nelson, Thomas; AAM, Hogwood
Жанр: Cantata
Страна-производитель диска: EU
Год издания диска: 1991
Издатель (лейбл): Oiseau Lyre
Номер по каталогу: 430282
Дата записи: 1981-1982
Аудиокодек: FLAC
Тип рипа: image+.cue
Битрейт аудио: lossless
Продолжительность: 67:40
Источник: релизер Saoshya / Source: ripped and scanned by Saoshya
Важная информация: oпубликовано с разрешением Saoshya и MeetingInMusic blogspot / Important note: posted with the kind permission of Saoshya and MeetingInMusic blogspot
Наличие сканов в содержимом раздачи: да
Треклист:
[01] Duetto XV: Quel fior che all'alba ride
[02]-[03] Cantata 36: Nell'Africane selve
[04] Duetto XVI: No, di voi non vo' fidarmi
[05]-[06] Cantata 37: Nella stagion che, di viole e rose
[07] Duetto X: Tacete, ohimé, tacete!
[08] Trio I: Se tu non lasci amore
[09]-[12] Music for "The Alchymist"
[13] from "The Universal Passion": I like the am'rous youth that's free
[14] from "The What D'ye Call It": 'Twas when the seas were roaring
[15] from "The Way of the World": Love's but the frailty of the mind
Исполнители:
Emma Kirkby, Judith Nelson, sopranos
David Thomas, bass
The Academy of Ancient Music, Christopher Hogwood

Лог создания рипа

Exact Audio Copy V0.99 prebeta 4 from 23. January 2008
EAC extraction logfile from 23. December 2013, 0:15
Academy of Ancient Music, Christopher Hogwood / George Frideric Handel - Italian Cantatas; The Alchymist
Used drive : SONY DVD-ROM DDU1615 Adapter: 0 ID: 0
Read mode : Secure
Utilize accurate stream : Yes
Defeat audio cache : Yes
Make use of C2 pointers : No
Read offset correction : 6
Overread into Lead-In and Lead-Out : No
Fill up missing offset samples with silence : Yes
Delete leading and trailing silent blocks : No
Null samples used in CRC calculations : Yes
Used interface : Native Win32 interface for Win NT & 2000
Used output format : User Defined Encoder
Selected bitrate : 1024 kBit/s
Quality : High
Add ID3 tag : No
Command line compressor : C:\Program Files\REACT\REACT.exe
Additional command line options : REACT %o %s %d "%a" "%g" "%t" "%n" "%x" "%y" "%m" "%e" "%f" "%b" %r
TOC of the extracted CD
Track | Start | Length | Start sector | End sector
---------------------------------------------------------
1 | 0:00.00 | 4:51.25 | 0 | 21849
2 | 4:51.25 | 5:48.50 | 21850 | 47999
3 | 10:40.00 | 4:53.62 | 48000 | 70036
4 | 15:33.62 | 5:42.25 | 70037 | 95711
5 | 21:16.12 | 4:53.25 | 95712 | 117711
6 | 26:09.37 | 3:29.13 | 117712 | 133399
7 | 29:38.50 | 6:59.00 | 133400 | 164824
8 | 36:37.50 | 5:17.50 | 164825 | 188649
9 | 41:55.25 | 4:01.22 | 188650 | 206746
10 | 45:56.47 | 3:03.38 | 206747 | 220509
11 | 49:00.10 | 4:51.45 | 220510 | 242379
12 | 53:51.55 | 3:44.45 | 242380 | 259224
13 | 57:36.25 | 2:12.12 | 259225 | 269136
14 | 59:48.37 | 3:48.50 | 269137 | 286286
15 | 63:37.12 | 4:02.38 | 286287 | 304474
Range status and errors
Selected range
Filename L:\Stereo Culture Square\L'Oiseau-Lyre 430282-2 George Frideric Handel - Italian Cantatas (Academy of Ancient Music, C. Hogwood)\CDImage\Handel - Italian Cantatas; The Alchymist - Academy of Ancient Music.wav
Peak level 99.3 %
Range quality 100.0 %
Test CRC 75F0515D
Copy CRC 75F0515D
Copy OK
No errors occurred
AccurateRip summary
Track 1 not present in database
Track 2 not present in database
Track 3 not present in database
Track 4 not present in database
Track 5 not present in database
Track 6 not present in database
Track 7 not present in database
Track 8 not present in database
Track 9 not present in database
Track 10 not present in database
Track 11 not present in database
Track 12 not present in database
Track 13 not present in database
Track 14 not present in database
Track 15 not present in database
None of the tracks are present in the AccurateRip database
End of status report



Показать сообщения:    

Текущее время: 05-Дек 07:31

Часовой пояс: UTC + 3


Вы не можете начинать темы
Вы не можете отвечать на сообщения
Вы не можете редактировать свои сообщения
Вы не можете удалять свои сообщения
Вы не можете голосовать в опросах
Вы не можете прикреплять файлы к сообщениям
Вы не можете скачивать файлы