(Classical / Violin) Anne Akiko Meyers, English Chamber Orchestra & Steven Mercurio - Air: The Bach Album - 2012, FLAC (image+.cue), lossless


Статистика раздачи [Обновить пиров]
Размер:  305 MB   |    Зарегистрирован:  8 месяцев 23 дня   |    Скачан:  0 раз

Полного источника не было: Никогда

 
   
 
 
 

[Цитировать]

Anne Akiko Meyers, English Chamber Orchestra & Steven Mercurio - Air: The Bach Album
Жанр: Classical / Violin
Страна-производитель диска: USA
Год издания диска: 2012
Издатель (лейбл): Entertainment One Music
Аудиокодек: FLAC
Тип рипа: image+.cue
Битрейт аудио: lossless
Продолжительность: 57:33 min
Источник: web
Наличие сканов в содержимом раздачи: да
Треклист:
01 - ‘Air’ from Orchestral Suite No.3 in D major BWV 1068 (arr.Jeff Kryka) (05:12)
Violin Concerto No.1 in A minor BWV 1041
02 - I Allegro Moderato (03:35)
03 - II Andante (06:20)
04 - III Allegro Assai (03:28)
Violin Concerto No.2 in E major BWV 1042
05 - I Allegro (07:34)
06 - II Adagio (06:41)
07 - III Allegro Assai (02:43)
08 - ‘Largo’ from Concerto for Harpsichord in F minor BWV 1056 (03:17)
Concerto for Two Violins, Strings and Continuo in D minor BWV 1043
09 - I Vivace (03:38)
10 - II Largo Ma Non Troppo (06:16)
11 - III Allegro (04:39)
12 - Ave Maria (Bach/Gounod) (arr.Jeff Kryka) (04:04)
Исполнители:
Anne Akiko Meyers, English Chamber Orchestra & Steven Mercurio (conductor)

Лог создания рипа

Exact Audio Copy V0.99 prebeta 5 from 4. May 2009
Отчёт EAC об извлечении, выполненном 2. августа 2012, 20:15
Anne Akiko Meyers / AIR (The Bach Album)
Дисковод: _NEC DVD_RW ND-4571A Adapter: 0 ID: 0
Режим чтения : Достоверность
Использование точного потока : Да
Отключение кэша аудио : Да
Использование указателей C2 : Нет
Коррекция смещения при чтении : 48
Способность читать области Lead-in и Lead-out : Нет
Заполнение пропущенных сэмплов тишиной : Да
Удаление блоков с тишиной в начале и конце : Нет
При вычислениях CRC использовались нулевые сэмплы : Да
Интерфейс : Встроенный Win32-интерфейс для Win NT/2000
Выходной формат : Пользовательский кодировщик
Выбранный битрейт : 768 kBit/s
Качество : Высокий
Добавление ID3-тэга : Нет
Утилита сжатия : C:\Program Files\Exact Audio Copy\Flac\flac.exe
Дополнительные параметры : -6 -V -T "ARTIST=%a" -T "TITLE=%t" -T "ALBUM=%g" -T "DATE=%y" -T "TRACKNUMBER=%n" -T "GENRE=%m" -T "COMMENT=%e" %s -o %d
TOC извлечённого CD
Трек | Старт | Длительность | Начальный сектор | Конечный сектор
---------------------------------------------------------------------
1 | 0:00.00 | 5:12.53 | 0 | 23452
2 | 5:12.53 | 3:35.01 | 23453 | 39578
3 | 8:47.54 | 6:20.74 | 39579 | 68152
4 | 15:08.53 | 3:28.05 | 68153 | 83757
5 | 18:36.58 | 7:34.42 | 83758 | 117849
6 | 26:11.25 | 6:41.50 | 117850 | 147974
7 | 32:53.00 | 2:43.44 | 147975 | 160243
8 | 35:36.44 | 3:17.43 | 160244 | 175061
9 | 38:54.12 | 3:38.32 | 175062 | 191443
10 | 42:32.44 | 6:16.23 | 191444 | 219666
11 | 48:48.67 | 4:39.36 | 219667 | 240627
12 | 53:28.28 | 4:05.04 | 240628 | 259006
Характеристики диапазона извлечения и сообщения об ошибках
Выбранный диапазон
Имя файла F:\EAC\A.A.Meyers - AIR\A.A.Meyers - AIR.wav
Пиковый уровень 94.9 %
Качество диапазона 99.9 %
CRC копии 9292C3EE
Копирование... OK
Ошибок не произошло
AccurateRip: сводка
Трек 1 точное извлечение (доверие 2) [66827146]
Трек 2 точное извлечение (доверие 2) [1B943115]
Трек 3 точное извлечение (доверие 2) [5B4AF3FF]
Трек 4 точное извлечение (доверие 2) [59E0E94A]
Трек 5 нет в базе данных
Трек 6 нет в базе данных
Трек 7 точное извлечение (доверие 2) [E05EE93E]
Трек 8 точное извлечение (доверие 2) [4FBB19C9]
Трек 9 нет в базе данных
Трек 10 точное извлечение (доверие 2) [F95C977C]
Трек 11 нет в базе данных
Трек 12 точное извлечение (доверие 2) [A4601076]
8 трек(и) скопированы точно
4 трек(и) не содержатся в базе AccurateRip
Некоторые треки не прошли проверку на точность
Конец отчёта

Содержание индексной карты (.CUE)

REM GENRE Classical / Violin
REM DATE 2012
REM DISCID 950D7D0C
REM COMMENT "ExactAudioCopy v0.99pb5"
PERFORMER "Anne Akiko Meyers"
TITLE "Air: The Bach Album"
FILE "A.A.Meyers - 2012 - Air - The Bach Album.flac" WAVE
TRACK 01 AUDIO
TITLE "‘Air’ from Orchestral Suite No.3 in D major BWV 1068 (arr.Jeff Kryka)"
PERFORMER "Anne Akiko Meyers"
ISRC USKO11200001
INDEX 01 00:00:00
TRACK 02 AUDIO
TITLE "Violin Concerto No.1 in A minor BWV 1041 - I Allegro Moderato"
PERFORMER "Anne Akiko Meyers"
ISRC USKO11200002
INDEX 01 05:12:53
TRACK 03 AUDIO
TITLE "Violin Concerto No.1 in A minor BWV 1041 - II Andante"
PERFORMER "Anne Akiko Meyers"
ISRC USKO11200003
INDEX 01 08:47:54
TRACK 04 AUDIO
TITLE "Violin Concerto No.1 in A minor BWV 1041 - III Allegro Assai"
PERFORMER "Anne Akiko Meyers"
ISRC USKO11200004
INDEX 01 15:08:53
TRACK 05 AUDIO
TITLE "Violin Concerto No.2 in E major BWV 1042 - I Allegro"
PERFORMER "Anne Akiko Meyers"
ISRC USKO11200005
INDEX 01 18:36:58
TRACK 06 AUDIO
TITLE "Violin Concerto No.2 in E major BWV 1042 - II Adagio "
PERFORMER "Anne Akiko Meyers"
ISRC USKO11200006
INDEX 01 26:11:25
TRACK 07 AUDIO
TITLE "Violin Concerto No.2 in E major BWV 1042 - III Allegro Assai"
PERFORMER "Anne Akiko Meyers"
ISRC USKO11200007
INDEX 01 32:53:00
TRACK 08 AUDIO
TITLE "‘Largo’ from Concerto for Harpsichord in F minor BWV 1056"
PERFORMER "Anne Akiko Meyers"
ISRC USKO11200008
INDEX 01 35:36:44
TRACK 09 AUDIO
TITLE "Concerto for Two Violins, Strings and Continuo in D minor BWV 1043 – I Vivace"
PERFORMER "Anne Akiko Meyers"
ISRC USKO11200009
INDEX 01 38:54:12
TRACK 10 AUDIO
TITLE "Concerto for Two Violins, Strings and Continuo in D minor BWV 1043 - II Largo Ma Non Troppo"
PERFORMER "Anne Akiko Meyers"
ISRC USKO11200010
INDEX 01 42:32:44
TRACK 11 AUDIO
TITLE "Concerto for Two Violins, Strings and Continuo in D minor BWV 1043 - III Allegro"
PERFORMER "Anne Akiko Meyers"
ISRC USKO11200011
INDEX 01 48:48:67
TRACK 12 AUDIO
TITLE "Ave Maria (Bach/Gounod) (arr.Jeff Kryka)"
PERFORMER "Anne Akiko Meyers"
ISRC USKO11200012
INDEX 01 53:28:28
[teatrix.ru].t18003.torrent 
Торрент: Зарегистрирован [ 2016-03-17 00:46 ] · 2BDB78F016632D76A586C0B8542D47EC7617791B

Скачать .torrent

Скачать

13 KB

Статус: проверено
Скачан: 0 раз
Размер: 305 MB
terms.php



Быстрый ответ

Имя:

      
Для отправки сообщений необходимо включить JavaScript
Показать сообщения:    

Текущее время: 09-Дек 20:23

Часовой пояс: UTC + 3


Вы можете начинать темы
Вы можете отвечать на сообщения
Вы не можете редактировать свои сообщения
Вы не можете удалять свои сообщения
Вы не можете голосовать в опросах
Вы не можете прикреплять файлы к сообщениям
Вы можете скачивать файлы