(Cello) А.Хачатурян - Концерт-рапсодия для виолончели с оркестром | Д.Шостакович - Виолончельный концерт №2 | П.Чайковский - Вариации на тему рококо (Ростропович • Hurst • Davis) - 2001, FLAC (image+.cue) lossless


Статистика раздачи [Обновить пиров]
Размер:  322 MB   |    Зарегистрирован:  8 месяцев 19 дней   |    Скачан:  0 раз

Полного источника не было: Никогда

 
   
 
 
 

[Цитировать]

rostropovich
Khachaturian | Schostakovich | Tchaikovsky
----- Жанр: Cello
Страна-производитель диска: England
Год издания диска: 2001
Издатель (лейбл): BBC Legends
Дата записи: 1963/64/66
Аудиокодек: FLAC
Тип рипа: image+.cue
Битрейт аудио: lossless
Продолжительность: 75'20''
Источник: собственный рип
Наличие сканов в содержимом раздачи: да
Треклист:
Арам Хачатурян
[1] Концерт-рапсодия для виолончели с оркестром
London Symphony Orchestra
George Hurts

Дмитрий Шостакович - Виолончельный концерт №2
[2] I. Largo
[3] II. Allegretto
[4] III. Allegretto
BBC Symphony Orchestra
Sir Colin Davis

Пётр Чайковский - Вариации на тему рококо
[5] I. Moderato quasi Andante Tema
[6] II. Variazione I: Tempo del Tema
[7] III. Variazione II: Tempo del Tema
[8] IV. Variazione III: Andante sostenuto
[9] V. Variazione IV: Andante grazioso
[10] VI. Variazione V: Allegro moderato
[11] VII. Variazione VI: Andante
[12] VIII. Variazione VII e Coda: Allegro vivo
London Symphony Orchestra
Sir Colin Davis

Исполнители:
Мстислав Ростропович-

Лог создания рипа

Exact Audio Copy V1.0 beta 3 from 29. August 2011
EAC extraction logfile from 28. April 2013, 3:15
Mstislav Rostropovich / Khachaturian, Shostakovich, Tchaikovsky
Used drive : COMPAQ CD-ROM LTN403 Adapter: 0 ID: 0
Read mode : Secure
Utilize accurate stream : Yes
Defeat audio cache : Yes
Make use of C2 pointers : No
Read offset correction : -1164
Overread into Lead-In and Lead-Out : Yes
Fill up missing offset samples with silence : Yes
Delete leading and trailing silent blocks : No
Null samples used in CRC calculations : Yes
Used interface : Native Win32 interface for Win NT & 2000
Used output format : User Defined Encoder
Selected bitrate : 128 kBit/s
Quality : High
Add ID3 tag : No
Command line compressor : C:\Program Files\FLAC\flac.exe
Additional command line options : -T "COMMENT=rip by el coronel, rutracker.org" -8 -V %source%
TOC of the extracted CD
Track | Start | Length | Start sector | End sector
---------------------------------------------------------
1 | 0:00.00 | 22:58.65 | 0 | 103414
2 | 22:58.65 | 14:17.32 | 103415 | 167721
3 | 37:16.22 | 4:20.08 | 167722 | 187229
4 | 41:36.30 | 15:14.17 | 187230 | 255796
5 | 56:50.47 | 2:33.60 | 255797 | 267331
6 | 59:24.32 | 0:51.58 | 267332 | 271214
7 | 60:16.15 | 1:15.15 | 271215 | 276854
8 | 61:31.30 | 3:40.50 | 276855 | 293404
9 | 65:12.05 | 1:44.62 | 293405 | 301266
10 | 66:56.67 | 3:18.25 | 301267 | 316141
11 | 70:15.17 | 2:58.08 | 316142 | 329499
12 | 73:13.25 | 2:06.55 | 329500 | 339004
Range status and errors
Selected range
Filename C:\Documents and Settings\User.X-TEAM\Мои документы\Mstislav Rostropovich - Khachaturian, Shostakovich, Tchaikovsky.wav
Peak level 97.6 %
Extraction speed 3.0 X
Range quality 99.9 %
Test CRC 399349B5
Copy CRC 399349B5
Copy OK
No errors occurred
AccurateRip summary
Track 1 not present in database
Track 2 not present in database
Track 3 not present in database
Track 4 not present in database
Track 5 not present in database
Track 6 not present in database
Track 7 not present in database
Track 8 not present in database
Track 9 not present in database
Track 10 not present in database
Track 11 not present in database
Track 12 not present in database
None of the tracks are present in the AccurateRip database
End of status report
==== Log checksum C28B94E6531A713586A6A37E8939DF801C17E2E6E0A4DD7484BE4BF01DC3D788 ====

Содержание индексной карты (.CUE)

REM GENRE Classical
REM DATE 2001
REM DISCID BA11A80C
REM COMMENT "ExactAudioCopy v1.0b3"
PERFORMER "Mstislav Rostropovich"
TITLE "Mstislav Rostropovich - Khachaturian, Shostakovich, Tchaikovsky"
FILE "Mstislav Rostropovich - Khachaturian, Shostakovich, Tchaikovsky.flac" WAVE
TRACK 01 AUDIO
TITLE "Aram Khachaturian - Concerto Rhapsody for Violoncello and Orchestra"
PERFORMER "Mstislav Rostropovich; London Symphony Orchestra - George Hurst"
INDEX 01 00:00:00
TRACK 02 AUDIO
TITLE "Shostakovich - Cello Concerto No.2: I. Largo"
PERFORMER "Mstislav Rostropovich; BBC Symphony Orchestra - Sir Colin Davis"
INDEX 00 22:51:12
INDEX 01 22:58:65
TRACK 03 AUDIO
TITLE "II. Allegretto"
PERFORMER "Mstislav Rostropovich; BBC Symphony Orchestra - Sir Colin Davis"
INDEX 01 37:16:22
TRACK 04 AUDIO
TITLE "III. Allegretto"
PERFORMER "Mstislav Rostropovich; BBC Symphony Orchestra - Sir Colin Davis"
INDEX 01 41:36:30
TRACK 05 AUDIO
TITLE "Tchaikovsky - Variations on a Rococo Theme: I. Moderato quasi Andante Tema: M..."
PERFORMER "Mstislav Rostropovich; London Symphony Orchestra - Sir Colin Davis"
INDEX 00 56:42:10
INDEX 01 56:50:47
TRACK 06 AUDIO
TITLE "II. Variazione I: Tempo del Tema"
PERFORMER "Mstislav Rostropovich; London Symphony Orchestra - Sir Colin Davis"
INDEX 01 59:24:32
TRACK 07 AUDIO
TITLE "III. Variazione II: Tempo del Tema"
PERFORMER "Mstislav Rostropovich; London Symphony Orchestra - Sir Colin Davis"
INDEX 01 60:16:15
TRACK 08 AUDIO
TITLE "IV. Variazione III: Andante sostenuto"
PERFORMER "Mstislav Rostropovich; London Symphony Orchestra - Sir Colin Davis"
INDEX 01 61:31:30
TRACK 09 AUDIO
TITLE "V. Variazione IV: Andante grazioso"
PERFORMER "Mstislav Rostropovich; London Symphony Orchestra - Sir Colin Davis"
INDEX 01 65:12:05
TRACK 10 AUDIO
TITLE "VI. Variazione V: Allegro moderato"
PERFORMER "Mstislav Rostropovich; London Symphony Orchestra - Sir Colin Davis"
INDEX 01 66:56:67
TRACK 11 AUDIO
TITLE "VII. Variazione VI: Andante"
PERFORMER "Mstislav Rostropovich; London Symphony Orchestra - Sir Colin Davis"
INDEX 01 70:15:17
TRACK 12 AUDIO
TITLE "VIII. Variazione VII e Coda: Allegro vivo"
PERFORMER "Mstislav Rostropovich; London Symphony Orchestra - Sir Colin Davis"
INDEX 01 73:13:25
[teatrix.ru].t18004.torrent 
Торрент: Зарегистрирован [ 2016-03-17 00:46 ] · C1A23EC423D43091E94D53C0E7BEB5671F1880F1

Скачать .torrent

Скачать

13 KB

Статус: проверено
Скачан: 0 раз
Размер: 322 MB
terms.php



Быстрый ответ

Имя:

      
Для отправки сообщений необходимо включить JavaScript
Показать сообщения:    

Текущее время: 05-Дек 01:20

Часовой пояс: UTC + 3


Вы можете начинать темы
Вы можете отвечать на сообщения
Вы не можете редактировать свои сообщения
Вы не можете удалять свои сообщения
Вы не можете голосовать в опросах
Вы не можете прикреплять файлы к сообщениям
Вы можете скачивать файлы