(Classical, Baroque, Authentic, Wind) Georg Philipp Telemann - Wind Concertos. Vol. 5 [La Stagione Frankfurt, Michael Schneider], CPO 2010, FLAC (image+.cue), lossless


Статистика раздачи [Обновить пиров]
Размер:  311 MB   |    Зарегистрирован:  8 месяцев 24 дня   |    Скачан:  0 раз

Полного источника не было: 5 дней

 
   
 
 
 

[Цитировать]

GEORG PHILIPP TELEMANNConcerti per strumenti a fiato. Tomo Quinto.
TWV 51:D1, 51:d2, 51:F1, 52:Es1, 52:e2, 52:A1

Концерты для духовых. Том Пятый.-- Жанр: Classical, Baroque, Authentic, Wind
Страна-производитель диска: Germany
Год издания: 2010
Лейбл: CPO
Номер в каталоге: CPO 777 401-2
Аудиокодек: FLAC
Тип рипа: image+.cue
Битрейт аудио: lossless
Продолжительность: 01:07:50
Наличие сканов: имеются
Источник: ODEON
LOSSY-La Stagione Frankfurt
Michael Schneider direttore e flautista
Karl Kaiser flautista
Martin Stadler e Luise Baumgartl oboisti
Ulrich Hübner e Jörg Schulteß cornisti
Marita Schaar fagottista

Треклист

01. TWV 51:D1 - Concerto in Re maggiore per flauto, archi e basso continuo - I. Andante [00:04:03]
02. II. Vivace [00:03:57]
03. III. Largo [00:04:03]
04. IV. Allegro [00:03:39]
05. TWV 52:A1 - Concerto in La maggiore per due oboi d'amore, due violini e basso continuo - I. Andante [00:01:48]
06. II. Vivace [00:01:40]
07. III. Siciliana [00:03:17]
08. IV. Allegro [00:02:18]
09. TWV 51:F1 - Concerto in Fa maggiore per flauto dolce alto, archi e basso continuo - I. Affettuoso [00:03:28]
10. II. Allegro [00:03:56]
11. III. Adagio [00:02:30]
12. IV. Menuet I e II [00:03:22]
13. TWV 52:Es1 - Concerto in Mi bemolle maggiore per due corni, due oboi ripieni, archi e basso continuo - I. Allegro [00:02:18]
14. II. Largo [00:01:37]
15. III. Vivace [00:02:01]
16. TWV 51:d2 - Concerto in Re minore per oboe, archi e basso continuo - I. Largo [00:04:34]
17. II. Vivace [00:03:35]
18. III. Andante [00:02:03]
19. IV. Allegro [00:03:44]
20. TWV 52:e2 - Concerto in Mi minore per due flauti, fagotto, archi e basso continuo - I. [Grave] [00:02:31]
21. II. Presto [00:02:36]
22. III. Cantabile [00:01:48]
23. V. Minuet [00:02:52]

LOG EAC

Exact Audio Copy V1.0 beta 3 from 29. August 2011
EAC extraction logfile from 6. March 2013, 9:55
La Stagione Frankfurt, Michael Schneider [direttore] / Telemann. Concerti per strumenti a fiato. Tomo Quinto [CPO 2010].
Used drive : TSSTcorpCDDVDW SH-222BB Adapter: 2 ID: 1
Read mode : Secure
Utilize accurate stream : Yes
Defeat audio cache : Yes
Make use of C2 pointers : No
Read offset correction : 6
Overread into Lead-In and Lead-Out : No
Fill up missing offset samples with silence : Yes
Delete leading and trailing silent blocks : No
Null samples used in CRC calculations : Yes
Used interface : Native Win32 interface for Win NT & 2000
Used output format : User Defined Encoder
Selected bitrate : 1024 kBit/s
Quality : High
Add ID3 tag : No
Command line compressor : C:\Program Files\Exact Audio Copy\Flac\flac.exe
Additional command line options : -8 -V -T "TITLE=%title%" -T "ARTIST=%artist%" -T "ALBUMARTIST=%albumartist%" -T "ALBUM=%albumtitle%" -T "DATE=%year%" -T "TRACKNUMBER=%tracknr%" -T "TRACKTOTAL=%numtracks%" -T "GENRE=%genre%" -T "COMMENT=%comment%" -T "PERFORMER=%albuminterpret%" -T "COMPOSER=%composer%" %source% -o %dest%
TOC of the extracted CD
Track | Start | Length | Start sector | End sector
---------------------------------------------------------
1 | 0:00.00 | 4:03.58 | 0 | 18282
2 | 4:03.58 | 3:57.54 | 18283 | 36111
3 | 8:01.37 | 4:02.73 | 36112 | 54334
4 | 12:04.35 | 3:39.41 | 54335 | 70800
5 | 15:44.01 | 1:48.56 | 70801 | 78956
6 | 17:32.57 | 1:40.01 | 78957 | 86457
7 | 19:12.58 | 3:17.65 | 86458 | 101297
8 | 22:30.48 | 2:18.19 | 101298 | 111666
9 | 24:48.67 | 3:28.06 | 111667 | 127272
10 | 28:16.73 | 3:56.12 | 127273 | 144984
11 | 32:13.10 | 2:30.31 | 144985 | 156265
12 | 34:43.41 | 3:21.73 | 156266 | 171413
13 | 38:05.39 | 2:18.53 | 171414 | 181816
14 | 40:24.17 | 1:37.47 | 181817 | 189138
15 | 42:01.64 | 2:01.31 | 189139 | 198244
16 | 44:03.20 | 4:34.47 | 198245 | 218841
17 | 48:37.67 | 3:35.50 | 218842 | 235016
18 | 52:13.42 | 2:03.10 | 235017 | 244251
19 | 54:16.52 | 3:44.47 | 244252 | 261098
20 | 58:01.24 | 2:31.35 | 261099 | 272458
21 | 60:32.59 | 2:36.16 | 272459 | 284174
22 | 63:09.00 | 1:48.27 | 284175 | 292301
23 | 64:57.27 | 2:52.31 | 292302 | 305232
Range status and errors
Selected range
Filename D:\ Telemann / Telemann. Concerti per strumenti a fiato. Tomo Quinto [CPO 2010] \ Telemann. Concerti per strumenti a fiato. Tomo Quinto [CPO 2010].wav
Peak level 94.9 %
Extraction speed 7.9 X
Range quality 100.0 %
Test CRC F205ABCD
Copy CRC F205ABCD
Copy OK
No errors occurred
AccurateRip summary
Track 1 accurately ripped (confidence 4) [D07811C2] (AR v1)
Track 2 accurately ripped (confidence 4) [08C784C9] (AR v1)
Track 3 accurately ripped (confidence 4) [37E745BA] (AR v1)
Track 4 accurately ripped (confidence 4) [9F48D3AB] (AR v1)
Track 5 accurately ripped (confidence 4) [E717C28A] (AR v1)
Track 6 accurately ripped (confidence 4) [350C6B4B] (AR v1)
Track 7 accurately ripped (confidence 3) [2FB1BECE] (AR v1)
Track 8 accurately ripped (confidence 4) [5C920910] (AR v1)
Track 9 accurately ripped (confidence 4) [78C1A0C6] (AR v1)
Track 10 accurately ripped (confidence 4) [80744351] (AR v1)
Track 11 accurately ripped (confidence 4) [11F3A6AE] (AR v1)
Track 12 accurately ripped (confidence 4) [D2C94476] (AR v1)
Track 13 accurately ripped (confidence 4) [B896BB44] (AR v1)
Track 14 accurately ripped (confidence 4) [EFC037E9] (AR v1)
Track 15 accurately ripped (confidence 4) [B6407FBA] (AR v1)
Track 16 accurately ripped (confidence 4) [F7EAF0C9] (AR v1)
Track 17 accurately ripped (confidence 4) [FD41334A] (AR v1)
Track 18 accurately ripped (confidence 4) [B857B7DE] (AR v1)
Track 19 accurately ripped (confidence 4) [A80879CE] (AR v1)
Track 20 accurately ripped (confidence 4) [01295F32] (AR v1)
Track 21 accurately ripped (confidence 4) [96338FA9] (AR v1)
Track 22 accurately ripped (confidence 4) [AEBBE818] (AR v1)
Track 23 accurately ripped (confidence 3) [BD1DF43E] (AR v1)
All tracks accurately ripped
End of status report

.CUE

REM GENRE Musica barocca
REM DISCID 6A0FE517
REM COMMENT "TitoManlio"
TITLE "Telemann. Concerti per strumenti a fiato. Tomo Quinto [CPO 2010]."
FILE "Telemann. Concerti per strumenti a fiato. Tomo Quinto [CPO 2010].flac" WAVE
TRACK 01 AUDIO
TITLE "Concerto TWV 51:D1 in Re maggiore per flauto, archi e basso continuo - I. Andante"
PERFORMER "La Stagione Frankfurt, Michael Schneider [direttore], Karl Kaiser [flautista]"
FLAGS DCP
INDEX 01 00:00:00
TRACK 02 AUDIO
TITLE "Concerto TWV 51:D1 in Re maggiore per flauto, archi e basso continuo - II. Vivace"
PERFORMER "La Stagione Frankfurt, Michael Schneider [direttore], Karl Kaiser [flautista]"
FLAGS DCP
INDEX 01 04:03:58
TRACK 03 AUDIO
TITLE "Concerto TWV 51:D1 in Re maggiore per flauto, archi e basso continuo - III. Largo"
PERFORMER "La Stagione Frankfurt, Michael Schneider [direttore], Karl Kaiser [flautista]"
FLAGS DCP
INDEX 01 08:01:37
TRACK 04 AUDIO
TITLE "Concerto TWV 51:D1 in Re maggiore per flauto, archi e basso continuo - IV. Allegro"
PERFORMER "La Stagione Frankfurt, Michael Schneider [direttore], Karl Kaiser [flautista]"
FLAGS DCP
INDEX 01 12:04:35
TRACK 05 AUDIO
TITLE "Concerto TWV 52:A1 in La maggiore per due oboi d'amore, due violini e basso continuo - I. Andante"
PERFORMER "La Stagione Frankfurt, Michael Schneider [direttore], Martin Stadler e Luise Baumgartl [oboisti]"
FLAGS DCP
INDEX 00 15:38:41
INDEX 01 15:44:01
TRACK 06 AUDIO
TITLE "Concerto TWV 52:A1 in La maggiore per due oboi d'amore, due violini e basso continuo - II. Vivace"
PERFORMER "La Stagione Frankfurt, Michael Schneider [direttore], Martin Stadler e Luise Baumgartl [oboisti]"
FLAGS DCP
INDEX 01 17:32:57
TRACK 07 AUDIO
TITLE "Concerto TWV 52:A1 in La maggiore per due oboi d'amore, due violini e basso continuo - III. Siciliana"
PERFORMER "La Stagione Frankfurt, Michael Schneider [direttore], Martin Stadler e Luise Baumgartl [oboisti]"
FLAGS DCP
INDEX 01 19:12:58
TRACK 08 AUDIO
TITLE "Concerto TWV 52:A1 in La maggiore per due oboi d'amore, due violini e basso continuo - IV. Allegro"
PERFORMER "La Stagione Frankfurt, Michael Schneider [direttore], Martin Stadler e Luise Baumgartl [oboisti]"
FLAGS DCP
INDEX 01 22:30:48
TRACK 09 AUDIO
TITLE "Concerto TWV 51:F1 in Fa maggiore per flauto dolce alto, archi e basso continuo - I. Affettuoso"
PERFORMER "La Stagione Frankfurt, Michael Schneider [direttore e flautista]"
FLAGS DCP
INDEX 00 24:43:03
INDEX 01 24:48:67
TRACK 10 AUDIO
TITLE "Concerto TWV 51:F1 in Fa maggiore per flauto dolce alto, archi e basso continuo - II. Allegro"
PERFORMER "La Stagione Frankfurt, Michael Schneider [direttore e flautista]"
FLAGS DCP
INDEX 01 28:16:73
TRACK 11 AUDIO
TITLE "Concerto TWV 51:F1 in Fa maggiore per flauto dolce alto, archi e basso continuo - III. Adagio"
PERFORMER "La Stagione Frankfurt, Michael Schneider [direttore e flautista]"
FLAGS DCP
INDEX 01 32:13:10
TRACK 12 AUDIO
TITLE "Concerto TWV 51:F1 in Fa maggiore per flauto dolce alto, archi e basso continuo - IV. Menuet I e II"
PERFORMER "La Stagione Frankfurt, Michael Schneider [direttore e flautista]"
FLAGS DCP
INDEX 01 34:43:41
TRACK 13 AUDIO
TITLE "Concerto TWV 52:Es1 in Mi bemolle maggiore per due corni, due oboi ripieni, archi e basso continuo - I. Allegro"
PERFORMER "La Stagione Frankfurt, Michael Schneider [direttore], Ulrich Hübner e Jörg Schulteß [cornisti]"
FLAGS DCP
INDEX 00 37:59:61
INDEX 01 38:05:39
TRACK 14 AUDIO
TITLE "Concerto TWV 52:Es1 in Mi bemolle maggiore per due corni, due oboi ripieni, archi e basso continuo - II. Largo"
PERFORMER "La Stagione Frankfurt, Michael Schneider [direttore], Ulrich Hübner e Jörg Schulteß [cornisti]"
FLAGS DCP
INDEX 01 40:24:17
TRACK 15 AUDIO
TITLE "Concerto TWV 52:Es1 in Mi bemolle maggiore per due corni, due oboi ripieni, archi e basso continuo - III. Vivace"
PERFORMER "La Stagione Frankfurt, Michael Schneider [direttore], Ulrich Hübner e Jörg Schulteß [cornisti]"
FLAGS DCP
INDEX 01 42:01:64
TRACK 16 AUDIO
TITLE "Concerto TWV 51:d2 in Re minore per oboe, archi e basso continuo - I. Largo"
PERFORMER "La Stagione Frankfurt, Michael Schneider [direttore], Luise Baumgartl [oboista]"
FLAGS DCP
INDEX 00 43:57:09
INDEX 01 44:03:20
TRACK 17 AUDIO
TITLE "Concerto TWV 51:d2 in Re minore per oboe, archi e basso continuo - II. Vivace"
PERFORMER "La Stagione Frankfurt, Michael Schneider [direttore], Luise Baumgartl [oboista]"
FLAGS DCP
INDEX 01 48:37:67
TRACK 18 AUDIO
TITLE "Concerto TWV 51:d2 in Re minore per oboe, archi e basso continuo - III. Andante"
PERFORMER "La Stagione Frankfurt, Michael Schneider [direttore], Luise Baumgartl [oboista]"
FLAGS DCP
INDEX 01 52:13:42
TRACK 19 AUDIO
TITLE "Concerto TWV 51:d2 in Re minore per oboe, archi e basso continuo - IV. Allegro"
PERFORMER "La Stagione Frankfurt, Michael Schneider [direttore], Luise Baumgartl [oboista]"
FLAGS DCP
INDEX 01 54:16:52
TRACK 20 AUDIO
TITLE "Concerto TWV 52:e2 in Mi minore per due flauti, fagotto, archi e basso continuo - I. [Grave]"
PERFORMER "La Stagione Frankfurt, Michael Schneider [direttore e flautista], Karl Kaiser [flautista], Marita Schaar [fagottista]"
FLAGS DCP
INDEX 00 57:55:00
INDEX 01 58:01:24
TRACK 21 AUDIO
TITLE "Concerto TWV 52:e2 in Mi minore per due flauti, fagotto, archi e basso continuo - II. Presto"
PERFORMER "La Stagione Frankfurt, Michael Schneider [direttore e flautista], Karl Kaiser [flautista], Marita Schaar [fagottista]"
FLAGS DCP
INDEX 01 60:32:59
TRACK 22 AUDIO
TITLE "Concerto TWV 52:e2 in Mi minore per due flauti, fagotto, archi e basso continuo - III. Cantabile"
PERFORMER "La Stagione Frankfurt, Michael Schneider [direttore e flautista], Karl Kaiser [flautista], Marita Schaar [fagottista]"
FLAGS DCP
INDEX 01 63:09:00
TRACK 23 AUDIO
TITLE "Concerto TWV 52:e2 in Mi minore per due flauti, fagotto, archi e basso continuo - IV. Minuet"
PERFORMER "La Stagione Frankfurt, Michael Schneider [direttore e flautista], Karl Kaiser [flautista], Marita Schaar [fagottista]"
FLAGS DCP
INDEX 01 64:57:27
--Смотрите также: -Просьба не уходить с раздачи!!!
[teatrix.ru].t18006.torrent 
Торрент: Зарегистрирован [ 2016-03-17 00:46 ] · A49EDA382DC740897F41C95015DB05FC63618BCB

Скачать .torrent

Скачать

14 KB

Статус: проверено
Скачан: 0 раз
Размер: 311 MB
terms.php



Быстрый ответ

Имя:

      
Для отправки сообщений необходимо включить JavaScript
Показать сообщения:    

Текущее время: 10-Дек 08:03

Часовой пояс: UTC + 3


Вы можете начинать темы
Вы можете отвечать на сообщения
Вы не можете редактировать свои сообщения
Вы не можете удалять свои сообщения
Вы не можете голосовать в опросах
Вы не можете прикреплять файлы к сообщениям
Вы можете скачивать файлы