(Contemporary) Ton de Leeuw: Elegie pour les villes detruites; Klaas de Vries: Abdicacao; Hans Koolmees: Aed Mac Ainmirech, Posjlost (Capella Amsterdam.Doelensensemble.Daniel Reuss) 2003 FLAC (tracks+cue) lossless


Статистика раздачи [Обновить пиров]
Размер:  192 MB   |    Зарегистрирован:  8 месяцев 17 дней   |    Скачан:  0 раз

Полного источника не было: Никогда

 
   
 
 
 

[Цитировать]

Choral Works by Ton de Leeuw, Klaas de Vries and Hans Koolmees
Жанр: Contemporary
Страна-производитель диска: Holland
Год издания диска: 2003
Издатель (лейбл): Q Disc
Номер по каталогу: Q 97043
Дата записи: 1999, 2000
Аудиокодек: FLAC
Тип рипа: tracks+.cue
Битрейт аудио: lossless
Продолжительность: 51:37
Источник: скачано с avaxhome
Наличие сканов в содержимом раздачи: да
Треклист:
Leeuw, Ton de - Elégie pour les villes détruites
01. I Lento
02. II
03. III Lento
04. IV
05. V
06. Vries, Klaas de - Abdicação
Koolmees, Hans - Aed Mac Ainmirech
07. Come and dance with me in Ireland
08. Adzed-Head
09. The Ulster Cycle - The brown bull
10. The Ulster Cycle - The armies enter Cuailnge
11. The Ulster Cycle - Before the Last Battle
12. Tara
13. Come and dance with me in Ireland
Posjlost (Пошлость)
14. I Presto
15. II Andante
16. III Allegro
Исполнители:
Capella Amsterdam
Doelensensemble
Daniel Reuss – conductor

Лог создания рипа

Exact Audio Copy V1.0 beta 3 from 29. August 2011
EAC extraction logfile from 9. October 2013, 19:58
Various Artists / Elegies pour les villes detruites
Used drive : TSSTcorpCDDVDW SH-216AB Adapter: 1 ID: 0
Read mode : Secure
Utilize accurate stream : Yes
Defeat audio cache : Yes
Make use of C2 pointers : No
Read offset correction : 6
Overread into Lead-In and Lead-Out : No
Fill up missing offset samples with silence : Yes
Delete leading and trailing silent blocks : No
Null samples used in CRC calculations : Yes
Used interface : Native Win32 interface for Win NT & 2000
Gap handling : Appended to previous track
Used output format : User Defined Encoder
Selected bitrate : 768 kBit/s
Quality : High
Add ID3 tag : No
Command line compressor : C:\Program Files (x86)\Exact Audio Copy\FLAC\FLAC.EXE
Additional command line options : -6 -V -T "ARTIST=%artist%" -T "TITLE=%title%" -T "ALBUM=%albumtitle%" -T "DATE=%year%" -T "TRACKNUMBER=%tracknr%" -T "GENRE=%genre%" -T "COMMENT=%comment%" -T "BAND=%albuminterpret%" -T "ALBUMARTIST=%albuminterpret%" -T "COMPOSER=%composer%" %haslyrics%--tag-from-file=LYRICS="%lyricsfile%"%haslyrics% -T "DISCNUMBER=%cdnumber%" -T "TOTALDISCS=%totalcds%" -T "TOTALTRACKS=%numtracks%" %hascover%--picture="%coverfile%"%hascover% %source% -o %dest%
TOC of the extracted CD
Track | Start | Length | Start sector | End sector
---------------------------------------------------------
1 | 0:00.00 | 1:11.47 | 0 | 5371
2 | 1:11.47 | 3:06.68 | 5372 | 19389
3 | 4:18.40 | 4:07.57 | 19390 | 37971
4 | 8:26.22 | 4:04.35 | 37972 | 56306
5 | 12:30.57 | 5:19.05 | 56307 | 80236
6 | 17:49.62 | 7:11.45 | 80237 | 112606
7 | 25:01.32 | 1:53.63 | 112607 | 121144
8 | 26:55.20 | 2:48.20 | 121145 | 133764
9 | 29:43.40 | 1:05.12 | 133765 | 138651
10 | 30:48.52 | 0:31.33 | 138652 | 141009
11 | 31:20.10 | 0:27.60 | 141010 | 143094
12 | 31:47.70 | 2:47.25 | 143095 | 155644
13 | 34:35.20 | 2:01.42 | 155645 | 164761
14 | 36:36.62 | 4:12.23 | 164762 | 183684
15 | 40:49.10 | 6:59.27 | 183685 | 215136
16 | 47:48.37 | 3:49.23 | 215137 | 232334
Track 1
Filename C:\Users\astarte\03. POST\ton de leeuw\01 Elegie pour les villes detruites a.wav
Pre-gap length 0:00:02.00
Peak level 83.3 %
Extraction speed 3.0 X
Track quality 100.0 %
Copy CRC A52229F6
Track not present in AccurateRip database
Copy OK
Track 2
Filename C:\Users\astarte\03. POST\ton de leeuw\02 Elegie pour les villes detruites b.wav
Peak level 75.2 %
Extraction speed 3.3 X
Track quality 99.9 %
Copy CRC 56F0929F
Track not present in AccurateRip database
Copy OK
Track 3
Filename C:\Users\astarte\03. POST\ton de leeuw\03 Elegie pour les villes detruites c.wav
Peak level 69.0 %
Extraction speed 4.7 X
Track quality 100.0 %
Copy CRC A96F6E88
Track not present in AccurateRip database
Copy OK
Track 4
Filename C:\Users\astarte\03. POST\ton de leeuw\04 Elegie pour les villes detruites d.wav
Peak level 31.8 %
Extraction speed 5.3 X
Track quality 100.0 %
Copy CRC EB3D8AD4
Track not present in AccurateRip database
Copy OK
Track 5
Filename C:\Users\astarte\03. POST\ton de leeuw\05 Elegie pour les villes detruites e.wav
Peak level 82.3 %
Extraction speed 5.1 X
Track quality 99.9 %
Copy CRC B4FDEF26
Track not present in AccurateRip database
Copy OK
Track 6
Filename C:\Users\astarte\03. POST\ton de leeuw\06 Abdicacao.wav
Pre-gap length 0:00:05.06
Peak level 60.4 %
Extraction speed 5.7 X
Track quality 99.9 %
Copy CRC 459B8E24
Track not present in AccurateRip database
Copy OK
Track 7
Filename C:\Users\astarte\03. POST\ton de leeuw\07 Aed Mac Ainmirech a.wav
Pre-gap length 0:00:06.76
Peak level 71.4 %
Extraction speed 3.9 X
Track quality 99.9 %
Copy CRC B81FD027
Track not present in AccurateRip database
Copy OK
Track 8
Filename C:\Users\astarte\03. POST\ton de leeuw\08 Aed Mac Ainmirech b.wav
Peak level 44.3 %
Extraction speed 6.1 X
Track quality 100.0 %
Copy CRC 6E22AA3A
Track not present in AccurateRip database
Copy OK
Track 9
Filename C:\Users\astarte\03. POST\ton de leeuw\09 Aed Mac Ainmirech c.wav
Peak level 80.3 %
Extraction speed 5.1 X
Track quality 100.0 %
Copy CRC 1EC46B29
Track not present in AccurateRip database
Copy OK
Track 10
Filename C:\Users\astarte\03. POST\ton de leeuw\10 Aed Mac Ainmirech d.wav
Peak level 4.4 %
Extraction speed 3.6 X
Track quality 100.0 %
Copy CRC DA0528A5
Track not present in AccurateRip database
Copy OK
Track 11
Filename C:\Users\astarte\03. POST\ton de leeuw\11 Aed Mac Ainmirech e.wav
Peak level 60.8 %
Extraction speed 3.3 X
Track quality 100.0 %
Copy CRC 0A79FE38
Track not present in AccurateRip database
Copy OK
Track 12
Filename C:\Users\astarte\03. POST\ton de leeuw\12 Aed Mac Ainmirech f.wav
Peak level 12.1 %
Extraction speed 5.1 X
Track quality 99.9 %
Copy CRC 0CC47576
Track not present in AccurateRip database
Copy OK
Track 13
Filename C:\Users\astarte\03. POST\ton de leeuw\13 Aed Mac Ainmirech g.wav
Peak level 71.4 %
Extraction speed 6.1 X
Track quality 100.0 %
Copy CRC 62E0AEAC
Track not present in AccurateRip database
Copy OK
Track 14
Filename C:\Users\astarte\03. POST\ton de leeuw\14 Posjlost a.wav
Pre-gap length 0:00:05.33
Peak level 85.4 %
Extraction speed 6.2 X
Track quality 99.9 %
Copy CRC F2E365A4
Track not present in AccurateRip database
Copy OK
Track 15
Filename C:\Users\astarte\03. POST\ton de leeuw\15 Posjlost b.wav
Peak level 74.4 %
Extraction speed 8.2 X
Track quality 100.0 %
Copy CRC E6B97B61
Track not present in AccurateRip database
Copy OK
Track 16
Filename C:\Users\astarte\03. POST\ton de leeuw\16 Posjlost c.wav
Peak level 89.0 %
Extraction speed 8.1 X
Track quality 100.0 %
Copy CRC D7BF2164
Track not present in AccurateRip database
Copy OK
None of the tracks are present in the AccurateRip database
No errors occurred
End of status report
==== Log checksum 297B65F37D0EB0B95FA3EE1BD6B59D2EC862EF186292506D28D316AF25FC71F2 ====

Содержание индексной карты (.CUE)

REM GENRE Classical
REM DISCID DA0C1910
REM COMMENT "ExactAudioCopy v1.0b3"
PERFORMER "Various Artists"
TITLE "Elegies pour les villes detruites"
FILE "01 Elegie pour les villes detruites a.wav" WAVE
TRACK 01 AUDIO
TITLE "Elegie pour les villes detruites a"
PERFORMER "Leeuw, Ton de"
ISRC NLB260200310
INDEX 01 00:00:00
FILE "02 Elegie pour les villes detruites b.wav" WAVE
TRACK 02 AUDIO
TITLE "Elegie pour les villes detruites b"
PERFORMER "Leeuw, Ton de"
ISRC NLB260200311
INDEX 01 00:00:00
FILE "03 Elegie pour les villes detruites c.wav" WAVE
TRACK 03 AUDIO
TITLE "Elegie pour les villes detruites c"
PERFORMER "Leeuw, Ton de"
ISRC NLB260200312
INDEX 01 00:00:00
FILE "04 Elegie pour les villes detruites d.wav" WAVE
TRACK 04 AUDIO
TITLE "Elegie pour les villes detruites d"
PERFORMER "Leeuw, Ton de"
ISRC NLB260200313
INDEX 01 00:00:00
FILE "05 Elegie pour les villes detruites e.wav" WAVE
TRACK 05 AUDIO
TITLE "Elegie pour les villes detruites e"
PERFORMER "Leeuw, Ton de"
ISRC NLB260200314
INDEX 01 00:00:00
TRACK 06 AUDIO
TITLE "Abdicacao"
PERFORMER "Vries, Klaas de"
ISRC NLB260200315
INDEX 00 05:14:00
FILE "06 Abdicacao.wav" WAVE
INDEX 01 00:00:00
TRACK 07 AUDIO
TITLE "Aed Mac Ainmirech a"
PERFORMER "Koolmees, Hans"
ISRC NLB260200316
INDEX 00 07:04:63
FILE "07 Aed Mac Ainmirech a.wav" WAVE
INDEX 01 00:00:00
FILE "08 Aed Mac Ainmirech b.wav" WAVE
TRACK 08 AUDIO
TITLE "Aed Mac Ainmirech b"
PERFORMER "Koolmees, Hans"
ISRC NLB260200317
INDEX 01 00:00:00
FILE "09 Aed Mac Ainmirech c.wav" WAVE
TRACK 09 AUDIO
TITLE "Aed Mac Ainmirech c"
PERFORMER "Koolmees, Hans"
ISRC NLB260200318
INDEX 01 00:00:00
FILE "10 Aed Mac Ainmirech d.wav" WAVE
TRACK 10 AUDIO
TITLE "Aed Mac Ainmirech d"
PERFORMER "Koolmees, Hans"
ISRC NLB260200319
INDEX 01 00:00:00
FILE "11 Aed Mac Ainmirech e.wav" WAVE
TRACK 11 AUDIO
TITLE "Aed Mac Ainmirech e"
PERFORMER "Koolmees, Hans"
ISRC NLB260200319
INDEX 01 00:00:00
FILE "12 Aed Mac Ainmirech f.wav" WAVE
TRACK 12 AUDIO
TITLE "Aed Mac Ainmirech f"
PERFORMER "Koolmees, Hans"
ISRC NLB260200321
INDEX 01 00:00:00
FILE "13 Aed Mac Ainmirech g.wav" WAVE
TRACK 13 AUDIO
TITLE "Aed Mac Ainmirech g"
PERFORMER "Koolmees, Hans"
ISRC NLB260200322
INDEX 01 00:00:00
TRACK 14 AUDIO
TITLE "Posjlost a"
PERFORMER "Koolmees, Hans"
ISRC NLB260200323
INDEX 00 01:56:17
FILE "14 Posjlost a.wav" WAVE
INDEX 01 00:00:00
FILE "15 Posjlost b.wav" WAVE
TRACK 15 AUDIO
TITLE "Posjlost b"
PERFORMER "Koolmees, Hans"
ISRC NLB260200324
INDEX 01 00:00:00
FILE "16 Posjlost c.wav" WAVE
TRACK 16 AUDIO
TITLE "Posjlost c"
PERFORMER "Koolmees, Hans"
ISRC NLB260200325
INDEX 01 00:00:00

Лог проверки качества

AUDIOCHECKER v2.0 beta (build 457) - by Dester - opdester@freemail.hu
~~~~~~~~~~~~~~~~~~~~~~~~~~~~~~~~~~
-=== DO NOT EDIT THIS FILE! ===-
Path: ...\Choral Works by Ton de Leeuw, Klaas de Vries and Hans Koolmees (2003)
01 -=- 01 Elegie pour les villes detruites a.flac -=- CDDA (100%)
02 -=- 02 Elegie pour les villes detruites b.flac -=- CDDA (100%)
03 -=- 03 Elegie pour les villes detruites c.flac -=- CDDA (100%)
04 -=- 04 Elegie pour les villes detruites d.flac -=- CDDA (100%)
05 -=- 05 Elegie pour les villes detruites e.flac -=- CDDA (100%)
06 -=- 06 Abdicacao.flac -=- CDDA (99%)
07 -=- 07 Aed Mac Ainmirech a.flac -=- CDDA (100%)
08 -=- 08 Aed Mac Ainmirech b.flac -=- CDDA (100%)
09 -=- 09 Aed Mac Ainmirech c.flac -=- CDDA (100%)
10 -=- 10 Aed Mac Ainmirech d.flac -=- CDDA (100%)
11 -=- 11 Aed Mac Ainmirech e.flac -=- CDDA (100%)
12 -=- 12 Aed Mac Ainmirech f.flac -=- CDDA (86%)
13 -=- 13 Aed Mac Ainmirech g.flac -=- CDDA (100%)
14 -=- 14 Posjlost a.flac -=- CDDA (100%)
15 -=- 15 Posjlost b.flac -=- CDDA (43%)
16 -=- 16 Posjlost c.flac -=- CDDA (99%)
Summary 95,44% CDDA
11524036
[teatrix.ru].t18007.torrent 
Торрент: Зарегистрирован [ 2016-03-17 00:46 ] · 69CFEB9E238904383F28333CE6DA3DE34389D737

Скачать .torrent

Скачать

17 KB

Статус: проверено
Скачан: 0 раз
Размер: 192 MB
terms.php



Быстрый ответ

Имя:

      
Для отправки сообщений необходимо включить JavaScript
Показать сообщения:    

Текущее время: 03-Дек 07:34

Часовой пояс: UTC + 3


Вы можете начинать темы
Вы можете отвечать на сообщения
Вы не можете редактировать свои сообщения
Вы не можете удалять свои сообщения
Вы не можете голосовать в опросах
Вы не можете прикреплять файлы к сообщениям
Вы можете скачивать файлы