(Classical) Gustav Mahler - Das klagende Lied • Ruckert-Lieder • Des Knaben Wunderhorn • Lieder eines fahrenden Gesellen • Kindertotenlieder (Baur, Dunn, Fassbaender, Hollweg, Schmidt; Riccardo Chailly, 1988/1989) - 2003, FLAC (tracks+.cue) lossless


 

[Цитировать]

Gustav Mahler | Густав Малер
(1860–1911)



Das klagende Lied | Fünf Rückert-Lieder | Lieder eines fahrenden Gesellen
Kindertotenlieder | Drei Lieder aus Des Knaben Wunderhorn

Жалобная песнь | Пять песен на стихи Рюккерта | Песни странствующего подмастерья
Песни об умерших детях | Три песни из цикла «Волшебный рог мальчика»



Markus Baur boy alto
Susan Dunn sopranoBrigitte Fassbaender mezzo-soprano
Werner Hollweg tenorAndreas Schmidt bass
Städticher Musikverein zu Düsseldorf (Hartmut Schmidt chorus master)
Radio-Symphonie-Orchester Berlin
Riccardo Chailly conductor


Жанр: Classical / Vocal
Даты и место записи: Jesus-Christus-Kirche, Berlin, 1988–1989
Формат записи: DDD, Stereo
Год издания диска: 2003
Издатель (лейбл): Decca
Номер по каталогу: 473 725-2
Аудиокодек: FLAC
Тип рипа: tracks+.cue
Битрейт аудио: lossless
Продолжительность: 2:15:11
Наличие сканов в содержимом раздачи: да
Источник: What.CD
Релизёр: jdtalent
Примечание: на обложке и в буклете оркестр назван Deutsches Symphonie-Orchesterэто современное (с 1993 года) название; записи же сделаны ещё в 80-е.

-Tracklist / ТреклистCD 1: Das klagende Lied
Das klagende Lied - 1:04:26
I. Waldmärchen - 28:12
  • II. Der Spielmann - 17:41
  • III. Hochzeitsstück - 18:33
    _____
    Markus Baur (boy alto), Susan Dunn (soprano), Brigitte Fassbaender (mezzo-soprano), Werner Hollweg (tenor), Andreas Schmidt (bass)
    Städticher Musikverein zu Düsseldorf (Hartmut Schmidt, chorus master)
    Recorded: Jesus-Christus-Kirche, Berlin, III.1989

    CD 2: Fünf Rückert-Lieder • 3 Lieder aus Des Knaben Wunderhorn • Lieder eines fahrenden Gesellen • Kindertotenlieder
    Fünf Rückert-Lieder - 18:16
    I. «Blicke mir nicht in die Lieder!» - 1:28
  • II. «Ich atmet' einen linden Duft» - 2:35
  • IV. «Um Mitternacht» - 5:51
  • V. «Liebst du um Schönheit» - 2:05
  • III. «Ich bin der Welt abhanden gekommen» - 6:16
    Des Knaben Wunderhorn - 11:14
    VI. Des Antonius von Padua Fischpredigt - 3:41
  • V. Das irdische Leben - 2:40
  • XIV. Urlicht - 4:53
    Lieder eines fahrenden Gesellen - 15:28
    I. «Wenn mein Schatz Hochzeit macht» - 3:51
  • II. «Ging heut' morgen übers Feld» - 3:48
  • III. «Ich hab' ein glühend Messer» - 2:58
  • IV. «Die zwei blauen Augen von meinem Schatz» - 4:51
    Kindertotenlieder - 25:46
    I. «Nun will die Sonn' so hell aufgeh'n» - 5:42
  • II. «Nun seh' ich wohl, warum so dunkle Flammen» - 5:10
  • III. «Wenn dein Mütterlein tritt zur Tür herein» - 4:57
  • IV. «Oft denk' ich, sie sind nur ausgegangen!» - 3:00
  • V. «In diesem Wetter, in diesem Braus» - 6:58
    _____
    Brigitte Fassbaender (mezzo-soprano)
    Recorded: Jesus-Christus-Kirche, Berlin, II.1988, I & III.1989
    -

    XLD logs / Отчёты XLDCD 1: Das klagende Lied

    X Lossless Decoder version 20130720 (144.0)
    XLD extraction logfile from 2013-11-01 17:11:28 -0600
    Susan Dunn, Brigitte Fassbaender, Etc.; Riccardo Chailly: Berlin Radio Symphony Orchestra, Stadtischer Musikverein Dusseldorf / Mahler Das Klagende Lied, Rückert-Lieder, Etc. [Disc 1]
    Used drive : MATSHITA DVD-R UJ-8A8 (revision HB14)
    Media type : Pressed CD
    Ripper mode : XLD Secure Ripper
    Disable audio cache : OK for the drive with a cache less than 1375KiB
    Make use of C2 pointers : NO
    Read offset correction : 102
    Max retry count : 100
    Gap status : Analyzed, Appended
    TOC of the extracted CD
    Track | Start | Length | Start sector | End sector
    ---------------------------------------------------------
    1 | 00:00:33 | 28:11:62 | 33 | 126919
    2 | 28:12:20 | 17:41:33 | 126920 | 206527
    3 | 45:53:53 | 18:32:57 | 206528 | 289984
    AccurateRip Summary (DiscID: 0009836a-001f06f5-290f1a03)
    Track 01 : OK (v1+v2, confidence 17/17)
    Track 02 : OK (v1+v2, confidence 17/17)
    Track 03 : OK (v1+v2, confidence 17/17)
    ->All tracks accurately ripped.
    All Tracks
    Album gain : 0.22 dB
    Peak : 0.983307
    Statistics
    Read error : 0
    Jitter error (maybe fixed) : 0
    Retry sector count : 0
    Damaged sector count : 0
    Track 01
    Filename : /Malher - Songs Cycles - Fassbaender, Chailly/01 Das Klagende Lied - 1. Waldmärchen.flac
    Pre-gap length : 00:02:33
    Track gain : 1.93 dB
    Peak : 0.968323
    CRC32 hash (test run) : C0345F69
    CRC32 hash : C0345F69
    CRC32 hash (skip zero) : F7C163B3
    AccurateRip v1 signature : E8907755
    AccurateRip v2 signature : B6C6D7C4
    ->Accurately ripped (v1+v2, confidence 9+8/17)
    Statistics
    Read error : 0
    Jitter error (maybe fixed) : 0
    Retry sector count : 0
    Damaged sector count : 0
    Track 02
    Filename : /Malher - Songs Cycles - Fassbaender, Chailly/02 Das Klagende Lied - 2. Der Spielmann.flac
    Pre-gap length : 00:03:00
    Track gain : 3.04 dB
    Peak : 0.958862
    CRC32 hash (test run) : F80DBD8D
    CRC32 hash : F80DBD8D
    CRC32 hash (skip zero) : 047653C7
    AccurateRip v1 signature : CDD3D9D7
    AccurateRip v2 signature : B1194795
    ->Accurately ripped (v1+v2, confidence 9+8/17)
    Statistics
    Read error : 0
    Jitter error (maybe fixed) : 0
    Retry sector count : 0
    Damaged sector count : 0
    Track 03
    Filename : /Malher - Songs Cycles - Fassbaender, Chailly/03 Das Klagende Lied - 3. Hochzeitsstück.flac
    Pre-gap length : 00:02:58
    Track gain : -2.05 dB
    Peak : 0.983307
    CRC32 hash (test run) : FC9428BB
    CRC32 hash : FC9428BB
    CRC32 hash (skip zero) : 465EBDA3
    AccurateRip v1 signature : 254E5BF2
    AccurateRip v2 signature : 1E2BC33E
    ->Accurately ripped (v1+v2, confidence 9+8/17)
    Statistics
    Read error : 0
    Jitter error (maybe fixed) : 0
    Retry sector count : 0
    Damaged sector count : 0
    No errors occurred
    End of status report
    -----BEGIN XLD SIGNATURE-----
    .jLiO_Og_Eaih13FjSUFhiN3s8cFGXNUnwYVHwvR3Hj7w2UgpeI6fCiG8uCBG4StPXg63fHbAgwQeI87jCSP5j2zctKWJi1XVqcS2jC
    -----END XLD SIGNATURE-----

    CD 2: Fünf Rückert-Lieder • 3 Lieder aus Des Knaben Wunderhorn • Lieder eines fahrenden Gesellen • Kindertotenlieder

    X Lossless Decoder version 20130720 (144.0)
    XLD extraction logfile from 2013-11-01 16:40:05 -0600
    Brigitte Fassbaender, Riccardo Chailly: Deutches Symphonie-Orchester Berlin / Mahler Das Klagende Lied, Rückert-Lieder, Etc. [Disc 2]
    Used drive : MATSHITA DVD-R UJ-8A8 (revision HB14)
    Media type : Pressed CD
    Ripper mode : XLD Secure Ripper
    Disable audio cache : OK for the drive with a cache less than 1375KiB
    Make use of C2 pointers : NO
    Read offset correction : 102
    Max retry count : 100
    Gap status : Analyzed, Appended
    TOC of the extracted CD
    Track | Start | Length | Start sector | End sector
    ---------------------------------------------------------
    1 | 00:00:33 | 01:27:25 | 33 | 6582
    2 | 01:27:58 | 02:35:25 | 6583 | 18232
    3 | 04:03:08 | 05:50:50 | 18233 | 44532
    4 | 09:53:58 | 02:05:37 | 44533 | 53944
    5 | 11:59:20 | 06:16:25 | 53945 | 82169
    6 | 18:15:45 | 03:41:00 | 82170 | 98744
    7 | 21:56:45 | 02:39:63 | 98745 | 110732
    8 | 24:36:33 | 04:53:37 | 110733 | 132744
    9 | 29:29:70 | 03:50:38 | 132745 | 150032
    10 | 33:20:33 | 03:47:50 | 150033 | 167107
    11 | 37:08:08 | 02:58:37 | 167108 | 180494
    12 | 40:06:45 | 04:51:13 | 180495 | 202332
    13 | 44:57:58 | 05:42:00 | 202333 | 227982
    14 | 50:39:58 | 05:09:62 | 227983 | 251219
    15 | 55:49:45 | 04:56:63 | 251220 | 273482
    16 | 60:46:33 | 03:00:12 | 273483 | 286994
    17 | 63:46:45 | 06:57:50 | 286995 | 318319
    AccurateRip Summary (DiscID: 0027c27a-0204a8e3-ee109411)
    Track 01 : OK (v1+v2, confidence 17/17)
    Track 02 : OK (v1+v2, confidence 17/17)
    Track 03 : OK (v1+v2, confidence 17/17)
    Track 04 : OK (v1+v2, confidence 17/17)
    Track 05 : OK (v1+v2, confidence 17/17)
    Track 06 : OK (v1+v2, confidence 16/16)
    Track 07 : OK (v1+v2, confidence 16/16)
    Track 08 : OK (v1+v2, confidence 16/16)
    Track 09 : OK (v1+v2, confidence 17/17)
    Track 10 : OK (v1+v2, confidence 17/17)
    Track 11 : OK (v1+v2, confidence 17/17)
    Track 12 : OK (v1+v2, confidence 17/17)
    Track 13 : OK (v1+v2, confidence 17/17)
    Track 14 : OK (v1+v2, confidence 17/17)
    Track 15 : OK (v1+v2, confidence 17/17)
    Track 16 : OK (v1+v2, confidence 17/17)
    Track 17 : OK (v1+v2, confidence 16/16)
    ->All tracks accurately ripped.
    All Tracks
    Album gain : 3.32 dB
    Peak : 1.000000
    Statistics
    Read error : 0
    Jitter error (maybe fixed) : 0
    Retry sector count : 0
    Damaged sector count : 0
    Track 01
    Filename : /Malher - Songs Cycles - Fassbaender, Chailly/01 Fünf Lieder nach Rückert- I Blicke mir nicht in die Lieder!.flac
    Pre-gap length : 00:02:33
    Track gain : 8.43 dB
    Peak : 0.280426
    CRC32 hash (test run) : 99989EDF
    CRC32 hash : 99989EDF
    CRC32 hash (skip zero) : 40308C24
    AccurateRip v1 signature : 2BB4F240
    AccurateRip v2 signature : 1421886A
    ->Accurately ripped (v1+v2, confidence 8+9/17)
    Statistics
    Read error : 0
    Jitter error (maybe fixed) : 0
    Retry sector count : 0
    Damaged sector count : 0
    Track 02
    Filename : /Malher - Songs Cycles - Fassbaender, Chailly/02 Fünf Lieder nach Rückert- II Ich atmet' einen linden Duft.flac
    Pre-gap length : 00:03:13
    Track gain : 10.23 dB
    Peak : 0.251770
    CRC32 hash (test run) : A4822DB4
    CRC32 hash : A4822DB4
    CRC32 hash (skip zero) : 7EA63B25
    AccurateRip v1 signature : 473421E3
    AccurateRip v2 signature : 15230624
    ->Accurately ripped (v1+v2, confidence 8+9/17)
    Statistics
    Read error : 0
    Jitter error (maybe fixed) : 0
    Retry sector count : 0
    Damaged sector count : 0
    Track 03
    Filename : /Malher - Songs Cycles - Fassbaender, Chailly/03 Fünf Lieder nach Rückert- IV Um Mitternacht.flac
    Pre-gap length : 00:04:00
    Track gain : -1.57 dB
    Peak : 0.996826
    CRC32 hash (test run) : 163A639A
    CRC32 hash : 163A639A
    CRC32 hash (skip zero) : 6E17900A
    AccurateRip v1 signature : 32391E89
    AccurateRip v2 signature : 6A084BAA
    ->Accurately ripped (v1+v2, confidence 8+9/17)
    Statistics
    Read error : 0
    Jitter error (maybe fixed) : 0
    Retry sector count : 0
    Damaged sector count : 0
    Track 04
    Filename : /Malher - Songs Cycles - Fassbaender, Chailly/04 Fünf Lieder nach Rückert- V Liebst du um Schönheit (orch. Max Puttmann).flac
    Pre-gap length : 00:04:25
    Track gain : 2.16 dB
    Peak : 0.404938
    CRC32 hash (test run) : 1ED0ACAA
    CRC32 hash : 1ED0ACAA
    CRC32 hash (skip zero) : 26361C6F
    AccurateRip v1 signature : 3398022A
    AccurateRip v2 signature : 53D28E46
    ->Accurately ripped (v1+v2, confidence 8+9/17)
    Statistics
    Read error : 0
    Jitter error (maybe fixed) : 0
    Retry sector count : 0
    Damaged sector count : 0
    Track 05
    Filename : /Malher - Songs Cycles - Fassbaender, Chailly/05 Fünf Lieder nach Rückert- III Ich bin der Welt abhanden gekommen.flac
    Pre-gap length : 00:04:00
    Track gain : 11.56 dB
    Peak : 0.350677
    CRC32 hash (test run) : 6D1F5AED
    CRC32 hash : 6D1F5AED
    CRC32 hash (skip zero) : 999D0117
    AccurateRip v1 signature : 77A3C760
    AccurateRip v2 signature : EE5FDE13
    ->Accurately ripped (v1+v2, confidence 8+9/17)
    Statistics
    Read error : 0
    Jitter error (maybe fixed) : 0
    Retry sector count : 0
    Damaged sector count : 0
    Track 06
    Filename : /Malher - Songs Cycles - Fassbaender, Chailly/06 Des Knaben Wunderhorn - Drei Lieder- VI Des Antonius von Padua Fischpredigt.flac
    Pre-gap length : 00:06:38
    Track gain : 3.26 dB
    Peak : 0.625488
    CRC32 hash (test run) : 9ABD7B13
    CRC32 hash : 9ABD7B13
    CRC32 hash (skip zero) : 6605B408
    AccurateRip v1 signature : 8005994B
    AccurateRip v2 signature : 9C0EEE4E
    ->Accurately ripped (v1+v2, confidence 8+8/16)
    Statistics
    Read error : 0
    Jitter error (maybe fixed) : 0
    Retry sector count : 0
    Damaged sector count : 0
    Track 07
    Filename : /Malher - Songs Cycles - Fassbaender, Chailly/07 Des Knaben Wunderhorn - Drei Lieder- V Das iridische Leben.flac
    Pre-gap length : 00:03:38
    Track gain : 2.53 dB
    Peak : 0.798492
    CRC32 hash (test run) : 589A0DE2
    CRC32 hash : 589A0DE2
    CRC32 hash (skip zero) : C84B4EAB
    AccurateRip v1 signature : 8A1F5C87
    AccurateRip v2 signature : 3A033E3F
    ->Accurately ripped (v1+v2, confidence 8+8/16)
    Statistics
    Read error : 0
    Jitter error (maybe fixed) : 0
    Retry sector count : 0
    Damaged sector count : 0
    Track 08
    Filename : /Malher - Songs Cycles - Fassbaender, Chailly/08 Des Knaben Wunderhorn - Drei Lieder- XII Urlicht.flac
    Pre-gap length : 00:06:63
    Track gain : 7.53 dB
    Peak : 0.305908
    CRC32 hash (test run) : 7E8DE934
    CRC32 hash : 7E8DE934
    CRC32 hash (skip zero) : 26014F2A
    AccurateRip v1 signature : 4112E725
    AccurateRip v2 signature : F5C59E2C
    ->Accurately ripped (v1+v2, confidence 8+8/16)
    Statistics
    Read error : 0
    Jitter error (maybe fixed) : 0
    Retry sector count : 0
    Damaged sector count : 0
    Track 09
    Filename : /Malher - Songs Cycles - Fassbaender, Chailly/09 Lieder eines fahrenden Gesellen- I Wenn mein Schatz Hochzeit macht.flac
    Pre-gap length : 00:08:50
    Track gain : 3.17 dB
    Peak : 0.609528
    CRC32 hash (test run) : A76B2A87
    CRC32 hash : A76B2A87
    CRC32 hash (skip zero) : CDD8DB09
    AccurateRip v1 signature : B0652813
    AccurateRip v2 signature : CC24F6BF
    ->Accurately ripped (v1+v2, confidence 8+9/17)
    Statistics
    Read error : 0
    Jitter error (maybe fixed) : 0
    Retry sector count : 0
    Damaged sector count : 0
    Track 10
    Filename : /Malher - Songs Cycles - Fassbaender, Chailly/10 Lieder eines fahrenden Gesellen- II Ging heut' morgen über's Feld.flac
    Pre-gap length : 00:03:13
    Track gain : 2.80 dB
    Peak : 0.734039
    CRC32 hash (test run) : 601C4C03
    CRC32 hash : 601C4C03
    CRC32 hash (skip zero) : 5450D288
    AccurateRip v1 signature : C78F888A
    AccurateRip v2 signature : 221C8FAE
    ->Accurately ripped (v1+v2, confidence 8+9/17)
    Statistics
    Read error : 0
    Jitter error (maybe fixed) : 0
    Retry sector count : 0
    Damaged sector count : 0
    Track 11
    Filename : /Malher - Songs Cycles - Fassbaender, Chailly/11 Lieder eines fahrenden Gesellen- III Ich hab' ein glühend Messer.flac
    Pre-gap length : 00:03:63
    Track gain : -3.46 dB
    Peak : 1.000000
    CRC32 hash (test run) : 8DF8209F
    CRC32 hash : 8DF8209F
    CRC32 hash (skip zero) : D56793D6
    AccurateRip v1 signature : 167995A5
    AccurateRip v2 signature : B68B8D0D
    ->Accurately ripped (v1+v2, confidence 8+9/17)
    Statistics
    Read error : 0
    Jitter error (maybe fixed) : 0
    Retry sector count : 0
    Damaged sector count : 0
    Track 12
    Filename : /Malher - Songs Cycles - Fassbaender, Chailly/12 Lieder eines fahrenden Gesellen- IV Die zwei blauen Augen.flac
    Pre-gap length : 00:03:50
    Track gain : 6.71 dB
    Peak : 0.392609
    CRC32 hash (test run) : 28CF066B
    CRC32 hash : 28CF066B
    CRC32 hash (skip zero) : 88BCB543
    AccurateRip v1 signature : 84C41C9D
    AccurateRip v2 signature : C4B7C1CF
    ->Accurately ripped (v1+v2, confidence 8+9/17)
    Statistics
    Read error : 0
    Jitter error (maybe fixed) : 0
    Retry sector count : 0
    Damaged sector count : 0
    Track 13
    Filename : /Malher - Songs Cycles - Fassbaender, Chailly/13 Kindertotenlieder- I Nun will die Sonn' so hell aufgeh'n.flac
    Pre-gap length : 00:07:63
    Track gain : 7.88 dB
    Peak : 0.401886
    CRC32 hash (test run) : 188CC6EF
    CRC32 hash : 188CC6EF
    CRC32 hash (skip zero) : 84661104
    AccurateRip v1 signature : 2968B98F
    AccurateRip v2 signature : C7C7FE87
    ->Accurately ripped (v1+v2, confidence 8+9/17)
    Statistics
    Read error : 0
    Jitter error (maybe fixed) : 0
    Retry sector count : 0
    Damaged sector count : 0
    Track 14
    Filename : /Malher - Songs Cycles - Fassbaender, Chailly/14 Kindertotenlieder- II Nun seh' ich wohl, warum so dunkle Flammen.flac
    Pre-gap length : 00:02:63
    Track gain : 3.59 dB
    Peak : 0.612701
    CRC32 hash (test run) : 88C13433
    CRC32 hash : 88C13433
    CRC32 hash (skip zero) : FCBF48B6
    AccurateRip v1 signature : 6B670CB9
    AccurateRip v2 signature : 36FFAA2D
    ->Accurately ripped (v1+v2, confidence 8+9/17)
    Statistics
    Read error : 0
    Jitter error (maybe fixed) : 0
    Retry sector count : 0
    Damaged sector count : 0
    Track 15
    Filename : /Malher - Songs Cycles - Fassbaender, Chailly/15 Kindertotenlieder- III Wenn dein Mütterlein.flac
    Pre-gap length : 00:04:00
    Track gain : 4.78 dB
    Peak : 0.515594
    CRC32 hash (test run) : 17701AD7
    CRC32 hash : 17701AD7
    CRC32 hash (skip zero) : DA38FCFD
    AccurateRip v1 signature : CE340EBD
    AccurateRip v2 signature : 381D9357
    ->Accurately ripped (v1+v2, confidence 8+9/17)
    Statistics
    Read error : 0
    Jitter error (maybe fixed) : 0
    Retry sector count : 0
    Damaged sector count : 0
    Track 16
    Filename : /Malher - Songs Cycles - Fassbaender, Chailly/16 Kindertotenlieder- IV Oft denk' ich, sie sind nur ausgegangen!.flac
    Pre-gap length : 00:03:63
    Track gain : 2.11 dB
    Peak : 0.691742
    CRC32 hash (test run) : 4DFCBCCD
    CRC32 hash : 4DFCBCCD
    CRC32 hash (skip zero) : 1FDB149E
    AccurateRip v1 signature : A4C08B80
    AccurateRip v2 signature : 3369FD55
    ->Accurately ripped (v1+v2, confidence 8+9/17)
    Statistics
    Read error : 0
    Jitter error (maybe fixed) : 0
    Retry sector count : 0
    Damaged sector count : 0
    Track 17
    Filename : /Malher - Songs Cycles - Fassbaender, Chailly/17 Kindertotenlieder- V In diesem Wetter.flac
    Pre-gap length : 00:03:25
    Track gain : 4.08 dB
    Peak : 0.557770
    CRC32 hash (test run) : 5DD32FE7
    CRC32 hash : 5DD32FE7
    CRC32 hash (skip zero) : 2CB14318
    AccurateRip v1 signature : B1778091
    AccurateRip v2 signature : 499DF182
    ->Accurately ripped (v1+v2, confidence 7+9/16)
    Statistics
    Read error : 0
    Jitter error (maybe fixed) : 0
    Retry sector count : 0
    Damaged sector count : 0
    No errors occurred
    End of status report
    -----BEGIN XLD SIGNATURE-----
    4dCJIIflFkHbTJ9WjipP6oVNtwtzxu238PZPel0QPVJXfnB2lSLY3KZBECYoIKRPPtNiT_Fyhq4ahAQr_8JW6NjhHQ2aLG5AXf2CWz0
    -----END XLD SIGNATURE-----

    auCDtect Task Manager logs / Отчёты auCDtect Task ManagerCD 1: Das klagende Lied

    -----------------------
    DON'T MODIFY THIS FILE
    -----------------------
    PERFORMER: auCDtect Task Manager, ver. 1.5.1RC3 build 1.5.1.4
    Copyright (c) 2008-2010 y-soft. All rights reserved
    ANALYZER: auCDtect: CD records authenticity detector, version 0.8.2
    Copyright (c) 2004 Oleg Berngardt. All rights reserved.
    Copyright (c) 2004 Alexander Djourik. All rights reserved.
    FILE: 03 - Das klagende Lied - III. Hochzeitsstueck.flac
    Size: 78008611 Hash: 06BCDFB274E147EFFD8F00D6980DAB5B Accuracy: -m0
    Conclusion: CDDA 100%
    Signature: CE4F71FCA23052AAA6ACB647E40EAE545594C2A1
    FILE: 02 - Das klagende Lied - II. Der Spielmann.flac
    Size: 64082502 Hash: C6E713831E28079D7AF8D5DA98D021F5 Accuracy: -m0
    Conclusion: CDDA 100%
    Signature: C58EE6D194C70A106AD1FC5E5984162CA2A1C82D
    FILE: 01 - Das klagende Lied - I. Waldmaerchen.flac
    Size: 106369940 Hash: 761390A4002D4D854338CBB1D295D149 Accuracy: -m0
    Conclusion: CDDA 100%
    Signature: E1C0328577BA7E3431B57CD163ECAE896491F80D

    CD 2: Fünf Rückert-Lieder • 3 Lieder aus Des Knaben Wunderhorn • Lieder eines fahrenden Gesellen • Kindertotenlieder

    -----------------------
    DON'T MODIFY THIS FILE
    -----------------------
    PERFORMER: auCDtect Task Manager, ver. 1.5.1RC3 build 1.5.1.4
    Copyright (c) 2008-2010 y-soft. All rights reserved
    ANALYZER: auCDtect: CD records authenticity detector, version 0.8.2
    Copyright (c) 2004 Oleg Berngardt. All rights reserved.
    Copyright (c) 2004 Alexander Djourik. All rights reserved.
    FILE: 17 - Kindertotenlieder - V. In diesem Wetter, in diesem Braus.flac
    Size: 28824928 Hash: 50B4549B53E2880FB7705ED8915357A7 Accuracy: -m0
    Conclusion: CDDA 54%
    Signature: 2DB8C1A6A781476106DA9CF85149F8A22628C864
    FILE: 16 - Kindertotenlieder - IV. Oft denk' ich, sie sind nur ausgegangen!.flac
    Size: 12869992 Hash: 51B253DF156852D71139B3C8CEBD11CE Accuracy: -m0
    Conclusion: CDDA 62%
    Signature: EF31122CB58B0AABFBFFF5A338CBC2D942457A89
    FILE: 15 - Kindertotenlieder - III. Wenn dein Muetterlein tritt zur Tuer herein.flac
    Size: 19765200 Hash: 3AECADBCEAEAFF2AB2A7306974B7ECBD Accuracy: -m0
    Conclusion: ???
    Signature: 86556621F0E68C8ADE44E05D1BB284BAC9A4B973
    FILE: 14 - Kindertotenlieder - II. Nun seh' ich wohl, warum so dunkle Flammen.flac
    Size: 20873087 Hash: 18FD2152F91C6D29D94C2BE7CA51F617 Accuracy: -m0
    Conclusion: CDDA 42%
    Signature: 7B068033A50D3296C66E69E71E65F0380A28778C
    FILE: 13 - Kindertotenlieder - I. Nun will die Sonn' so hell aufgeh'n.flac
    Size: 22463675 Hash: 5E45E6DA58CE274589DDFCEC9CD991DD Accuracy: -m0
    Conclusion: MPEG 90%
    Signature: 881C3A33E0886F4167951E55651FD3784D060071
    FILE: 12 - Lieder eines fahrenden Gesellen - IV. Die zwei blauen Augen von meinem Schatz.flac
    Size: 17975391 Hash: 5006199BB4F49CC6C4C5404C81E82EB7 Accuracy: -m0
    Conclusion: ???
    Signature: DD917FA36F62DE167ADC133CA469C61F290735CF
    FILE: 11 - Lieder eines fahrenden Gesellen - III. Ich hab' ein gluehend Messer.flac
    Size: 13665805 Hash: D738468580A31D2CC4668A60FC3CAF8D Accuracy: -m0
    Conclusion: CDDA 42%
    Signature: AC72D512FE64FF30CEC6C7A099FE6144B6215C70
    FILE: 10 - Lieder eines fahrenden Gesellen - II. Ging heut' morgen uebers Feld.flac
    Size: 16291869 Hash: A198C41E714B5B9B2CDFF185DEB95C6D Accuracy: -m0
    Conclusion: ???
    Signature: 34A60C3FD1472B098B133B78318CEFE29D22C9F8
    FILE: 09 - Lieder eines fahrenden Gesellen - I. Wenn mein Schatz Hochzeit macht.flac
    Size: 15888766 Hash: B06874411435697E443E378FDDFA959D Accuracy: -m0
    Conclusion: ???
    Signature: 687641AC799677224A4EBCDE1005D49A1CD38E19
    FILE: 08 - Des Knaben Wunderhorn - XIV. Urlicht.flac
    Size: 18594429 Hash: 4D5BBB6EEF1C003957021A672FE08DC3 Accuracy: -m0
    Conclusion: MPEG 93%
    Signature: 3BEBFC879570645F61D2959B82B1816B1E9BBBE7
    FILE: 07 - Des Knaben Wunderhorn - V. Das irdische Leben.flac
    Size: 11364549 Hash: 1F63EF78F0C63A9643951B3A8E8265AA Accuracy: -m0
    Conclusion: CDDA 58%
    Signature: C38A5EF761DFD2A09B1292C1B934132FD362739E
    FILE: 06 - Des Knaben Wunderhorn - VI. Des Antonius von Padua Fischpredigt.flac
    Size: 16292760 Hash: A2C30C13877767BF8A87AE64304595FF Accuracy: -m0
    Conclusion: CDDA 100%
    Signature: ACABE1C12CE084A5C2C83B2C5AFFF336F1473E34
    FILE: 05 - Fuenf Rueckert-Lieder - III. Ich bin der Welt abhanden gekommen.flac
    Size: 22745895 Hash: 819E8CCBD8B9F39203F3B196B513E095 Accuracy: -m0
    Conclusion: ???
    Signature: 10EB3E6D3CAAC49B4B780AAD2319DFEFBCD0C5D7
    FILE: 04 - Fuenf Rueckert-Lieder - V. Liebst du um Schoenheit.flac
    Size: 8815150 Hash: BF0CC0B37A68636CCCA20D59A642F121 Accuracy: -m0
    Conclusion: ???
    Signature: 3C9D9A98928DA0BC2D8EBAA7E462AC6DACD0B26E
    FILE: 03 - Fuenf Rueckert-Lieder - IV. Um Mitternacht.flac
    Size: 23390206 Hash: 2B23CC4A5237B9906685525B261E893B Accuracy: -m0
    Conclusion: MPEG 100%
    Signature: CCD51E5CBB90E656ED9CAA09AF5C01BCE8918CF0
    FILE: 02 - Fuenf Rueckert-Lieder - II. Ich atmet' einen linden Duft.flac
    Size: 9360047 Hash: BF792EC1F8EE3CE5BF0386DBA5D0B2B4 Accuracy: -m0
    Conclusion: ???
    Signature: 6BF5C184CF8D00C77C6D60FB946E7A60C9CB0FA3
    FILE: 01 - Fuenf Rueckert-Lieder - I. Blicke mir nicht in die Lieder!.flac
    Size: 5878399 Hash: 800E523C8358151BA95976B11034D619 Accuracy: -m0
    Conclusion: CDDA 43%
    Signature: F0539BE27C3C389A154F4C84E7ED5AC18A5A2BD2

    CUETools logs / Отчёты CUEToolsCD 1: Das klagende Lied

    [CUETools log; Date: 27.12.2013 01:30:00; Version: 2.1.4]
    Pregap length 00:00:33.
    [AccurateRip ID: 0009836a-001f06f5-290f1a03] found.
    Track [ CRC | V2 ] Status
    01 [e8907755|b6c6d7c4] (09+08/17) Accurately ripped
    02 [cdd3d9d7|b1194795] (09+08/17) Accurately ripped
    03 [254e5bf2|1e2bc33e] (09+08/17) Accurately ripped
    Track Peak [ CRC32 ] [W/O NULL]
    -- 98,3 [24FD85A4] [58040ECB]
    01 96,8 [C0345F69] [F7C163B3]
    02 95,8 [F80DBD8D] [047653C7]
    03 98,3 [FC9428BB] [465EBDA3]

    CD 2: Fünf Rückert-Lieder • 3 Lieder aus Des Knaben Wunderhorn • Lieder eines fahrenden Gesellen • Kindertotenlieder

    [CUETools log; Date: 27.12.2013 01:30:12; Version: 2.1.4]
    Pregap length 00:00:33.
    [AccurateRip ID: 0027c27a-0204a8e3-ee109411] found.
    Track [ CRC | V2 ] Status
    01 [2bb4f240|1421886a] (08+09/17) Accurately ripped
    02 [473421e3|15230624] (08+09/17) Accurately ripped
    03 [32391e89|6a084baa] (08+09/17) Accurately ripped
    04 [3398022a|53d28e46] (08+09/17) Accurately ripped
    05 [77a3c760|ee5fde13] (08+09/17) Accurately ripped
    06 [8005994b|9c0eee4e] (08+08/16) Accurately ripped
    07 [8a1f5c87|3a033e3f] (08+08/16) Accurately ripped
    08 [4112e725|f5c59e2c] (08+08/16) Accurately ripped
    09 [b0652813|cc24f6bf] (08+09/17) Accurately ripped
    10 [c78f888a|221c8fae] (08+09/17) Accurately ripped
    11 [167995a5|b68b8d0d] (08+09/17) Accurately ripped
    12 [84c41c9d|c4b7c1cf] (08+09/17) Accurately ripped
    13 [2968b98f|c7c7fe87] (08+09/17) Accurately ripped
    14 [6b670cb9|36ffaa2d] (08+09/17) Accurately ripped
    15 [ce340ebd|381d9357] (08+09/17) Accurately ripped
    16 [a4c08b80|3369fd55] (08+09/17) Accurately ripped
    17 [b1778091|499df182] (07+09/16) Accurately ripped
    Track Peak [ CRC32 ] [W/O NULL]
    -- 100,0 [57BA5FAE] [43F436BE]
    01 28,0 [99989EDF] [40308C24]
    02 25,1 [A4822DB4] [7EA63B25]
    03 99,6 [163A639A] [6E17900A]
    04 40,4 [1ED0ACAA] [26361C6F]
    05 35,0 [6D1F5AED] [999D0117]
    06 62,5 [9ABD7B13] [6605B408]
    07 79,8 [589A0DE2] [C84B4EAB]
    08 30,5 [7E8DE934] [26014F2A]
    09 60,9 [A76B2A87] [CDD8DB09]
    10 73,4 [601C4C03] [5450D288]
    11 100,0 [8DF8209F] [D56793D6]
    12 39,2 [28CF066B] [88BCB543]
    13 40,1 [188CC6EF] [84661104]
    14 61,2 [88C13433] [FCBF48B6]
    15 51,5 [17701AD7] [DA38FCFD]
    16 69,1 [4DFCBCCD] [1FDB149E]
    17 55,7 [5DD32FE7] [2CB14318]

    CUE sheetsCD 1: Das klagende Lied

    TITLE "Gustav Mahler: Das klagende Lied • Liederzyklen"
    PERFORMER "Riccardo Chailly"
    CATALOG 0028942571921
    REM GENRE Classical
    REM DISCID 290F1A03
    REM REPLAYGAIN_ALBUM_GAIN 0.22 dB
    REM REPLAYGAIN_ALBUM_PEAK 0.983307
    FILE "01 - Das klagende Lied - I. Waldmaerchen.flac" WAVE
    TRACK 01 AUDIO
    TITLE "Das klagende Lied: I. Waldmärchen"
    PERFORMER "S. Dunn, B. Fassbaender, W. Hollweg, A. Schmidt, Musikverein zu Düsseldorf, Radio-Symphonie-Orchester Berlin & Riccardo Chailly"
    REM DATE 1989
    REM REPLAYGAIN_TRACK_GAIN 1.93 dB
    REM REPLAYGAIN_TRACK_PEAK 0.968323
    INDEX 00 00:00:00
    INDEX 01 00:00:33
    TRACK 02 AUDIO
    TITLE "Das klagende Lied: II. Der Spielmann"
    PERFORMER "M. Baur, S. Dunn, B. Fassbaender, W. Hollweg, A. Schmidt, Musikverein zu Düsseldorf, Radio-Symphonie-Orchester Berlin & Riccardo Chailly"
    REM DATE 1989
    REM REPLAYGAIN_TRACK_GAIN 3.04 dB
    REM REPLAYGAIN_TRACK_PEAK 0.958862
    INDEX 00 28:09:20
    FILE "02 - Das klagende Lied - II. Der Spielmann.flac" WAVE
    INDEX 01 00:00:00
    TRACK 03 AUDIO
    TITLE "Das klagende Lied: III. Hochzeitsstück"
    PERFORMER "M. Baur, S. Dunn, B. Fassbaender, W. Hollweg, A. Schmidt, Musikverein zu Düsseldorf, Radio-Symphonie-Orchester Berlin & Riccardo Chailly"
    REM DATE 1989
    REM REPLAYGAIN_TRACK_GAIN -2.05 dB
    REM REPLAYGAIN_TRACK_PEAK 0.983307
    INDEX 00 17:38:50
    FILE "03 - Das klagende Lied - III. Hochzeitsstueck.flac" WAVE
    INDEX 01 00:00:00

    CD 2: Fünf Rückert-Lieder • 3 Lieder aus Des Knaben Wunderhorn • Lieder eines fahrenden Gesellen • Kindertotenlieder

    TITLE "Gustav Mahler: Das klagende Lied • Liederzyklen"
    PERFORMER "Riccardo Chailly"
    CATALOG 0028942579026
    REM GENRE Classical
    REM DISCID EE109411
    REM REPLAYGAIN_ALBUM_GAIN 3.32 dB
    REM REPLAYGAIN_ALBUM_PEAK 1.000000
    FILE "01 - Fuenf Rueckert-Lieder - I. Blicke mir nicht in die Lieder!.flac" WAVE
    TRACK 01 AUDIO
    TITLE "Fünf Rückert-Lieder: I. «Blicke mir nicht in die Lieder!»"
    PERFORMER "Brigitte Fassbaender, Radio-Symphonie-Orchester Berlin & Riccardo Chailly"
    REM DATE 1989
    REM REPLAYGAIN_TRACK_GAIN 8.43 dB
    REM REPLAYGAIN_TRACK_PEAK 0.280426
    INDEX 00 00:00:00
    INDEX 01 00:00:33
    TRACK 02 AUDIO
    TITLE "Fünf Rückert-Lieder: II. «Ich atmet' einen linden Duft»"
    PERFORMER "Brigitte Fassbaender, Radio-Symphonie-Orchester Berlin & Riccardo Chailly"
    REM DATE 1989
    REM REPLAYGAIN_TRACK_GAIN 10.23 dB
    REM REPLAYGAIN_TRACK_PEAK 0.251770
    INDEX 00 01:24:45
    FILE "02 - Fuenf Rueckert-Lieder - II. Ich atmet' einen linden Duft.flac" WAVE
    INDEX 01 00:00:00
    TRACK 03 AUDIO
    TITLE "Fünf Rückert-Lieder: IV. «Um Mitternacht»"
    PERFORMER "Brigitte Fassbaender, Radio-Symphonie-Orchester Berlin & Riccardo Chailly"
    REM DATE 1989
    REM REPLAYGAIN_TRACK_GAIN -1.57 dB
    REM REPLAYGAIN_TRACK_PEAK 0.996826
    INDEX 00 02:31:25
    FILE "03 - Fuenf Rueckert-Lieder - IV. Um Mitternacht.flac" WAVE
    INDEX 01 00:00:00
    TRACK 04 AUDIO
    TITLE "Fünf Rückert-Lieder: V. «Liebst du um Schönheit»"
    PERFORMER "Brigitte Fassbaender, Radio-Symphonie-Orchester Berlin & Riccardo Chailly"
    REM DATE 1989
    REM REPLAYGAIN_TRACK_GAIN 2.16 dB
    REM REPLAYGAIN_TRACK_PEAK 0.404938
    INDEX 00 05:46:25
    FILE "04 - Fuenf Rueckert-Lieder - V. Liebst du um Schoenheit.flac" WAVE
    INDEX 01 00:00:00
    TRACK 05 AUDIO
    TITLE "Fünf Rückert-Lieder: III. «Ich bin der Welt abhanden gekommen»"
    PERFORMER "Brigitte Fassbaender, Radio-Symphonie-Orchester Berlin & Riccardo Chailly"
    REM DATE 1989
    REM REPLAYGAIN_TRACK_GAIN 11.56 dB
    REM REPLAYGAIN_TRACK_PEAK 0.350677
    INDEX 00 02:01:37
    FILE "05 - Fuenf Rueckert-Lieder - III. Ich bin der Welt abhanden gekommen.flac" WAVE
    INDEX 01 00:00:00
    TRACK 06 AUDIO
    TITLE "Des Knaben Wunderhorn: VI. Des Antonius von Padua Fischpredigt"
    PERFORMER "Brigitte Fassbaender, Radio-Symphonie-Orchester Berlin & Riccardo Chailly"
    REM DATE 1989
    REM REPLAYGAIN_TRACK_GAIN 3.26 dB
    REM REPLAYGAIN_TRACK_PEAK 0.625488
    INDEX 00 06:09:62
    FILE "06 - Des Knaben Wunderhorn - VI. Des Antonius von Padua Fischpredigt.flac" WAVE
    INDEX 01 00:00:00
    TRACK 07 AUDIO
    TITLE "Des Knaben Wunderhorn: V. Das irdische Leben"
    PERFORMER "Brigitte Fassbaender, Radio-Symphonie-Orchester Berlin & Riccardo Chailly"
    REM DATE 1989
    REM REPLAYGAIN_TRACK_GAIN 2.53 dB
    REM REPLAYGAIN_TRACK_PEAK 0.798492
    INDEX 00 03:37:37
    FILE "07 - Des Knaben Wunderhorn - V. Das irdische Leben.flac" WAVE
    INDEX 01 00:00:00
    TRACK 08 AUDIO
    TITLE "Des Knaben Wunderhorn: XIV. Urlicht"
    PERFORMER "Brigitte Fassbaender, Radio-Symphonie-Orchester Berlin & Riccardo Chailly"
    REM DATE 1989
    REM REPLAYGAIN_TRACK_GAIN 7.53 dB
    REM REPLAYGAIN_TRACK_PEAK 0.305908
    INDEX 00 02:33:00
    FILE "08 - Des Knaben Wunderhorn - XIV. Urlicht.flac" WAVE
    INDEX 01 00:00:00
    TRACK 09 AUDIO
    TITLE "Lieder eines fahrenden Gesellen: I. «Wenn mein Schatz Hochzeit macht»"
    PERFORMER "Brigitte Fassbaender, Radio-Symphonie-Orchester Berlin & Riccardo Chailly"
    REM DATE 1989
    REM REPLAYGAIN_TRACK_GAIN 3.17 dB
    REM REPLAYGAIN_TRACK_PEAK 0.609528
    INDEX 00 04:44:62
    FILE "09 - Lieder eines fahrenden Gesellen - I. Wenn mein Schatz Hochzeit macht.flac" WAVE
    INDEX 01 00:00:00
    TRACK 10 AUDIO
    TITLE "Lieder eines fahrenden Gesellen: II. «Ging heut' morgen übers Feld»"
    PERFORMER "Brigitte Fassbaender, Radio-Symphonie-Orchester Berlin & Riccardo Chailly"
    REM DATE 1989
    REM REPLAYGAIN_TRACK_GAIN 2.80 dB
    REM REPLAYGAIN_TRACK_PEAK 0.734039
    INDEX 00 03:47:25
    FILE "10 - Lieder eines fahrenden Gesellen - II. Ging heut' morgen uebers Feld.flac" WAVE
    INDEX 01 00:00:00
    TRACK 11 AUDIO
    TITLE "Lieder eines fahrenden Gesellen: III. «Ich hab' ein glühend Messer»"
    PERFORMER "Brigitte Fassbaender, Radio-Symphonie-Orchester Berlin & Riccardo Chailly"
    REM DATE 1989
    REM REPLAYGAIN_TRACK_GAIN -3.46 dB
    REM REPLAYGAIN_TRACK_PEAK 1.000000
    INDEX 00 03:43:62
    FILE "11 - Lieder eines fahrenden Gesellen - III. Ich hab' ein gluehend Messer.flac" WAVE
    INDEX 01 00:00:00
    TRACK 12 AUDIO
    TITLE "Lieder eines fahrenden Gesellen: IV. «Die zwei blauen Augen von meinem Schatz»"
    PERFORMER "Brigitte Fassbaender, Radio-Symphonie-Orchester Berlin & Riccardo Chailly"
    REM DATE 1989
    REM REPLAYGAIN_TRACK_GAIN 6.71 dB
    REM REPLAYGAIN_TRACK_PEAK 0.392609
    INDEX 00 02:54:62
    FILE "12 - Lieder eines fahrenden Gesellen - IV. Die zwei blauen Augen von meinem Schatz.flac" WAVE
    INDEX 01 00:00:00
    TRACK 13 AUDIO
    TITLE "Kindertotenlieder: I. «Nun will die Sonn' so hell aufgeh'n»"
    PERFORMER "Brigitte Fassbaender, Radio-Symphonie-Orchester Berlin & Riccardo Chailly"
    REM DATE 1989
    REM REPLAYGAIN_TRACK_GAIN 7.88 dB
    REM REPLAYGAIN_TRACK_PEAK 0.401886
    INDEX 00 04:43:25
    FILE "13 - Kindertotenlieder - I. Nun will die Sonn' so hell aufgeh'n.flac" WAVE
    INDEX 01 00:00:00
    TRACK 14 AUDIO
    TITLE "Kindertotenlieder: II. «Nun seh' ich wohl, warum so dunkle Flammen»"
    PERFORMER "Brigitte Fassbaender, Radio-Symphonie-Orchester Berlin & Riccardo Chailly"
    REM DATE 1989
    REM REPLAYGAIN_TRACK_GAIN 3.59 dB
    REM REPLAYGAIN_TRACK_PEAK 0.612701
    INDEX 00 05:39:12
    FILE "14 - Kindertotenlieder - II. Nun seh' ich wohl, warum so dunkle Flammen.flac" WAVE
    INDEX 01 00:00:00
    TRACK 15 AUDIO
    TITLE "Kindertotenlieder: III. «Wenn dein Mütterlein tritt zur Tür herein»"
    PERFORMER "Brigitte Fassbaender, Radio-Symphonie-Orchester Berlin & Riccardo Chailly"
    REM DATE 1989
    REM REPLAYGAIN_TRACK_GAIN 4.78 dB
    REM REPLAYGAIN_TRACK_PEAK 0.515594
    INDEX 00 05:05:62
    FILE "15 - Kindertotenlieder - III. Wenn dein Muetterlein tritt zur Tuer herein.flac" WAVE
    INDEX 01 00:00:00
    TRACK 16 AUDIO
    TITLE "Kindertotenlieder: IV. «Oft denk' ich, sie sind nur ausgegangen!»"
    PERFORMER "Brigitte Fassbaender, Radio-Symphonie-Orchester Berlin & Riccardo Chailly"
    REM DATE 1989
    REM REPLAYGAIN_TRACK_GAIN 2.11 dB
    REM REPLAYGAIN_TRACK_PEAK 0.691742
    INDEX 00 04:53:00
    FILE "16 - Kindertotenlieder - IV. Oft denk' ich, sie sind nur ausgegangen!.flac" WAVE
    INDEX 01 00:00:00
    TRACK 17 AUDIO
    TITLE "Kindertotenlieder: V. «In diesem Wetter, in diesem Braus»"
    PERFORMER "Brigitte Fassbaender, Radio-Symphonie-Orchester Berlin & Riccardo Chailly"
    REM DATE 1989
    REM REPLAYGAIN_TRACK_GAIN 4.08 dB
    REM REPLAYGAIN_TRACK_PEAK 0.557770
    INDEX 00 02:56:62
    FILE "17 - Kindertotenlieder - V. In diesem Wetter, in diesem Braus.flac" WAVE
    INDEX 01 00:00:00
    -
    Gustav Mahler — каталог раздач на rutracker.orgВсе мои раздачи / All my releases



  • Показать сообщения:    

    Текущее время: 03-Дек 09:50

    Часовой пояс: UTC + 3


    Вы не можете начинать темы
    Вы не можете отвечать на сообщения
    Вы не можете редактировать свои сообщения
    Вы не можете удалять свои сообщения
    Вы не можете голосовать в опросах
    Вы не можете прикреплять файлы к сообщениям
    Вы не можете скачивать файлы