(Baroque, oratorio) Michelangelo Falvetti - Nabucco (Guimaraes Meerapfel Schofrin Weynants Flores; Choeur de Chambre de Namur, Cappella Mediterranea - Alarcon) - 2013, APE (image+.cue) lossless


Статистика раздачи [Обновить пиров]
Размер:  330 MB   |    Зарегистрирован:  8 месяцев 21 день   |    Скачан:  0 раз

Полного источника не было: Никогда

 
   
 
 
 

[Цитировать]

Michelangelo Falvetti - Nabucco
Жанр: Baroque
Страна-производитель диска: EU
Год издания диска: 2013
Издатель (лейбл): Ambronay
Номер по каталогу: AMY 036
Дата записи: 2013
Аудиокодек: APE
Тип рипа: image+.cue
Битрейт аудио: lossless
Продолжительность: 01:18:15
Источник: скачано с avaxhome
Наличие сканов в содержимом раздачи: да
Исполнители:
Fernando Guimarães - tenor
Alejandro Meerapfel - bass
Fabian Schofrin - countertenor
Caroline Weynants - soprano
Mariana Flores - soprano
Choeur de Chambre de Namur
Cappella Mediterránea
Leonardo García Alarcón - conductor

Треклист

01. Prologo - Siamo a Riva [0:02:16.37]
02. Di Nabucco Alle Vittorie [0:02:22.97]
03. Superbia, Idolatria, L'Asia V'accoglie [0:00:39.54]
04. Di Nabucco in Su Le Chiome [0:02:12.40]
05. Sotto Aspetti Sì Giocondi [0:02:03.53]
06. Itene Dunque Al Babilonio Soglio [0:00:39.42]
07. Al Trono Di Nabuc Sciogliamo Il Volo [0:02:20.00]
08. Sinfonia [0:01:36.33]
09. Dialogo - Ombre Timide E Oscure [0:01:15.93]
10. Sinfonia Larga Da Sonno - Qual Mole? Che Veggio? [0:00:27.10]
11. Regie Pupille [0:03:26.16]
12. Sinfonia Larga Da Sonno - Portento a Me Ignoto [0:01:20.69]
13. A Più Felice Giorno [0:00:43.01]
14. Per Non Vivere Infelice [0:03:21.24]
15. Confondansi I Superbi! [0:00:48.17]
16. S'al Dio D'Israelle [0:01:32.34]
17. Offransi Inni Di Laude Al Sommo Dio [0:01:42.17]
18. Qui Daniele Accorda [0:00:41.84]
19. Pensieri Volate [0:02:06.02]
20. Udiste, Inclite Genti [0:01:04.33]
21. S'alla Mia Imago [0:02:21.21]
22. Di Mia Scolpita Effigie I Bei Splendori [0:01:47.34]
23. Vola La Fama E Con Alate Piume [0:02:50.09]
24. Sinfonia [0:01:38.40]
25. All'augusto Simulacro [0:02:49.06]
26. Splenda Pure Al Pari Del Sole [0:03:04.05]
27. Vendette Non V'armate! [0:01:02.09]
28. Temerarij Garzoni [0:02:05.32]
29. Sì, Mi Vendicherò [0:01:26.81]
30. No, Non Sia Mai Vero No [0:00:27.30]
31. Malvaggi, Se Saggi [0:00:35.20]
32. Risolvo Morire [0:02:36.90]
33. Entro Accesa Voragine [0:01:11.65]
34. Tra Le Vampe D'Ardenti Fornaci [0:05:05.60]
35. Udite, Eroi Beati [0:00:34.29]
36. La Mia Fede Dal Fuoco Nasce [0:05:33.65]
37. Quello Spirto Divino [0:00:42.82]
38. Le Facelle, Che Qui S'accendono [0:06:29.69]
39. A Chi Regge Gl'elementi [0:01:35.00]
40. Mortale, È Più Che Vero [0:01:39.45]

Лог создания рипа

Exact Audio Copy V1.0 beta 3 from 29. August 2011
EAC extraction logfile from 24. November 2013, 2:38
Michelangelo Falvetti / Nabucco
Used drive : TSSTcorpCDDVDW SH-216AB Adapter: 1 ID: 0
Read mode : Secure
Utilize accurate stream : Yes
Defeat audio cache : Yes
Make use of C2 pointers : No
Read offset correction : 6
Overread into Lead-In and Lead-Out : No
Fill up missing offset samples with silence : Yes
Delete leading and trailing silent blocks : No
Null samples used in CRC calculations : Yes
Used interface : Native Win32 interface for Win NT & 2000
Used output format : User Defined Encoder
Selected bitrate : 768 kBit/s
Quality : High
Add ID3 tag : No
Command line compressor : C:\Program Files (x86)\Exact Audio Copy\FLAC\FLAC.EXE
Additional command line options : -6 -V -T "ARTIST=%artist%" -T "TITLE=%title%" -T "ALBUM=%albumtitle%" -T "DATE=%year%" -T "TRACKNUMBER=%tracknr%" -T "GENRE=%genre%" -T "COMMENT=%comment%" -T "BAND=%albuminterpret%" -T "ALBUMARTIST=%albuminterpret%" -T "COMPOSER=%composer%" %haslyrics%--tag-from-file=LYRICS="%lyricsfile%"%haslyrics% -T "DISCNUMBER=%cdnumber%" -T "TOTALDISCS=%totalcds%" -T "TOTALTRACKS=%numtracks%" %hascover%--picture="%coverfile%"%hascover% %source% -o %dest%
TOC of the extracted CD
Track | Start | Length | Start sector | End sector
---------------------------------------------------------
1 | 0:00.00 | 2:16.28 | 0 | 10227
2 | 2:16.28 | 2:22.73 | 10228 | 20950
3 | 4:39.26 | 0:39.41 | 20951 | 23916
4 | 5:18.67 | 2:12.30 | 23917 | 33846
5 | 7:31.22 | 2:03.40 | 33847 | 43111
6 | 9:34.62 | 0:39.32 | 43112 | 46068
7 | 10:14.19 | 2:20.00 | 46069 | 56568
8 | 12:34.19 | 1:36.25 | 56569 | 63793
9 | 14:10.44 | 1:15.70 | 63794 | 69488
10 | 15:26.39 | 0:27.08 | 69489 | 71521
11 | 15:53.47 | 3:26.12 | 71522 | 86983
12 | 19:19.59 | 1:20.52 | 86984 | 93035
13 | 20:40.36 | 0:43.01 | 93036 | 96261
14 | 21:23.37 | 3:21.18 | 96262 | 111354
15 | 24:44.55 | 0:48.13 | 111355 | 114967
16 | 25:32.68 | 1:32.26 | 114968 | 121893
17 | 27:05.19 | 1:42.13 | 121894 | 129556
18 | 28:47.32 | 0:41.63 | 129557 | 132694
19 | 29:29.20 | 2:06.02 | 132695 | 142146
20 | 31:35.22 | 1:04.25 | 142147 | 146971
21 | 32:39.47 | 2:21.16 | 146972 | 157562
22 | 35:00.63 | 1:47.26 | 157563 | 165613
23 | 36:48.14 | 2:50.07 | 165614 | 178370
24 | 39:38.21 | 1:38.30 | 178371 | 185750
25 | 41:16.51 | 2:49.05 | 185751 | 198430
26 | 44:05.56 | 3:04.04 | 198431 | 212234
27 | 47:09.60 | 1:02.07 | 212235 | 216891
28 | 48:11.67 | 2:05.24 | 216892 | 226290
29 | 50:17.16 | 1:26.61 | 226291 | 232801
30 | 51:44.02 | 0:27.23 | 232802 | 234849
31 | 52:11.25 | 0:35.15 | 234850 | 237489
32 | 52:46.40 | 2:36.68 | 237490 | 249257
33 | 55:23.33 | 1:11.49 | 249258 | 254631
34 | 56:35.07 | 5:05.45 | 254632 | 277551
35 | 61:40.52 | 0:34.22 | 277552 | 280123
36 | 62:14.74 | 5:33.49 | 280124 | 305147
37 | 67:48.48 | 0:42.62 | 305148 | 308359
38 | 68:31.35 | 6:29.52 | 308360 | 337586
39 | 75:01.12 | 1:35.00 | 337587 | 344711
40 | 76:36.12 | 1:39.34 | 344712 | 352170
Range status and errors
Selected range
Filename C:\Users\astarte\03. POST\Falvetti - Nabucco\Michelangelo Falvetti - Nabucco.wav
Peak level 97.6 %
Extraction speed 3.2 X
Range quality 100.0 %
Copy CRC B5EFD012
Copy OK
No errors occurred
AccurateRip summary
Track 1 not present in database
Track 2 not present in database
Track 3 not present in database
Track 4 not present in database
Track 5 not present in database
Track 6 not present in database
Track 7 not present in database
Track 8 not present in database
Track 9 not present in database
Track 10 not present in database
Track 11 not present in database
Track 12 not present in database
Track 13 not present in database
Track 14 not present in database
Track 15 not present in database
Track 16 not present in database
Track 17 not present in database
Track 18 not present in database
Track 19 not present in database
Track 20 not present in database
Track 21 not present in database
Track 22 not present in database
Track 23 not present in database
Track 24 not present in database
Track 25 not present in database
Track 26 not present in database
Track 27 not present in database
Track 28 not present in database
Track 29 not present in database
Track 30 not present in database
Track 31 not present in database
Track 32 not present in database
Track 33 not present in database
Track 34 not present in database
Track 35 not present in database
Track 36 not present in database
Track 37 not present in database
Track 38 not present in database
Track 39 not present in database
Track 40 not present in database
None of the tracks are present in the AccurateRip database
End of status report
==== Log checksum 993EB0AFC4A0E46D00875316ED45FF4217D798BD112FB7C304F418EA5910D5BE ====

Скриншот спектра частот

[teatrix.ru].t18009.torrent 
Торрент: Зарегистрирован [ 2016-03-17 00:45 ] · E214F7890EB8029D70A24E76C404E80023A001E5

Скачать .torrent

Скачать

14 KB

Статус: проверено
Скачан: 0 раз
Размер: 330 MB
terms.php



Быстрый ответ

Имя:

      
Для отправки сообщений необходимо включить JavaScript
Показать сообщения:    

Текущее время: 07-Дек 21:18

Часовой пояс: UTC + 3


Вы можете начинать темы
Вы можете отвечать на сообщения
Вы не можете редактировать свои сообщения
Вы не можете удалять свои сообщения
Вы не можете голосовать в опросах
Вы не можете прикреплять файлы к сообщениям
Вы можете скачивать файлы