(Classical) Bach Edition (Brilliant Classics) - Vocal Works Vol. I - 2006, FLAC (image+.cue) lossless


Статистика раздачи [Обновить пиров]
Размер:  1.9 GB   |    Зарегистрирован:  8 месяцев 19 дней   |    Скачан:  0 раз

Полного источника не было: Никогда

 
   
 
 
 

[Цитировать]

Bach Edition (Brilliant Classics) - Vocal Works Vol. I
Жанр: Classical
Год издания диска: 2006
Издатель (лейбл): Brilliant Classics
Номер по каталогу: 993611-8
Аудиокодек: FLAC
Тип рипа: image+.cue
Битрейт аудио: lossless
Продолжительность: 6:58;55
Источник: собственный рип
Наличие сканов в содержимом раздачи: да
Треклист и исполнители:

Mass in B minor, BWV 232

CD1
1. Chorus - Kyrie eleison
2. Duet (sopranoI & II) - Christe eleison
3. Chorus - Kyrie Eleison
4. Chorus - Gloria in excelsis Deo
5. Chorus - Et in terra pax hominibus
6. Aria (soprano II) - Laudamus te
7. Chorus - Gratias agimus
8. Duet (soprano I, tenor) - Domine Deus
9. Chorus - Qui tollis
10. Aria (alto) - Qui sedes at dexteram Patris
11. Aria (bass) - Quoniam to solus Sanctus
12. Chorus - Cum Sancto Sprirtu
CD2
1. Chorus - Et Resurrexit
2. Aria (bass) - Et In Spiritum Sanctum
3. Chorus - Confiteor Unum Baptisma
4. Chorus - Et Expecto
5. Chorus - Crucifixus
6. Chorus - Et Resurrexit
7. Aria (bass) - Et In Spiritum Sanctum
8. Chorus - Confiteor Unum Baptisma
9. Chorus - Et Expecto
10. Chorus - Sanctus
11. Chorus - Osanna
12. Aria (tenor) - Benedictus
13. Chorus - Osanna
14. Aria (alto) - Agnus Dei
15. Chorus - Dona Nobis Pacem
Performer:
Catherine Dubosc & Catherine Denley (sopranos),
James Bowman (alto),
John Mark Ainsley (tenor),
Michael George (bass),
The Sixteen Choir & Orchestra,
Harry Christophers

LOG CD1

Exact Audio Copy V1.0 beta 1 from 15. November 2010
EAC extraction logfile from 20. October 2011, 22:23
The Sixteen Choir & Orchestra, Harry Christophers / Bach J.S. - Mass in B Minor, BWV 232 - CD1
Used drive : ASUS DRW-1814BL Adapter: 0 ID: 0
Read mode : Secure
Utilize accurate stream : Yes
Defeat audio cache : Yes
Make use of C2 pointers : No
Read offset correction : 6
Overread into Lead-In and Lead-Out : No
Fill up missing offset samples with silence : Yes
Delete leading and trailing silent blocks : No
Null samples used in CRC calculations : Yes
Used interface : Native Win32 interface for Win NT & 2000
Used output format : User Defined Encoder
Selected bitrate : 768 kBit/s
Quality : High
Add ID3 tag : No
Command line compressor : C:\Program Files\Exact Audio Copy\Flac\flac.exe
Additional command line options : -8 -V %s
TOC of the extracted CD
Track | Start | Length | Start sector | End sector
---------------------------------------------------------
1 | 0:00.00 | 9:00.10 | 0 | 40509
2 | 9:00.10 | 4:48.25 | 40510 | 62134
3 | 13:48.35 | 3:34.12 | 62135 | 78196
4 | 17:22.47 | 1:52.20 | 78197 | 86616
5 | 19:14.67 | 4:07.15 | 86617 | 105156
6 | 23:22.07 | 4:22.43 | 105157 | 124849
7 | 27:44.50 | 2:22.17 | 124850 | 135516
8 | 30:06.67 | 5:28.33 | 135517 | 160149
9 | 35:35.25 | 3:11.72 | 160150 | 174546
10 | 38:47.22 | 4:17.00 | 174547 | 193821
11 | 43:04.22 | 4:30.00 | 193822 | 214071
12 | 47:34.22 | 3:51.18 | 214072 | 231414
Range status and errors
Selected range
Filename C:\Program Files\Exact Audio Copy\Flac\Bach J.S. - Mass in B Minor, BWV 232 - CD1.wav
Peak level 93.4 %
Extraction speed 0.4 X
Range quality 99.9 %
Test CRC 7BA45A0B
Copy CRC 7BA45A0B
Copy OK
No errors occurred
AccurateRip summary
Track 1 accurately ripped (confidence 5) [052A4B6B]
Track 2 accurately ripped (confidence 5) [6701864D]
Track 3 accurately ripped (confidence 5) [96983F34]
Track 4 accurately ripped (confidence 5) [8A73C017]
Track 5 accurately ripped (confidence 5) [E48F53E9]
Track 6 accurately ripped (confidence 5) [1A5E3220]
Track 7 accurately ripped (confidence 5) [697BDEDC]
Track 8 accurately ripped (confidence 5) [DA729457]
Track 9 accurately ripped (confidence 5) [FE8615F2]
Track 10 accurately ripped (confidence 5) [30D3FA1E]
Track 11 accurately ripped (confidence 5) [39EBD010]
Track 12 accurately ripped (confidence 5) [B0AAA56A]
All tracks accurately ripped
End of status report
==== Log checksum 730218B6A650C44379465B8B850F6ECD1DC090186276EA87A56F66DBA2CFB928 ====

LOG CD2

Exact Audio Copy V1.0 beta 1 from 15. November 2010
EAC extraction logfile from 20. October 2011, 22:42
The Sixteen Choir & Orchestra, Harry Christophers / Bach J.S. - Mass in B Minor, BWV 232 - CD2
Used drive : ASUS DRW-1814BL Adapter: 0 ID: 0
Read mode : Secure
Utilize accurate stream : Yes
Defeat audio cache : Yes
Make use of C2 pointers : No
Read offset correction : 6
Overread into Lead-In and Lead-Out : No
Fill up missing offset samples with silence : Yes
Delete leading and trailing silent blocks : No
Null samples used in CRC calculations : Yes
Used interface : Native Win32 interface for Win NT & 2000
Used output format : User Defined Encoder
Selected bitrate : 768 kBit/s
Quality : High
Add ID3 tag : No
Command line compressor : C:\Program Files\Exact Audio Copy\Flac\flac.exe
Additional command line options : -8 -V %s
TOC of the extracted CD
Track | Start | Length | Start sector | End sector
---------------------------------------------------------
1 | 0:00.00 | 1:58.07 | 0 | 8856
2 | 1:58.07 | 2:00.58 | 8857 | 17914
3 | 3:58.65 | 4:21.57 | 17915 | 37546
4 | 8:20.47 | 3:19.50 | 37547 | 52521
5 | 11:40.22 | 3:11.63 | 52522 | 66909
6 | 14:52.10 | 4:01.00 | 66910 | 84984
7 | 18:53.10 | 5:17.40 | 84985 | 108799
8 | 24:10.50 | 4:54.12 | 108800 | 130861
9 | 29:04.62 | 2:15.03 | 130862 | 140989
10 | 31:19.65 | 4:49.62 | 140990 | 162726
11 | 36:09.52 | 3:02.45 | 162727 | 176421
12 | 39:12.22 | 4:24.68 | 176422 | 196289
13 | 43:37.15 | 3:03.02 | 196290 | 210016
14 | 46:40.17 | 5:37.10 | 210017 | 235301
15 | 52:17.27 | 2:42.38 | 235302 | 247489
Range status and errors
Selected range
Filename C:\Program Files\Exact Audio Copy\Flac\Bach J.S. - Mass in B Minor, BWV 232 - CD2.wav
Peak level 94.7 %
Extraction speed 0.4 X
Range quality 100.0 %
Test CRC 67DA5E76
Copy CRC 67DA5E76
Copy OK
No errors occurred
AccurateRip summary
Track 1 accurately ripped (confidence 6) [CDCFBA97]
Track 2 accurately ripped (confidence 6) [9B402E31]
Track 3 accurately ripped (confidence 5) [F764A8E7]
Track 4 accurately ripped (confidence 6) [F5701796]
Track 5 accurately ripped (confidence 6) [C66ED486]
Track 6 accurately ripped (confidence 6) [D1F66A21]
Track 7 accurately ripped (confidence 6) [F38AFC5B]
Track 8 accurately ripped (confidence 5) [132DF08A]
Track 9 accurately ripped (confidence 6) [73BDE2A0]
Track 10 accurately ripped (confidence 6) [8FAFCABB]
Track 11 accurately ripped (confidence 6) [270F6CF9]
Track 12 accurately ripped (confidence 6) [E7929151]
Track 13 accurately ripped (confidence 6) [1025AC23]
Track 14 accurately ripped (confidence 6) [50E2A5A0]
Track 15 accurately ripped (confidence 6) [93ADFE4A]
All tracks accurately ripped
End of status report
==== Log checksum 4B194FCD75BCB0FCCBC4941ACE673986CE5FDCBD95988E83174974B9B563792E ====

CUE CD1

REM GENRE Classical
REM DATE 2006
REM DISCID A20C0D0C
REM COMMENT "ExactAudioCopy v1.0b1"
PERFORMER "The Sixteen Choir & Orchestra, Harry Christophers"
TITLE "Bach J.S. - Mass in B Minor, BWV 232 - CD1"
FILE "Bach J.S. - Mass in B Minor, BWV 232 - CD1.flac" WAVE
TRACK 01 AUDIO
TITLE "Chorus - Kyrie eleison"
PERFORMER "The Sixteen Choir & Orchestra, Harry Christophers"
INDEX 01 00:00:00
TRACK 02 AUDIO
TITLE "Duet (sopranoI & II) - Christe eleison"
PERFORMER "The Sixteen Choir & Orchestra, Harry Christophers"
INDEX 01 09:00:10
TRACK 03 AUDIO
TITLE "Chorus - Kyrie Eleison"
PERFORMER "The Sixteen Choir & Orchestra, Harry Christophers"
INDEX 01 13:48:35
TRACK 04 AUDIO
TITLE "Chorus - Gloria in excelsis Deo"
PERFORMER "The Sixteen Choir & Orchestra, Harry Christophers"
INDEX 00 17:17:67
INDEX 01 17:22:47
TRACK 05 AUDIO
TITLE "Chorus - Et in terra pax hominibus"
PERFORMER "The Sixteen Choir & Orchestra, Harry Christophers"
INDEX 01 19:14:67
TRACK 06 AUDIO
TITLE "Aria (soprano II) - Laudamus te"
PERFORMER "The Sixteen Choir & Orchestra, Harry Christophers"
INDEX 00 23:20:70
INDEX 01 23:22:07
TRACK 07 AUDIO
TITLE "Chorus - Gratias agimus"
PERFORMER "The Sixteen Choir & Orchestra, Harry Christophers"
INDEX 01 27:44:50
TRACK 08 AUDIO
TITLE "Duet (soprano I, tenor) - Domine Deus"
PERFORMER "The Sixteen Choir & Orchestra, Harry Christophers"
INDEX 00 30:05:35
INDEX 01 30:06:67
TRACK 09 AUDIO
TITLE "Chorus - Qui tollis"
PERFORMER "The Sixteen Choir & Orchestra, Harry Christophers"
INDEX 01 35:35:25
TRACK 10 AUDIO
TITLE "Aria (alto) - Qui sedes at dexteram Patris"
PERFORMER "The Sixteen Choir & Orchestra, Harry Christophers"
INDEX 01 38:47:22
TRACK 11 AUDIO
TITLE "Aria (bass) - Quoniam to solus Sanctus"
PERFORMER "The Sixteen Choir & Orchestra, Harry Christophers"
INDEX 01 43:04:22
TRACK 12 AUDIO
TITLE "Chorus - Cum Sancto Sprirtu"
PERFORMER "The Sixteen Choir & Orchestra, Harry Christophers"
INDEX 01 47:34:22

CUE CD2

REM GENRE Classical
REM DATE 2006
REM DISCID B10CE30F
REM COMMENT "ExactAudioCopy v1.0b1"
PERFORMER "The Sixteen Choir & Orchestra, Harry Christophers"
TITLE "Bach J.S. - Mass in B Minor, BWV 232 - CD2"
FILE "Bach J.S. - Mass in B Minor, BWV 232 - CD2.flac" WAVE
TRACK 01 AUDIO
TITLE "Chorus - Et Resurrexit"
PERFORMER "The Sixteen Choir & Orchestra, Harry Christophers"
INDEX 01 00:00:00
TRACK 02 AUDIO
TITLE "Aria (bass) - Et In Spiritum Sanctum"
PERFORMER "The Sixteen Choir & Orchestra, Harry Christophers"
INDEX 01 01:58:07
TRACK 03 AUDIO
TITLE "Chorus - Confiteor Unum Baptisma"
PERFORMER "The Sixteen Choir & Orchestra, Harry Christophers"
INDEX 00 03:56:45
INDEX 01 03:58:65
TRACK 04 AUDIO
TITLE "Chorus - Et Expecto"
PERFORMER "The Sixteen Choir & Orchestra, Harry Christophers"
INDEX 01 08:20:47
TRACK 05 AUDIO
TITLE "Chorus - Crucifixus"
PERFORMER "The Sixteen Choir & Orchestra, Harry Christophers"
INDEX 01 11:40:22
TRACK 06 AUDIO
TITLE "Chorus - Et Resurrexit"
PERFORMER "The Sixteen Choir & Orchestra, Harry Christophers"
INDEX 01 14:52:10
TRACK 07 AUDIO
TITLE "Aria (bass) - Et In Spiritum Sanctum"
PERFORMER "The Sixteen Choir & Orchestra, Harry Christophers"
INDEX 00 18:50:62
INDEX 01 18:53:10
TRACK 08 AUDIO
TITLE "Chorus - Confiteor Unum Baptisma"
PERFORMER "The Sixteen Choir & Orchestra, Harry Christophers"
INDEX 01 24:10:50
TRACK 09 AUDIO
TITLE "Chorus - Et Expecto"
PERFORMER "The Sixteen Choir & Orchestra, Harry Christophers"
INDEX 01 29:04:62
TRACK 10 AUDIO
TITLE "Chorus - Sanctus"
PERFORMER "The Sixteen Choir & Orchestra, Harry Christophers"
INDEX 00 31:16:65
INDEX 01 31:19:65
TRACK 11 AUDIO
TITLE "Chorus - Osanna"
PERFORMER "The Sixteen Choir & Orchestra, Harry Christophers"
INDEX 01 36:09:52
TRACK 12 AUDIO
TITLE "Aria (tenor) - Benedictus - Aria (tenor)"
PERFORMER "The Sixteen Choir & Orchestra, Harry Christophers"
INDEX 00 39:08:30
INDEX 01 39:12:22
TRACK 13 AUDIO
TITLE "Chorus - Osanna"
PERFORMER "The Sixteen Choir & Orchestra, Harry Christophers"
INDEX 01 43:37:15
TRACK 14 AUDIO
TITLE "Aria (alto) - Agnus Dei"
PERFORMER "The Sixteen Choir & Orchestra, Harry Christophers"
INDEX 00 46:36:30
INDEX 01 46:40:17
TRACK 15 AUDIO
TITLE "Chorus - Dona Nobis Pacem"
PERFORMER "The Sixteen Choir & Orchestra, Harry Christophers"
INDEX 00 52:16:17
INDEX 01 52:17:27

Masses, BWV 233 & 234

CD1
1. Mass in F major, BWV 233 - I. Kyrie
2. II. Gloria
3. III. Domine Deus
4. IV. Qui tollis
5. V. Quoniam
6. VI. Cum Sancto Spirito
7. Mass in A major, BWV 234 - I. Kyrie
8. II. Gloria
9. III. Domine Deus
10. IV. Qui tollis
11. V. Quoniam
12. VI. Cum Sancto Spirito
CD2
1. Mass in F minor, BWV 235 - I. Kyrie
2. II. Gloria
3. III. Gratias
4. IV. Domine Fili
5. V. Qui Tollis
6. VI. Cum Sancto Spirito (
7. Mass in G major, BWV 233 - I. Kyrie
8. II. Gloria
9. III. Gratias
10. IV. Domine Deus
11. V. Quoniam
12. VI. Cum Sancto Spirito
Performer:
Renate Krahmer (soprano),
Annelies Burmeister (alto),
Peter Schreier (tenor),
Theo Adam(bass),
Dresdner Kreuzchor,
Dresdner Philharmonia,
Martin Flämig

LOG CD1

Exact Audio Copy V1.0 beta 1 from 15. November 2010
EAC extraction logfile from 20. October 2011, 23:18
resdner Kreuzchor, Dresdner Philharmonia, Martin Flämig / Bach J.S. - Masses, BWV 233 & 234 - CD1
Used drive : ASUS DRW-1814BL Adapter: 0 ID: 0
Read mode : Secure
Utilize accurate stream : Yes
Defeat audio cache : Yes
Make use of C2 pointers : No
Read offset correction : 6
Overread into Lead-In and Lead-Out : No
Fill up missing offset samples with silence : Yes
Delete leading and trailing silent blocks : No
Null samples used in CRC calculations : Yes
Used interface : Native Win32 interface for Win NT & 2000
Used output format : User Defined Encoder
Selected bitrate : 768 kBit/s
Quality : High
Add ID3 tag : No
Command line compressor : C:\Program Files\Exact Audio Copy\Flac\flac.exe
Additional command line options : -8 -V %s
TOC of the extracted CD
Track | Start | Length | Start sector | End sector
---------------------------------------------------------
1 | 0:00.00 | 5:03.32 | 0 | 22756
2 | 5:03.32 | 6:37.05 | 22757 | 52536
3 | 11:40.37 | 3:29.40 | 52537 | 68251
4 | 15:10.02 | 4:57.30 | 68252 | 90556
5 | 20:07.32 | 4:42.03 | 90557 | 111709
6 | 24:49.35 | 3:13.37 | 111710 | 126221
7 | 28:02.72 | 7:02.45 | 126222 | 157916
8 | 35:05.42 | 5:37.63 | 157917 | 183254
9 | 40:43.30 | 6:13.12 | 183255 | 211241
10 | 46:56.42 | 6:52.20 | 211242 | 242161
11 | 53:48.62 | 3:37.30 | 242162 | 258466
12 | 57:26.17 | 3:25.13 | 258467 | 273854
Range status and errors
Selected range
Filename C:\Program Files\Exact Audio Copy\Flac\Bach J.S. - Masses, BWV 233 & 234 - CD1.wav
Peak level 97.4 %
Extraction speed 0.2 X
Range quality 99.9 %
Test CRC 87C2F6E7
Copy CRC 87C2F6E7
Copy OK
No errors occurred
AccurateRip summary
Track 1 cannot be verified as accurate (confidence 22) [2CBA1F26], AccurateRip returned [FCADF0F4]
Track 2 cannot be verified as accurate (confidence 21) [7CE9B07E], AccurateRip returned [674E877F]
Track 3 cannot be verified as accurate (confidence 22) [D1C9BAC2], AccurateRip returned [8691712E]
Track 4 cannot be verified as accurate (confidence 22) [D7FDB5D9], AccurateRip returned [135E8922]
Track 5 cannot be verified as accurate (confidence 22) [E0A27AA2], AccurateRip returned [26E2C0AF]
Track 6 cannot be verified as accurate (confidence 22) [B215A55C], AccurateRip returned [DB05A859]
Track 7 cannot be verified as accurate (confidence 21) [0C6D6B0E], AccurateRip returned [E28437D6]
Track 8 cannot be verified as accurate (confidence 22) [267464DB], AccurateRip returned [B5FB366A]
Track 9 cannot be verified as accurate (confidence 22) [5BEEC079], AccurateRip returned [4F53F4AF]
Track 10 cannot be verified as accurate (confidence 22) [07AEFC52], AccurateRip returned [3C94A660]
Track 11 cannot be verified as accurate (confidence 22) [7DB07FF6], AccurateRip returned [973674DD]
Track 12 cannot be verified as accurate (confidence 22) [D2767F3C], AccurateRip returned [7AC4984C]
No tracks could be verified as accurate
You may have a different pressing from the one(s) in the database
End of status report
==== Log checksum F0101C43972C8B06C199E6E2B6E268A6E365446C0537E2DF6354F35B66885C0F ====

LOG CD2

Exact Audio Copy V1.0 beta 1 from 15. November 2010
EAC extraction logfile from 20. October 2011, 23:35
resdner Kreuzchor, Dresdner Philharmonia, Martin Flämig / Bach J.S. - Masses, BWV 235 & 236 - CD2
Used drive : ASUS DRW-1814BL Adapter: 0 ID: 0
Read mode : Secure
Utilize accurate stream : Yes
Defeat audio cache : Yes
Make use of C2 pointers : No
Read offset correction : 6
Overread into Lead-In and Lead-Out : No
Fill up missing offset samples with silence : Yes
Delete leading and trailing silent blocks : No
Null samples used in CRC calculations : Yes
Used interface : Native Win32 interface for Win NT & 2000
Used output format : User Defined Encoder
Selected bitrate : 768 kBit/s
Quality : High
Add ID3 tag : No
Command line compressor : C:\Program Files\Exact Audio Copy\Flac\flac.exe
Additional command line options : -8 -V %s
TOC of the extracted CD
Track | Start | Length | Start sector | End sector
---------------------------------------------------------
1 | 0:00.00 | 7:18.60 | 0 | 32909
2 | 7:18.60 | 4:06.40 | 32910 | 51399
3 | 11:25.25 | 3:34.52 | 51400 | 67501
4 | 15:00.02 | 5:40.60 | 67502 | 93061
5 | 20:40.62 | 4:07.10 | 93062 | 111596
6 | 24:47.72 | 5:49.15 | 111597 | 137786
7 | 30:37.12 | 4:09.08 | 137787 | 156469
8 | 34:46.20 | 4:59.72 | 156470 | 178966
9 | 39:46.17 | 5:13.03 | 178967 | 202444
10 | 44:59.20 | 4:16.32 | 202445 | 221676
11 | 49:15.52 | 4:52.13 | 221677 | 243589
12 | 54:07.65 | 4:36.35 | 243590 | 264324
Range status and errors
Selected range
Filename C:\Program Files\Exact Audio Copy\Flac\Bach J.S. - Masses, BWV 235 & 236 - CD2.wav
Peak level 95.6 %
Extraction speed 0.6 X
Range quality 100.0 %
Test CRC 639904EC
Copy CRC 639904EC
Copy OK
No errors occurred
AccurateRip summary
Track 1 accurately ripped (confidence 2) [9CF43BEF]
Track 2 accurately ripped (confidence 2) [9A3B51E4]
Track 3 accurately ripped (confidence 2) [44289D5A]
Track 4 accurately ripped (confidence 2) [3A25A37D]
Track 5 accurately ripped (confidence 2) [1EA54D86]
Track 6 accurately ripped (confidence 2) [6A2B1EF6]
Track 7 accurately ripped (confidence 2) [078577F4]
Track 8 accurately ripped (confidence 2) [AAABFF25]
Track 9 accurately ripped (confidence 2) [9200C2F2]
Track 10 accurately ripped (confidence 2) [CF3BA210]
Track 11 accurately ripped (confidence 2) [41B3AB6D]
Track 12 accurately ripped (confidence 2) [78C05C94]
All tracks accurately ripped
End of status report
==== Log checksum A98B9F5A72C3CB19C8E9E8FC4A515BC072AF30CDC9159198F4507DD96A17F9E4 ====

CUE CD1

REM GENRE Classical
REM DATE 2006
REM DISCID 940E430C
REM COMMENT "ExactAudioCopy v1.0b1"
PERFORMER "resdner Kreuzchor, Dresdner Philharmonia, Martin Flamig"
TITLE "Bach J.S. - Masses, BWV 233 & 234 - CD1"
FILE "Bach J.S. - Masses, BWV 233 & 234 - CD1.flac" WAVE
TRACK 01 AUDIO
TITLE "Mass in F major, BWV 233 - I. Kyrie"
PERFORMER "resdner Kreuzchor, Dresdner Philharmonia, Martin Flamig"
INDEX 01 00:00:00
TRACK 02 AUDIO
TITLE "II. Gloria"
PERFORMER "resdner Kreuzchor, Dresdner Philharmonia, Martin Flamig"
INDEX 01 05:03:32
TRACK 03 AUDIO
TITLE "III. Domine Deus"
PERFORMER "resdner Kreuzchor, Dresdner Philharmonia, Martin Flamig"
INDEX 01 11:40:37
TRACK 04 AUDIO
TITLE "IV. Qui tollis"
PERFORMER "resdner Kreuzchor, Dresdner Philharmonia, Martin Flamig"
INDEX 01 15:10:02
TRACK 05 AUDIO
TITLE "V. Quoniam"
PERFORMER "resdner Kreuzchor, Dresdner Philharmonia, Martin Flamig"
INDEX 01 20:07:32
TRACK 06 AUDIO
TITLE "VI. Cum Sancto Spirito"
PERFORMER "resdner Kreuzchor, Dresdner Philharmonia, Martin Flamig"
INDEX 01 24:49:35
TRACK 07 AUDIO
TITLE "Mass in A major, BWV 234 - I. Kyrie"
PERFORMER "resdner Kreuzchor, Dresdner Philharmonia, Martin Flamig"
INDEX 00 27:55:40
INDEX 01 28:02:72
TRACK 08 AUDIO
TITLE "II. Gloria"
PERFORMER "resdner Kreuzchor, Dresdner Philharmonia, Martin Flamig"
INDEX 01 35:05:42
TRACK 09 AUDIO
TITLE "III. Domine Deus"
PERFORMER "resdner Kreuzchor, Dresdner Philharmonia, Martin Flamig"
INDEX 01 40:43:30
TRACK 10 AUDIO
TITLE "IV. Qui tollis"
PERFORMER "resdner Kreuzchor, Dresdner Philharmonia, Martin Flamig"
INDEX 01 46:56:42
TRACK 11 AUDIO
TITLE "V. Quoniam"
PERFORMER "resdner Kreuzchor, Dresdner Philharmonia, Martin Flamig"
INDEX 01 53:48:62
TRACK 12 AUDIO
TITLE "VI. Cum Sancto Spirito"
PERFORMER "resdner Kreuzchor, Dresdner Philharmonia, Martin Flamig"
INDEX 01 57:26:17

CUE CD2

REM GENRE Classical
REM DATE 2006
REM DISCID B80DC40C
REM COMMENT "ExactAudioCopy v1.0b1"
PERFORMER "resdner Kreuzchor, Dresdner Philharmonia, Martin Flamig"
TITLE "Bach J.S. - Masses, BWV 235 & 236 - CD2"
FILE "Bach J.S. - Masses, BWV 235 & 236 - CD2.flac" WAVE
TRACK 01 AUDIO
TITLE "Mass in F minor, BWV 235 - I. Kyrie"
PERFORMER "resdner Kreuzchor, Dresdner Philharmonia, Martin Flamig"
INDEX 01 00:00:00
TRACK 02 AUDIO
TITLE "II. Gloria"
PERFORMER "resdner Kreuzchor, Dresdner Philharmonia, Martin Flamig"
INDEX 01 07:18:60
TRACK 03 AUDIO
TITLE "III. Gratias"
PERFORMER "resdner Kreuzchor, Dresdner Philharmonia, Martin Flamig"
INDEX 01 11:25:25
TRACK 04 AUDIO
TITLE "IV. Domine Fili"
PERFORMER "resdner Kreuzchor, Dresdner Philharmonia, Martin Flamig"
INDEX 01 15:00:02
TRACK 05 AUDIO
TITLE "V. Qui Tollis"
PERFORMER "resdner Kreuzchor, Dresdner Philharmonia, Martin Flamig"
INDEX 01 20:40:62
TRACK 06 AUDIO
TITLE "VI. Cum Sancto Spirito"
PERFORMER "resdner Kreuzchor, Dresdner Philharmonia, Martin Flamig"
INDEX 01 24:47:72
TRACK 07 AUDIO
TITLE "Mass in G major, BWV 233 - I. Kyrie"
PERFORMER "resdner Kreuzchor, Dresdner Philharmonia, Martin Flamig"
INDEX 00 30:30:47
INDEX 01 30:37:12
TRACK 08 AUDIO
TITLE "II. Gloria"
PERFORMER "resdner Kreuzchor, Dresdner Philharmonia, Martin Flamig"
INDEX 01 34:46:20
TRACK 09 AUDIO
TITLE "III. Gratias"
PERFORMER "resdner Kreuzchor, Dresdner Philharmonia, Martin Flamig"
INDEX 01 39:46:17
TRACK 10 AUDIO
TITLE "IV. Domine Deus"
PERFORMER "resdner Kreuzchor, Dresdner Philharmonia, Martin Flamig"
INDEX 01 44:59:20
TRACK 11 AUDIO
TITLE "V. Quoniam"
PERFORMER "resdner Kreuzchor, Dresdner Philharmonia, Martin Flamig"
INDEX 01 49:15:52
TRACK 12 AUDIO
TITLE "VI. Cum Sancto Spirito"
PERFORMER "resdner Kreuzchor, Dresdner Philharmonia, Martin Flamig"
INDEX 01 54:07:65
Sacred Songs & Arias from musicalisches Gesangbuch G.C.Schemelli, BWV 439-507
CD1
1. Chant du Matin, BWV 479: Kommt, Seelen, dieser Tag
2. De la Souffrance Terrestre et de la Succession du Christ, BWV 504: Vergiss me...
3. De la Resurrection du Christ, BWV 44: Auf, auf mein Herz
4. De la Mission du Saint Esprit, BWV 445: Brunnquell aller Guter
5. De la Priere et du Vrai Christianisme, BWV 449: Dich bet ich an
6. De l'Amour pour Jesus, BWV 361: Jesu, meines Herzens Freud
7. Chants du Soir, BWV 446: Der lieben Sonne
8. Des Souffrances et de la Mort de Jesus-Christ, 8 div. Lieder
9. Du Vendredi Saint, BWV 501: So gibst du nun
10. De la Repentance et de la Grace de Dieu, BWV 507: Wo ist mein Schaflein
CD2
1. Du Chant de Louanges, BWV 452: Dir, dir, Jehova, will ich singen
2. Du Reniement du Monde et de Soi-Meme, BWV 489: Nicht so traurig - BWV 494: O ...
3. De la Justification, BWV 472: Jesu, meines Glaubens Zier - BWV 453: Eins ist ...
4. De l'Amour de Dieu, BWV 474: Jesus ist das schonste Licht - BWV 504: Vergiss ...
5. De la Naissance de Jesus-Christ, BWV 465: Ich freue - BWV 454: Ermuntre dich ...
6. Chants Consolateurs de Jesus, BWV 506: Was bist du doch - BWV 440: Auf, auf -...
7. Chants de la Mort et de l'Esperance en Dieu, 11 div. Lieder - BWV 483-492-478...
8. De la Patience et de la Serenite, BWV 466: Ich halte treulich still - BWV 460...
Performer/b]:
Georg Jelden (baritone),
Heinz Schnauffer (organ)
LOG CD1Exact Audio Copy V1.0 beta 1 from 15. November 2010
EAC extraction logfile from 21. October 2011, 7:16
Georg Jelden, Heinz Schnauffer / Bach J.S. - Sacred Songs & Arias from musicalisches Gesangbuch G.C.Schemelli, BWV 439-507 - CD1
Used drive : ASUS DRW-1814BL Adapter: 0 ID: 0
Read mode : Secure
Utilize accurate stream : Yes
Defeat audio cache : Yes
Make use of C2 pointers : No
Read offset correction : 6
Overread into Lead-In and Lead-Out : No
Fill up missing offset samples with silence : Yes
Delete leading and trailing silent blocks : No
Null samples used in CRC calculations : Yes
Used interface : Native Win32 interface for Win NT & 2000
Used output format : User Defined Encoder
Selected bitrate : 768 kBit/s
Quality : High
Add ID3 tag : No
Command line compressor : C:\Program Files\Exact Audio Copy\Flac\flac.exe
Additional command line options : -8 -V %s
TOC of the extracted CD
Track | Start | Length | Start sector | End sector
---------------------------------------------------------
1 | 0:00.00 | 3:10.00 | 0 | 14249
2 | 3:10.00 | 2:27.62 | 14250 | 25336
3 | 5:37.62 | 2:25.13 | 25337 | 36224
4 | 8:03.00 | 3:29.62 | 36225 | 51961
5 | 11:32.62 | 3:12.13 | 51962 | 66374
6 | 14:45.00 | 5:33.62 | 66375 | 91411
7 | 20:18.62 | 4:11.13 | 91412 | 110249
8 | 24:30.00 | 9:50.50 | 110250 | 154549
9 | 34:20.50 | 4:44.50 | 154550 | 175899
10 | 39:05.25 | 3:04.50 | 175900 | 189749
Range status and errors
Selected range
Filename C:\Program Files\Exact Audio Copy\Flac\Bach J.S. - Sacred Songs & Arias, BWV 439-507 - CD1.wav
Peak level 100.0 %
Extraction speed 0.1 X
Range quality 99.9 %
Test CRC F6940B39
Copy CRC F6940B39
Copy OK
No errors occurred
AccurateRip summary
Track 1 accurately ripped (confidence 4) [7C08E09E]
Track 2 accurately ripped (confidence 4) [4DF73548]
Track 3 accurately ripped (confidence 4) [8FED4B51]
Track 4 accurately ripped (confidence 4) [339C054B]
Track 5 accurately ripped (confidence 4) [51C22CC3]
Track 6 accurately ripped (confidence 4) [D4A70E77]
Track 7 accurately ripped (confidence 4) [DC10028D]
Track 8 accurately ripped (confidence 4) [6CDA6F8D]
Track 9 accurately ripped (confidence 4) [D54633AA]
Track 10 accurately ripped (confidence 4) [A49F4CDF]
All tracks accurately ripped
End of status report
==== Log checksum F27E29C937AA757C1983C72E628BA9D9CFC5EF6633A7FC23AF55148A00718E40 ====

LOG CD2

Exact Audio Copy V1.0 beta 1 from 15. November 2010
EAC extraction logfile from 21. October 2011, 7:30
Georg Jelden, Heinz Schnauffer / Bach J.S. - Sacred Songs & Arias from musicalisches Gesangbuch G.C.Schemelli, BWV 439-507 - CD2
Used drive : ASUS DRW-1814BL Adapter: 0 ID: 0
Read mode : Secure
Utilize accurate stream : Yes
Defeat audio cache : Yes
Make use of C2 pointers : No
Read offset correction : 6
Overread into Lead-In and Lead-Out : No
Fill up missing offset samples with silence : Yes
Delete leading and trailing silent blocks : No
Null samples used in CRC calculations : Yes
Used interface : Native Win32 interface for Win NT & 2000
Used output format : User Defined Encoder
Selected bitrate : 768 kBit/s
Quality : High
Add ID3 tag : No
Command line compressor : C:\Program Files\Exact Audio Copy\Flac\flac.exe
Additional command line options : -8 -V %s
TOC of the extracted CD
Track | Start | Length | Start sector | End sector
---------------------------------------------------------
1 | 0:00.00 | 1:36.37 | 0 | 7236
2 | 1:36.37 | 3:52.38 | 7237 | 24674
3 | 5:29.00 | 3:02.00 | 24675 | 38324
4 | 8:31.00 | 4:32.00 | 38325 | 58724
5 | 13:03.00 | 6:00.00 | 58725 | 85724
6 | 19:03.00 | 6:28.12 | 85725 | 114836
7 | 25:31.12 | 12:00.00 | 114837 | 168836
8 | 37:31.12 | 2:45.63 | 168837 | 181274
Range status and errors
Selected range
Filename C:\Program Files\Exact Audio Copy\Flac\Bach J.S. - Sacred Songs & Arias, BWV 439-507 - CD2.wav
Peak level 99.4 %
Extraction speed 0.5 X
Range quality 100.0 %
Test CRC 7204FED0
Copy CRC 7204FED0
Copy OK
No errors occurred
AccurateRip summary
Track 1 accurately ripped (confidence 3) [6DDE2956]
Track 2 accurately ripped (confidence 3) [B0D82455]
Track 3 accurately ripped (confidence 3) [F9593CF2]
Track 4 accurately ripped (confidence 3) [5F1542B3]
Track 5 accurately ripped (confidence 3) [7F9E8BB6]
Track 6 accurately ripped (confidence 3) [44B87841]
Track 7 accurately ripped (confidence 3) [745E96BB]
Track 8 accurately ripped (confidence 3) [3CA66A08]
All tracks accurately ripped
End of status report
==== Log checksum 71CBB20D9B18A1B33CB9C1F8468930DB2CF11586A6BFC8C550B2F00E0B93E165 ====

CUE CD1

REM GENRE Classical
REM DATE 2006
REM DISCID 8509E20A
REM COMMENT "ExactAudioCopy v1.0b1"
PERFORMER "Georg Jelden, Heinz Schnauffer"
TITLE "Bach J.S. - Sacred Songs & Arias from musicalisches Gesangbuch G.C.Schemelli,..."
FILE "Bach J.S. - Sacred Songs & Arias, BWV 439-507 - CD1.flac" WAVE
TRACK 01 AUDIO
TITLE "Chant du Matin, BWV 479: Kommt, Seelen, dieser Tag"
PERFORMER "Georg Jelden, Heinz Schnauffer"
INDEX 01 00:00:00
INDEX 02 01:35:00
TRACK 02 AUDIO
TITLE "De la Souffrance Terrestre et de la Succession du Christ, BWV 504: Vergiss me..."
PERFORMER "Georg Jelden, Heinz Schnauffer"
INDEX 00 03:07:00
INDEX 01 03:10:00
INDEX 02 04:23:25
TRACK 03 AUDIO
TITLE "De la Resurrection du Christ, BWV 44: Auf, auf mein Herz"
PERFORMER "Georg Jelden, Heinz Schnauffer"
INDEX 00 05:35:00
INDEX 01 05:37:62
INDEX 02 06:19:00
INDEX 03 07:14:00
TRACK 04 AUDIO
TITLE "De la Mission du Saint Esprit, BWV 445: Brunnquell aller Guter"
PERFORMER "Georg Jelden, Heinz Schnauffer"
INDEX 00 07:59:62
INDEX 01 08:03:00
INDEX 02 10:25:00
TRACK 05 AUDIO
TITLE "De la Priere et du Vrai Christianisme, BWV 449: Dich bet ich an"
PERFORMER "Georg Jelden, Heinz Schnauffer"
INDEX 00 11:29:37
INDEX 01 11:32:62
INDEX 02 12:32:63
INDEX 03 13:37:00
TRACK 06 AUDIO
TITLE "De l'Amour pour Jesus, BWV 361: Jesu, meines Herzens Freud"
PERFORMER "Georg Jelden, Heinz Schnauffer"
INDEX 00 14:42:00
INDEX 01 14:45:00
INDEX 02 16:36:50
INDEX 03 17:52:00
INDEX 04 19:02:12
TRACK 07 AUDIO
TITLE "Chants du Soir, BWV 446: Der lieben Sonne"
PERFORMER "Georg Jelden, Heinz Schnauffer"
INDEX 00 20:15:25
INDEX 01 20:18:62
INDEX 02 21:18:00
INDEX 03 23:16:00
TRACK 08 AUDIO
TITLE "Des Souffrances et de la Mort de Jesus-Christ, 8 div. Lieder"
PERFORMER "Georg Jelden, Heinz Schnauffer"
INDEX 00 24:26:62
INDEX 01 24:30:00
INDEX 02 25:31:62
INDEX 03 26:42:00
INDEX 04 28:36:12
INDEX 05 29:42:00
INDEX 06 30:47:62
INDEX 07 32:10:12
INDEX 08 33:31:62
TRACK 09 AUDIO
TITLE "Du Vendredi Saint, BWV 501: So gibst du nun"
PERFORMER "Georg Jelden, Heinz Schnauffer"
INDEX 00 34:17:25
INDEX 01 34:20:50
INDEX 02 35:37:12
INDEX 03 36:42:00
TRACK 10 AUDIO
TITLE "De la Repentance et de la Grace de Dieu, BWV 507: Wo ist mein Schaflein"
PERFORMER "Georg Jelden, Heinz Schnauffer"
INDEX 00 39:02:00
INDEX 01 39:05:25
INDEX 02 40:14:50
INDEX 03 41:13:12

CUE CD2

REM GENRE Classical
REM DATE 2006
REM DISCID 5A097108
REM COMMENT "ExactAudioCopy v1.0b1"
PERFORMER "Georg Jelden, Heinz Schnauffer"
TITLE "Bach J.S. - Sacred Songs & Arias from musicalisches Gesangbuch G.C.Schemelli,..."
FILE "Bach J.S. - Sacred Songs & Arias, BWV 439-507 - CD2.flac" WAVE
TRACK 01 AUDIO
TITLE "Du Chant de Louanges, BWV 452: Dir, dir, Jehova, will ich singen"
PERFORMER "Georg Jelden, Heinz Schnauffer"
INDEX 01 00:00:00
TRACK 02 AUDIO
TITLE "Du Reniement du Monde et de Soi-Meme, BWV 489: Nicht so traurig - BWV 494: O ..."
PERFORMER "Georg Jelden, Heinz Schnauffer"
INDEX 00 01:33:00
INDEX 01 01:36:37
INDEX 02 02:40:00
INDEX 03 03:35:00
INDEX 04 04:35:12
TRACK 03 AUDIO
TITLE "De la Justification, BWV 472: Jesu, meines Glaubens Zier - BWV 453: Eins ist ..."
PERFORMER "Georg Jelden, Heinz Schnauffer"
INDEX 00 05:25:25
INDEX 01 05:29:00
INDEX 02 06:30:12
INDEX 03 07:27:12
TRACK 04 AUDIO
TITLE "De l'Amour de Dieu, BWV 474: Jesus ist das schonste Licht - BWV 504: Vergiss ..."
PERFORMER "Georg Jelden, Heinz Schnauffer"
INDEX 00 08:27:37
INDEX 01 08:31:00
INDEX 02 09:19:37
INDEX 03 10:50:00
INDEX 04 12:08:00
TRACK 05 AUDIO
TITLE "De la Naissance de Jesus-Christ, BWV 465: Ich freue - BWV 454: Ermuntre dich ..."
PERFORMER "Georg Jelden, Heinz Schnauffer"
INDEX 00 13:00:00
INDEX 01 13:03:00
INDEX 02 13:51:25
INDEX 03 14:47:00
INDEX 04 15:35:00
INDEX 05 17:27:00
TRACK 06 AUDIO
TITLE "Chants Consolateurs de Jesus, BWV 506: Was bist du doch - BWV 440: Auf, auf -..."
PERFORMER "Georg Jelden, Heinz Schnauffer"
INDEX 00 18:59:50
INDEX 01 19:03:00
INDEX 02 19:46:00
INDEX 03 20:54:00
INDEX 04 22:05:00
INDEX 05 22:56:00
INDEX 06 24:01:12
TRACK 07 AUDIO
TITLE "Chants de la Mort et de l'Esperance en Dieu, 11 div. Lieder - BWV 483-492-478..."
PERFORMER "Georg Jelden, Heinz Schnauffer"
INDEX 00 25:28:00
INDEX 01 25:31:12
INDEX 02 27:06:25
INDEX 03 28:19:37
INDEX 04 29:42:00
INDEX 05 30:39:00
INDEX 06 31:49:00
INDEX 07 32:50:25
INDEX 08 34:01:25
INDEX 09 34:54:12
INDEX 10 35:35:00
INDEX 11 36:33:12
TRACK 08 AUDIO
TITLE "De la Patience et de la Serenite, BWV 466: Ich halte treulich still - BWV 460..."
PERFORMER "Georg Jelden, Heinz Schnauffer"
INDEX 00 37:28:00
INDEX 01 37:31:12
INDEX 02 38:51:00

Motets / Easter Oratorio, BWV 249

CD1
1. Lobet den Hern, alle Heiden, BWV 230
2. Komm, Jesu, komm, BWV 229
3. Singet den Herrn ein neues Lied, BWV 225
4. Jesu, meine Freude, BWV 227
5. Der Geist hilft unser Schwachheit auf, BWV 226
6. Furchte dich nicht, ich bin bei dir, BWV 228
CD2
1. Easter Oratorio, BWV 249 - Sinfonia
2. Adagio
3. Duetto + Chorus: Kommt, eilet und laufet
4. Recitativo: O Kalter MA¤nner Sinn
5. Aria soprano: Seele, deine Spezereien
6. Recitativo: Hier ist die Gruft
7. Aria tenor: Sanfte soll mein Todeskummer
8. Recitativo: Indessen seufzen wir
9. Aria, soprano-alto: Saget, saget mir geschwinde
10. Recitativo: Wir sind erfreut
11. Chorus: Preis und Dank
12. Chorale: Es hat mit uns nun keine Not
Performer:
Christine Brenk (soprano),
Anne Greiling (alto),
Frank Bossert (tenor),
Thomas Pfeiffer (bass),
u.a.,
Sudwestdeutsches Kammerorchester Pforzheim,
Prof.Rolf Schweizer

LOG CD1

Exact Audio Copy V1.0 beta 1 from 15. November 2010
EAC extraction logfile from 20. October 2011, 21:36
Michel Corboz, Ensemble vocal de Lausanne / Bach J.S. - Motets - CD1
Used drive : ASUS DRW-1814BL Adapter: 0 ID: 0
Read mode : Secure
Utilize accurate stream : Yes
Defeat audio cache : Yes
Make use of C2 pointers : No
Read offset correction : 6
Overread into Lead-In and Lead-Out : No
Fill up missing offset samples with silence : Yes
Delete leading and trailing silent blocks : No
Null samples used in CRC calculations : Yes
Used interface : Native Win32 interface for Win NT & 2000
Used output format : User Defined Encoder
Selected bitrate : 768 kBit/s
Quality : High
Add ID3 tag : No
Command line compressor : C:\Program Files\Exact Audio Copy\Flac\flac.exe
Additional command line options : -8 -V %s
TOC of the extracted CD
Track | Start | Length | Start sector | End sector
---------------------------------------------------------
1 | 0:00.30 | 6:21.36 | 30 | 28640
2 | 6:21.66 | 8:11.72 | 28641 | 65537
3 | 14:33.63 | 13:11.32 | 65538 | 124894
4 | 27:45.20 | 20:35.06 | 124895 | 217525
5 | 48:20.26 | 7:34.72 | 217526 | 251647
6 | 55:55.23 | 9:43.31 | 251648 | 295403
Range status and errors
Selected range
Filename C:\Program Files\Exact Audio Copy\Flac\Bach J.S. - Motets - CD1.wav
Peak level 96.7 %
Extraction speed 0.2 X
Range quality 99.9 %
Test CRC 1A828F56
Copy CRC 1A828F56
Copy OK
No errors occurred
AccurateRip summary
Track 1 accurately ripped (confidence 4) [D0832ED9]
Track 2 accurately ripped (confidence 4) [3C7FE088]
Track 3 accurately ripped (confidence 4) [D65E76D9]
Track 4 accurately ripped (confidence 4) [0B08A4AF]
Track 5 accurately ripped (confidence 4) [F1CF07E2]
Track 6 accurately ripped (confidence 4) [DEB7E9FE]
All tracks accurately ripped
End of status report
==== Log checksum 30F4011B35B71896235BF96924B19F20B373A706317EFD4DB16BC9B30E681680 ====

LOG CD2

Exact Audio Copy V1.0 beta 1 from 15. November 2010
EAC extraction logfile from 20. October 2011, 21:50
Sudwestdeutsches Kammerorchester Pforzheim, Prof.Rolf Schweize / Bach J.S. - Easter Oratorio, BWV 249 - CD2
Used drive : ASUS DRW-1814BL Adapter: 0 ID: 0
Read mode : Secure
Utilize accurate stream : Yes
Defeat audio cache : Yes
Make use of C2 pointers : No
Read offset correction : 6
Overread into Lead-In and Lead-Out : No
Fill up missing offset samples with silence : Yes
Delete leading and trailing silent blocks : No
Null samples used in CRC calculations : Yes
Used interface : Native Win32 interface for Win NT & 2000
Used output format : User Defined Encoder
Selected bitrate : 768 kBit/s
Quality : High
Add ID3 tag : No
Command line compressor : C:\Program Files\Exact Audio Copy\Flac\flac.exe
Additional command line options : -8 -V %s
TOC of the extracted CD
Track | Start | Length | Start sector | End sector
---------------------------------------------------------
1 | 0:00.00 | 4:13.56 | 0 | 19030
2 | 4:13.56 | 4:12.36 | 19031 | 37966
3 | 8:26.17 | 5:00.69 | 37967 | 60535
4 | 13:27.11 | 0:59.12 | 60536 | 64972
5 | 14:26.23 | 11:11.51 | 64973 | 115348
6 | 25:37.74 | 0:44.03 | 115349 | 118651
7 | 26:22.02 | 6:34.67 | 118652 | 148268
8 | 32:56.69 | 0:56.36 | 148269 | 152504
9 | 33:53.30 | 7:01.06 | 152505 | 184085
10 | 40:54.36 | 0:38.50 | 184086 | 186985
11 | 41:33.11 | 2:34.16 | 186986 | 198551
12 | 44:07.27 | 0:44.39 | 198552 | 201890
Range status and errors
Selected range
Filename C:\Program Files\Exact Audio Copy\Flac\Bach J.S. - Easter Oratorio, BWV 249 - CD2.wav
Peak level 98.8 %
Extraction speed 0.1 X
Range quality 100.0 %
Test CRC 41D1212E
Copy CRC 41D1212E
Copy OK
No errors occurred
AccurateRip summary
Track 1 accurately ripped (confidence 2) [0F8CAAEA]
Track 2 accurately ripped (confidence 2) [BD8D968E]
Track 3 accurately ripped (confidence 2) [8EC07C35]
Track 4 accurately ripped (confidence 2) [935BF077]
Track 5 accurately ripped (confidence 2) [F535809E]
Track 6 accurately ripped (confidence 2) [173C4966]
Track 7 accurately ripped (confidence 2) [00A8C990]
Track 8 accurately ripped (confidence 2) [60F2B853]
Track 9 accurately ripped (confidence 2) [4F042B05]
Track 10 accurately ripped (confidence 2) [FBFA91BA]
Track 11 accurately ripped (confidence 2) [9FC647C5]
Track 12 accurately ripped (confidence 2) [C13E25F7]
All tracks accurately ripped
End of status report
==== Log checksum 456EC41D1061B7C1F069B56067D40742BDBBE9348C790A3AC054F0944B7678D7 ====

CUE CD1

REM GENRE Classical
REM DATE 2006
REM DISCID 570F6206
REM COMMENT "ExactAudioCopy v1.0b1"
PERFORMER "Michel Corboz, Ensemble vocal de Lausanne"
TITLE "Bach J.S. - Motets - CD1"
FILE "Bach J.S. - Motets - CD1.flac" WAVE
TRACK 01 AUDIO
TITLE "Lobet den Hern, alle Heiden, BWV 230"
PERFORMER "Michel Corboz, Ensemble vocal de Lausanne"
INDEX 00 00:00:00
INDEX 01 00:00:30
TRACK 02 AUDIO
TITLE "Komm, Jesu, komm, BWV 229"
PERFORMER "Michel Corboz, Ensemble vocal de Lausanne"
INDEX 01 06:21:66
TRACK 03 AUDIO
TITLE "Singet den Herrn ein neues Lied, BWV 225"
PERFORMER "Michel Corboz, Ensemble vocal de Lausanne"
INDEX 01 14:33:63
TRACK 04 AUDIO
TITLE "Jesu, meine Freude, BWV 227"
PERFORMER "Michel Corboz, Ensemble vocal de Lausanne"
INDEX 01 27:45:20
TRACK 05 AUDIO
TITLE "Der Geist hilft unser Schwachheit auf, BWV 226"
PERFORMER "Michel Corboz, Ensemble vocal de Lausanne"
INDEX 01 48:20:26
TRACK 06 AUDIO
TITLE "Furchte dich nicht, ich bin bei dir, BWV 228"
PERFORMER "Michel Corboz, Ensemble vocal de Lausanne"
INDEX 01 55:55:23

CUE CD2

REM GENRE Classical
REM DATE 2006
REM DISCID C30A830C
REM COMMENT "ExactAudioCopy v1.0b1"
PERFORMER "Sudwestdeutsches Kammerorchester Pforzheim, Prof.Rolf Schweize"
TITLE "Bach J.S. - Easter Oratorio, BWV 249 - CD2"
FILE "Bach J.S. - Easter Oratorio, BWV 249 - CD2.flac" WAVE
TRACK 01 AUDIO
TITLE "Easter Oratorio, BWV 249 - Sinfonia"
PERFORMER "Sudwestdeutsches Kammerorchester Pforzheim, Prof.Rolf Schweize"
INDEX 01 00:00:00
TRACK 02 AUDIO
TITLE "Adagio"
PERFORMER "Sudwestdeutsches Kammerorchester Pforzheim, Prof.Rolf Schweize"
INDEX 01 04:13:56
TRACK 03 AUDIO
TITLE "Duetto + Chorus: Kommt, eilet und laufet"
PERFORMER "Sudwestdeutsches Kammerorchester Pforzheim, Prof.Rolf Schweize"
INDEX 01 08:26:17
TRACK 04 AUDIO
TITLE "Recitativo: O Kalter MA¤nner Sinn"
PERFORMER "Sudwestdeutsches Kammerorchester Pforzheim, Prof.Rolf Schweize"
INDEX 01 13:27:11
TRACK 05 AUDIO
TITLE "Aria soprano: Seele, deine Spezereien"
PERFORMER "Sudwestdeutsches Kammerorchester Pforzheim, Prof.Rolf Schweize"
INDEX 01 14:26:23
TRACK 06 AUDIO
TITLE "Recitativo: Hier ist die Gruft"
PERFORMER "Sudwestdeutsches Kammerorchester Pforzheim, Prof.Rolf Schweize"
INDEX 01 25:37:74
TRACK 07 AUDIO
TITLE "Aria tenor: Sanfte soll mein Todeskummer"
PERFORMER "Sudwestdeutsches Kammerorchester Pforzheim, Prof.Rolf Schweize"
INDEX 01 26:22:02
TRACK 08 AUDIO
TITLE "Recitativo: Indessen seufzen wir"
PERFORMER "Sudwestdeutsches Kammerorchester Pforzheim, Prof.Rolf Schweize"
INDEX 01 32:56:69
TRACK 09 AUDIO
TITLE "Aria, soprano-alto: Saget, saget mir geschwinde"
PERFORMER "Sudwestdeutsches Kammerorchester Pforzheim, Prof.Rolf Schweize"
INDEX 01 33:53:30
TRACK 10 AUDIO
TITLE "Recitativo: Wir sind erfreut"
PERFORMER "Sudwestdeutsches Kammerorchester Pforzheim, Prof.Rolf Schweize"
INDEX 01 40:54:36
TRACK 11 AUDIO
TITLE "Chorus: Preis und Dank"
PERFORMER "Sudwestdeutsches Kammerorchester Pforzheim, Prof.Rolf Schweize"
INDEX 01 41:33:11
TRACK 12 AUDIO
TITLE "Chorale: Es hat mit uns nun keine Not"
PERFORMER "Sudwestdeutsches Kammerorchester Pforzheim, Prof.Rolf Schweize"
INDEX 01 44:07:27
Bach Edition - Vocal Works Vol. I
Bach Edition - Vocal Works Vol. II
Bach Edition - Passions
Bach Edition - Orchestral Works & Concertos
Bach Edition - Keyboard Works Vol.I
Bach Edition - Keyboard Works Vol.II
Bach Edition - Organ Works Vol.II
И.С. Бах - Полное собрание сочинений, [Brilliant Classics], 160 CD
[teatrix.ru].t18010.torrent 
Торрент: Зарегистрирован [ 2016-03-17 00:45 ] · DD6255DAB5855A0937EF4D4930658BAFAFC9DBAD

Скачать .torrent

Скачать

25 KB

Статус: проверено
Скачан: 0 раз
Размер: 1.9 GB
terms.php



Быстрый ответ

Имя:

      
Для отправки сообщений необходимо включить JavaScript
Показать сообщения:    

Текущее время: 05-Дек 11:34

Часовой пояс: UTC + 3


Вы можете начинать темы
Вы можете отвечать на сообщения
Вы не можете редактировать свои сообщения
Вы не можете удалять свои сообщения
Вы не можете голосовать в опросах
Вы не можете прикреплять файлы к сообщениям
Вы можете скачивать файлы