(Classical) Прокофьев - Концерт для фортепиано с оркестром №3. Bartok - Концерт для фортепиано с оркестром №2 (Lang Lang; Sir Simon Rattle; BPO) - 2013, FLAC (image+.cue) lossless


Статистика раздачи [Обновить пиров]
Размер:  245 MB   |    Зарегистрирован:  8 месяцев 23 дня   |    Скачан:  1 раз

Полного источника не было: 8 месяцев 4 дня

 
   
 
 
 

[Цитировать]

Прокофьев 3. Bartók 2 (Lang Lang; Sir Simon Rattle; BPO)
Жанр: Classical
Страна-производитель диска: UK
Год издания диска: 2013
Издатель (лейбл): SONY Classical
Номер по каталогу: 88883732262
Дата записи: 2013
Аудиокодек: FLAC
Тип рипа: image+.cue
Битрейт аудио: lossless
Продолжительность: 01:00:32
Источник: собственный рип
Наличие сканов в содержимом раздачи: да
Треклист:
Sergei Prokofiev: Piano Concerto No. 3 in C major, Op. 26
1 I. Andante - Allegro 9:47
2 II. Tema. Andantino - Variations 1-5 - Tema 10:13
3 III. Allegro ma non troppo 10:34
Béla Bartók: Piano Concerto No. 2, BB101, Sz. 95
4 I. Allegro 10:10
5 II. Adagio - Presto - Adagio 13:13
6 III. Allegro Molto 6:35
Исполнители:
Piano: Lang Lang
Conductor: Sir Simon Rattle
Orchestra: Berlin Phiñlharmonic Orchestra

Лог создания рипа

Exact Audio Copy V1.0 beta 3 from 29. August 2011
EAC extraction logfile from 27. December 2013, 21:52
Lang Lang; Sir Simon Rattle; Berlin Philharmonic Orchestra / Prokofiev 3. Bartók 2
Used drive : PIONEER DVD-RW DVR-112D Adapter: 0 ID: 1
Read mode : Secure
Utilize accurate stream : Yes
Defeat audio cache : Yes
Make use of C2 pointers : No
Read offset correction : 48
Overread into Lead-In and Lead-Out : No
Fill up missing offset samples with silence : Yes
Delete leading and trailing silent blocks : No
Null samples used in CRC calculations : Yes
Used interface : Native Win32 interface for Win NT & 2000
Used output format : User Defined Encoder
Selected bitrate : 768 kBit/s
Quality : High
Add ID3 tag : No
Command line compressor : C:\Program Files (x86)\FLAC\flac.exe
Additional command line options : -6 -V -T "ARTIST=%artist%" -T "TITLE=%title%" -T "ALBUM=%albumtitle%" -T "DATE=%year%" -T "TRACKNUMBER=%tracknr%" -T "GENRE=%genre%" -T "COMMENT=%comment%" -T "BAND=%albuminterpret%" -T "ALBUMARTIST=%albuminterpret%" -T "COMPOSER=%composer%" %haslyrics%--tag-from-file=LYRICS="%lyricsfile%"%haslyrics% -T "DISCNUMBER=%cdnumber%" -T "TOTALDISCS=%totalcds%" -T "TOTALTRACKS=%numtracks%" %hascover%--picture="%coverfile%"%hascover% %source% -o %dest%
TOC of the extracted CD
Track | Start | Length | Start sector | End sector
---------------------------------------------------------
1 | 0:00.00 | 9:47.28 | 0 | 44052
2 | 9:47.28 | 10:13.61 | 44053 | 90088
3 | 20:01.14 | 10:34.44 | 90089 | 137682
4 | 30:35.58 | 10:10.70 | 137683 | 183502
5 | 40:46.53 | 13:13.37 | 183503 | 243014
6 | 54:00.15 | 6:35.12 | 243015 | 272651
Range status and errors
Selected range
Filename C:\Users\Emmanuel\Desktop\Lang; Rattle; BPO; Prokofiev 3; Bartok 2\Lang Lang; Sir Simon Rattle; Berlin Philharmonic Orchestra - Prokofiev 3. Bartók 2.wav
Peak level 92.9 %
Extraction speed 6.3 X
Range quality 99.9 %
Copy CRC 58B5332C
Copy OK
No errors occurred
AccurateRip summary
Track 1 cannot be verified as accurate (confidence 1) [EF2DDB61], AccurateRip returned [A1BDD932] (AR v2)
Track 2 accurately ripped (confidence 1) [B1E126B6] (AR v2)
Track 3 accurately ripped (confidence 1) [F5292762] (AR v2)
Track 4 accurately ripped (confidence 1) [FACFFA03] (AR v2)
Track 5 cannot be verified as accurate (confidence 1) [B7BB5A80], AccurateRip returned [14FA8E4F] (AR v2)
Track 6 accurately ripped (confidence 1) [DB0EA768] (AR v2)
4 pista(s) extraidas con precisión
2 pista(s) no puede ser verificada como precisa
Some tracks could not be verified as accurate
End of status report
---- CUETools DB Plugin V2.1.3
[CTDB TOCID: dDYJBvd8UONWl.Cmm7FYlS0fyvs-] found, Submit result: dDYJBvd8UONWl.Cmm7FYlS0fyvs- has been confirmed
[7c470dfe] (4/4) Accurately ripped
==== Log checksum C82E412FBE1DC6ACBE12265293D73EE9E421939C62BACC8950D4FD7B9DF93B7D ====

Содержание индексной карты (.CUE)

REM DATE 2013
REM DISCID 4E0E3306
REM COMMENT "ExactAudioCopy v1.0b3"
CATALOG 8888373225228
PERFORMER "Lang Lang; Sir Simon Rattle; Berlin Philharmonic Orchestra"
TITLE "Prokofiev 3. Bartók 2"
FILE "Lang Lang; Sir Simon Rattle; Berlin Philharmonic Orchestra - Prokofiev 3. Bartók 2.flac" WAVE
TRACK 01 AUDIO
TITLE "Prokofiev PC #3 - I. Andante - Allegro"
PERFORMER "Lang Lang; Sir Simon Rattle; Berlin Philharmonic Orchestra"
ISRC USSM11303628
INDEX 01 00:00:00
TRACK 02 AUDIO
TITLE "II. Tema. Andantino - Variations I-V - Tema"
PERFORMER "Lang Lang; Sir Simon Rattle; Berlin Philharmonic Orchestra"
ISRC USSM11303629
INDEX 01 09:47:28
TRACK 03 AUDIO
TITLE "III. Allegro ma non troppo"
PERFORMER "Lang Lang; Sir Simon Rattle; Berlin Philharmonic Orchestra"
ISRC USSM11303630
INDEX 01 20:01:14
TRACK 04 AUDIO
TITLE "Bartók PC #2 - I. Allegro"
PERFORMER "Lang Lang; Sir Simon Rattle; Berlin Philharmonic Orchestra"
ISRC USSM11303632
INDEX 00 30:23:53
INDEX 01 30:35:58
TRACK 05 AUDIO
TITLE "II. Adagio - Presto - Adagio"
PERFORMER "Lang Lang; Sir Simon Rattle; Berlin Philharmonic Orchestra"
ISRC USSM11303633
INDEX 01 40:46:53
TRACK 06 AUDIO
TITLE "III. Allegro Molto"
PERFORMER "Lang Lang; Sir Simon Rattle; Berlin Philharmonic Orchestra"
ISRC USSM11303634
INDEX 01 54:00:15
[teatrix.ru].t18011.torrent 
Торрент: Зарегистрирован [ 2016-03-17 00:45 ] · EDD4EB7E5A4B5D70E1C6B063491059907A861190

Скачать .torrent

Скачать

20 KB

Статус: проверено
Скачан: 1 раз
Размер: 245 MB
terms.php



Быстрый ответ

Имя:

      
Для отправки сообщений необходимо включить JavaScript
Показать сообщения:    

Текущее время: 09-Дек 14:40

Часовой пояс: UTC + 3


Вы можете начинать темы
Вы можете отвечать на сообщения
Вы не можете редактировать свои сообщения
Вы не можете удалять свои сообщения
Вы не можете голосовать в опросах
Вы не можете прикреплять файлы к сообщениям
Вы можете скачивать файлы