(Classical) Stolzel Gottfried Heinrich - Brockes-Passion (Ludger Remy;Kammerchor Michaelstein,Telemann-Kammerorchester Michaelstein;Backes,Mields,Voss,Schoch) - 1998, FLAC (image+.cue) lossless


Статистика раздачи [Обновить пиров]
Размер:  548 MB   |    Зарегистрирован:  8 месяцев 21 день   |    Скачан:  0 раз

Полного источника не было: Никогда

 
   
 
 
 

[Цитировать]

Stolzel Gottfried Heinrich - Brockes-Passion (Ludger Remy;Kammerchor Michaelstein,Telemann-Kammerorchester Michaelstein;Backes,Mields,Voss,Schoch)
Жанр: Classical
Год издания диска: 1998
Издатель (лейбл): CPO
Номер по каталогу: 999 560-2
Аудиокодек: FLAC
Тип рипа: image+.cue
Битрейт аудио: lossless
Продолжительность: CD1:49’27; CD2:77’04
Источник: собственный рип
Наличие сканов в содержимом раздачи: да
Треклист:
CD1
1. Part 1. Coro. Mich vom Stricken meiner Sünden
2. Recitativo & Accompagnato. Als Jesus nun zu Tische saße
3. Aria. Der Gott, dem alle Himmels=Kreise
4. Recitativo & Accompagnato. Und bald hernach nahm er den Kelch
5. Aria. Gott selbst, die Brunnquell alles Guten
6. Chorale. Ach, wie hungert mein Gemüthe
7. Recitativo, Coro & Accompagnato. Drauf sagten sie dem Höchsten Danck
8. Aria, Recitativo & Aria. Mein Vater! schau, wie ich mich quäle
9. Arioso. Sünder, schaut mit Furcht und Zagen
10. Recitativo. Die Pein vermehrte sich
11. Aria. Brich. mein Hertz, zerffließ in Thränen
12. Recitativo, Arioso & Coro. Ein Engel aber kam
13. Aria. Gifft und Gluth, Strahl und Fluth
14. Recitativo. Steck nur das Schwerdt an seinen Ort
15. Coro. O Weh! sie binden ihn
16. Recitativo & Aria. Wo flieht ihr hin
17. Chorale. Ich will hie bey dir stehen
18. Part 2. Recitativo. Und Jesus ward zum Pallast Caiphas
19. Aria. Was Bähren=Tatzen, Löwen=Klauen
20. Recitativo. Dieß sahe Petrus an
21. Aria & Recitativo. Heul, du Schaum der Menschenkinder
22. Aria. Schau, ich fall in strenger Buße
23. Chorale. Ach Gott und Herr
24. Recitativo & Chor. Als Jesus nun, wie hart man ihn verklagte
25. Aria. Erweg, ergrimmte Nattern=Bruth
26. Chorale. Hertzliebster Jesu, was hast du verbrochen
CD2
1. Part 3. Recitativo & Aria. Die Nacht war kaum vorbey
2. Accompagnato. O was hab ich verfluchter Mensch getan
3. Aria & Recitativo. Laß diese That nicht ungerochen
4. Aria. Die ihr Gottes Gnad versäumet
5. Recitativo & Coro. Wie nun Pilatus Jesum fragt
6. Aria Senz' Oboi. Sprichst du denn auf diß Verklagen
7. Recitativo & Coro. Pilatus wunderte sich sehr
8. Accompagnato & Aria. Besinne dich, Pilatus
9. Recitativo. Drauf zerreten die Kriegs=Knecht Ihn herein
10. Arioso, Recitativo & Aria. Ich seh an einen Stein gebunden
11. Recitativo. Wie nun das Blut mit Ströhmen von ihm rann
12. Aria & Recitativo. Die Rosen krönen sonst
13. Aria & Recitativo. Lass Doch Diese Herben Schmertzen
14. Duetto. Jesu, dich mit unsern Seelen
15. Recitativo & Coro. Drauf beugten sie aus Spott vor Ihm die Knie
16. Aria. Schäumest du, du Schaum der Welt
17. Recitativo, Aria & Recitativo. Worauf sie mit dem Rohr
18. Aria con Coro and Chorale. Eilt, ihr angefochtnen Seelen / Laßet mich mit Jesu Ziehen
19. Part 4. Recitativo. Ach Gott! Mein Sohn wird fortgeschleppt
20. Duetto Soll mein Kind, mein Leben sterben
21. Recitativo & Aria. Und er trug / Es scheint, da den zerkerbten Rücken
22. Recitativo, Aria & Recitativo. Wie sie nun an die Städte
23. Chor: O Menschenkind, Nur Deine Sund / Kammerchor Michaelstein
24. Recitativo, Coro & Recitativo. Sobald er nun gecreüzigt war / Pfui, seht mir doch
25. Aria. Was Wunder daß der Sonnen Pracht
26. Recitativo & Accompagnato. Diß war zur neundten Stund
27. Arioso. Mein Heyland, Herr und Fürst
28. Recitativo. Drauf lief ein Kriegs=Knecht
29. Coro & Recitativo. O Donner=Wort / O seelig, wer diß glaubt
30. Arioso & Recitativo. Sind meiner Seele tiefe Wunden
31. Aria & Accompagnato. Brich, brüllender Abgrund
32. Aria. Wie kömmts, daß, da der Himmel weint
33. Chor. Bey Jesus Todt Und Leben Leidet
34. Chorale. Mein Sünd mich werden kräncken sehr
35. Aria. Wisch ab der Thränen scharffe Lauge
36. Chorale. Ich bin ein Glied an deinem Leib
Исполнители:
Constanze Backes – soprano 1
Dorothee Mields – soprano 2
Henning Voss – altus
Knui Schoch – tenor (Evangelist)
Andreas Post - tenor
Florian Mehltretter - bass
Klaus Mertens – bass (Jesus)
Kammerchor Michaelstein
Telemann-Kammerorchester Michaelstein
Conductor - Ludger Rémy

Лог создания рипа

LOG CD1

Exact Audio Copy V1.0 beta 1 from 15. November 2010
EAC extraction logfile from 23. September 2011, 15:56
Ludger Remy - Kammerorchester & Kammerchor Michaelstein / Stolzel - Brockes-Passion CD1
Used drive : PIONEER DVD-RW DVR-218L Adapter: 1 ID: 0
Read mode : Secure
Utilize accurate stream : Yes
Defeat audio cache : Yes
Make use of C2 pointers : No
Read offset correction : 6
Overread into Lead-In and Lead-Out : No
Fill up missing offset samples with silence : Yes
Delete leading and trailing silent blocks : No
Null samples used in CRC calculations : Yes
Used interface : Native Win32 interface for Win NT & 2000
Used output format : User Defined Encoder
Selected bitrate : 192 kBit/s
Quality : High
Add ID3 tag : No
Command line compressor : C:\Program Files\Exact Audio Copy\Flac\flac.exe
Additional command line options : -T "DATE=%y" -T "GENRE=%m" -8 -V %s
TOC of the extracted CD
Track | Start | Length | Start sector | End sector
---------------------------------------------------------
1 | 0:00.00 | 4:19.57 | 0 | 19481
2 | 4:19.57 | 0:59.58 | 19482 | 23964
3 | 5:19.40 | 1:25.72 | 23965 | 30411
4 | 6:45.37 | 1:06.28 | 30412 | 35389
5 | 7:51.65 | 1:22.60 | 35390 | 41599
6 | 9:14.50 | 0:46.45 | 41600 | 45094
7 | 10:01.20 | 3:07.72 | 45095 | 59191
8 | 13:09.17 | 3:54.48 | 59192 | 76789
9 | 17:03.65 | 0:59.25 | 76790 | 81239
10 | 18:03.15 | 1:35.25 | 81240 | 88389
11 | 19:38.40 | 3:26.00 | 88390 | 103839
12 | 23:04.40 | 2:30.05 | 103840 | 115094
13 | 25:34.45 | 1:46.62 | 115095 | 123106
14 | 27:21.32 | 1:15.63 | 123107 | 128794
15 | 28:37.20 | 1:05.37 | 128795 | 133706
16 | 29:42.57 | 2:11.53 | 133707 | 143584
17 | 31:54.35 | 1:05.55 | 143585 | 148514
18 | 33:00.15 | 1:29.27 | 148515 | 155216
19 | 34:29.42 | 2:38.15 | 155217 | 167081
20 | 37:07.57 | 3:26.28 | 167082 | 182559
21 | 40:34.10 | 2:21.50 | 182560 | 193184
22 | 42:55.60 | 1:08.10 | 193185 | 198294
23 | 44:03.70 | 1:00.35 | 198295 | 202829
24 | 45:04.30 | 1:24.17 | 202830 | 209146
25 | 46:28.47 | 1:34.10 | 209147 | 216206
26 | 48:02.57 | 1:24.18 | 216207 | 222524
Range status and errors
Selected range
Filename C:\Stolzel - Brockes-Passion CD1.wav
Peak level 99.8 %
Extraction speed 0.0 X
Range quality 99.9 %
Test CRC 91AF6D50
Copy CRC 91AF6D50
Copy OK
No errors occurred
AccurateRip summary
Track 1 accurately ripped (confidence 3) [0E1BB77E]
Track 2 accurately ripped (confidence 3) [AF0E7D26]
Track 3 accurately ripped (confidence 3) [EFED97DD]
Track 4 accurately ripped (confidence 3) [68A2A19A]
Track 5 accurately ripped (confidence 3) [07B21CB9]
Track 6 accurately ripped (confidence 3) [8BBD1850]
Track 7 accurately ripped (confidence 3) [218FE110]
Track 8 accurately ripped (confidence 3) [5F64182B]
Track 9 accurately ripped (confidence 3) [68F7EBA6]
Track 10 accurately ripped (confidence 3) [7375553C]
Track 11 accurately ripped (confidence 3) [0200FEB8]
Track 12 accurately ripped (confidence 3) [9B4C860E]
Track 13 accurately ripped (confidence 3) [FBE6EE31]
Track 14 accurately ripped (confidence 3) [DF595905]
Track 15 accurately ripped (confidence 3) [4431A0CF]
Track 16 accurately ripped (confidence 3) [DCDA4DF1]
Track 17 accurately ripped (confidence 3) [B4C67795]
Track 18 accurately ripped (confidence 3) [6EBAEB14]
Track 19 accurately ripped (confidence 3) [870A1551]
Track 20 accurately ripped (confidence 3) [7012AC80]
Track 21 accurately ripped (confidence 3) [5191B077]
Track 22 accurately ripped (confidence 3) [811058EF]
Track 23 accurately ripped (confidence 3) [22137515]
Track 24 accurately ripped (confidence 3) [6C5012C3]
Track 25 accurately ripped (confidence 3) [D52F1137]
Track 26 accurately ripped (confidence 3) [2662EAD5]
All tracks accurately ripped
End of status report
==== Log checksum 8BF428FD6FFDE1BFF07F31E56C19938BB4D314174AA98438735D2379061F4EB1 ====

LOG CD2

Exact Audio Copy V1.0 beta 1 from 15. November 2010
EAC extraction logfile from 23. September 2011, 17:30
Ludger Remy - Kammerorchester & Kammerchor Michaelstein / Stolzel - Brockes Passion CD2
Used drive : PIONEER DVD-RW DVR-218L Adapter: 1 ID: 0
Read mode : Secure
Utilize accurate stream : Yes
Defeat audio cache : Yes
Make use of C2 pointers : No
Read offset correction : 6
Overread into Lead-In and Lead-Out : No
Fill up missing offset samples with silence : Yes
Delete leading and trailing silent blocks : No
Null samples used in CRC calculations : Yes
Used interface : Native Win32 interface for Win NT & 2000
Used output format : User Defined Encoder
Selected bitrate : 192 kBit/s
Quality : High
Add ID3 tag : No
Command line compressor : C:\Program Files\Exact Audio Copy\Flac\flac.exe
Additional command line options : -T "DATE=%y" -T "GENRE=%m" -8 -V %s
TOC of the extracted CD
Track | Start | Length | Start sector | End sector
---------------------------------------------------------
1 | 0:00.00 | 3:52.70 | 0 | 17469
2 | 3:52.70 | 0:47.20 | 17470 | 21014
3 | 4:40.15 | 2:47.05 | 21015 | 33544
4 | 7:27.20 | 1:38.50 | 33545 | 40944
5 | 9:05.70 | 0:50.37 | 40945 | 44731
6 | 9:56.32 | 2:37.05 | 44732 | 56511
7 | 12:33.37 | 1:33.38 | 56512 | 63524
8 | 14:07.00 | 2:23.50 | 63525 | 74299
9 | 16:30.50 | 0:29.35 | 74300 | 76509
10 | 17:00.10 | 5:00.15 | 76510 | 99024
11 | 22:00.25 | 0:28.05 | 99025 | 101129
12 | 22:28.30 | 3:55.22 | 101130 | 118776
13 | 26:23.52 | 3:37.00 | 118777 | 135051
14 | 30:00.52 | 1:47.50 | 135052 | 143126
15 | 31:48.27 | 0:57.50 | 143127 | 147451
16 | 32:46.02 | 1:18.73 | 147452 | 153374
17 | 34:05.00 | 6:22.05 | 153375 | 182029
18 | 40:27.05 | 1:49.25 | 182030 | 190229
19 | 42:16.30 | 1:31.02 | 190230 | 197056
20 | 43:47.32 | 1:16.50 | 197057 | 202806
21 | 45:04.07 | 3:14.28 | 202807 | 217384
22 | 48:18.35 | 3:11.12 | 217385 | 231721
23 | 51:29.47 | 0:38.68 | 231722 | 234639
24 | 52:08.40 | 1:27.62 | 234640 | 241226
25 | 53:36.27 | 2:27.40 | 241227 | 252291
26 | 56:03.67 | 1:44.40 | 252292 | 260131
27 | 57:48.32 | 1:11.48 | 260132 | 265504
28 | 59:00.05 | 0:42.70 | 265505 | 268724
29 | 59:43.00 | 3:12.02 | 268725 | 283126
30 | 62:55.02 | 1:46.15 | 283127 | 291091
31 | 64:41.17 | 4:00.45 | 291092 | 309136
32 | 68:41.62 | 1:38.30 | 309137 | 316516
33 | 70:20.17 | 2:24.03 | 316517 | 327319
34 | 72:44.20 | 0:49.20 | 327320 | 331014
35 | 73:33.40 | 2:33.60 | 331015 | 342549
36 | 76:07.25 | 0:56.50 | 342550 | 346799
Range status and errors
Selected range
Filename C:\Stolzel - Brockes Passion CD2.wav
Peak level 99.0 %
Extraction speed 0.0 X
Range quality 99.9 %
Test CRC B99EF891
Copy CRC B99EF891
Copy OK
No errors occurred
AccurateRip summary
Track 1 accurately ripped (confidence 3) [D1BC6517]
Track 2 accurately ripped (confidence 3) [DBC5A9C1]
Track 3 accurately ripped (confidence 3) [ADD650E3]
Track 4 accurately ripped (confidence 3) [D71856B4]
Track 5 accurately ripped (confidence 3) [E5EC9F41]
Track 6 accurately ripped (confidence 3) [DAC2AE12]
Track 7 accurately ripped (confidence 3) [AF542423]
Track 8 accurately ripped (confidence 3) [6E0A441F]
Track 9 accurately ripped (confidence 3) [4B175996]
Track 10 accurately ripped (confidence 3) [EA20CB77]
Track 11 accurately ripped (confidence 3) [B893C0E6]
Track 12 accurately ripped (confidence 3) [EE107C99]
Track 13 accurately ripped (confidence 3) [E9144FDD]
Track 14 accurately ripped (confidence 3) [DD7A2E03]
Track 15 accurately ripped (confidence 3) [57FDCB29]
Track 16 accurately ripped (confidence 3) [47D1D236]
Track 17 accurately ripped (confidence 3) [2B9EA766]
Track 18 accurately ripped (confidence 3) [DB12310D]
Track 19 accurately ripped (confidence 3) [6AB5DBF6]
Track 20 accurately ripped (confidence 3) [A88A0D99]
Track 21 accurately ripped (confidence 3) [052CE1E7]
Track 22 accurately ripped (confidence 3) [2A9D9987]
Track 23 accurately ripped (confidence 3) [1A269D26]
Track 24 accurately ripped (confidence 3) [102308CF]
Track 25 accurately ripped (confidence 3) [39396F72]
Track 26 accurately ripped (confidence 3) [61E003A7]
Track 27 accurately ripped (confidence 3) [2FA74F27]
Track 28 accurately ripped (confidence 3) [539CFEC9]
Track 29 accurately ripped (confidence 3) [AE784F49]
Track 30 accurately ripped (confidence 3) [363FA0A6]
Track 31 accurately ripped (confidence 3) [1E132F3A]
Track 32 accurately ripped (confidence 3) [E7BAC923]
Track 33 accurately ripped (confidence 3) [1CEEA87F]
Track 34 accurately ripped (confidence 3) [FDBF94A7]
Track 35 accurately ripped (confidence 3) [E5C8C017]
Track 36 accurately ripped (confidence 3) [51C213E7]
All tracks accurately ripped
End of status report
==== Log checksum 2F5A7C2906551986251A59998ADB90BED272979C78EFBFE5115D7CDDFCC717A2 ====

Содержание индексной карты (.CUE)

CUE CD1

REM GENRE Classical
REM DATE 1997
REM DISCID 740B971A
REM COMMENT "ExactAudioCopy v1.0b1"
PERFORMER "Ludger Remy - Kammerorchester & Kammerchor Michaelstein"
TITLE "Stolzel - Brockes-Passion CD1"
FILE "Stolzel - Brockes-Passion CD1.flac" WAVE
TRACK 01 AUDIO
TITLE "Pars I. Coro: Mich vom Stricken meiner Sunden"
PERFORMER "Ludger Remy - Kammerorchester & Kammerchor Michaelstein"
INDEX 01 00:00:00
TRACK 02 AUDIO
TITLE "Recitativo et Accompagnato: Als Jesus nun zu Tische sasse"
PERFORMER "Ludger Remy - Kammerorchester & Kammerchor Michaelstein"
INDEX 01 04:19:57
TRACK 03 AUDIO
TITLE "Aria: Der Gott, dem alle Himmels-Kreise"
PERFORMER "Ludger Remy - Kammerorchester & Kammerchor Michaelstein"
INDEX 01 05:19:40
TRACK 04 AUDIO
TITLE "Recitativo et Accompagnato: Und bald hernach nahm er den Kelch"
PERFORMER "Ludger Remy - Kammerorchester & Kammerchor Michaelstein"
INDEX 01 06:45:37
TRACK 05 AUDIO
TITLE "Aria: Gott selbst, die Brunnquell alles Guten"
PERFORMER "Ludger Remy - Kammerorchester & Kammerchor Michaelstein"
INDEX 01 07:51:65
TRACK 06 AUDIO
TITLE "Chorale: Ach, wie hungert mein Gemuthe"
PERFORMER "Ludger Remy - Kammerorchester & Kammerchor Michaelstein"
INDEX 01 09:14:50
TRACK 07 AUDIO
TITLE "Recitativo et Accompagnato: Drauf sagten sie dem Hochsten Danck"
PERFORMER "Ludger Remy - Kammerorchester & Kammerchor Michaelstein"
INDEX 01 10:01:20
TRACK 08 AUDIO
TITLE "Aria, Recitativo et Aria: Mein Vater! schau, wie ich mich quale"
PERFORMER "Ludger Remy - Kammerorchester & Kammerchor Michaelstein"
INDEX 01 13:09:17
TRACK 09 AUDIO
TITLE "Arioso: Sunder, schaut mit Furcht und Zagen"
PERFORMER "Ludger Remy - Kammerorchester & Kammerchor Michaelstein"
INDEX 01 17:03:65
TRACK 10 AUDIO
TITLE "Recitativo: Die Pein vermehrte sich"
PERFORMER "Ludger Remy - Kammerorchester & Kammerchor Michaelstein"
INDEX 01 18:03:15
TRACK 11 AUDIO
TITLE "Aria: Brich, mein Hertz, zerffliess in Thranen"
PERFORMER "Ludger Remy - Kammerorchester & Kammerchor Michaelstein"
INDEX 01 19:38:40
TRACK 12 AUDIO
TITLE "Recitativo, Arioso, et Coro: Ein Engel aber kam"
PERFORMER "Ludger Remy - Kammerorchester & Kammerchor Michaelstein"
INDEX 01 23:04:40
TRACK 13 AUDIO
TITLE "Aria: Gifft und Gluth, Strahl und Fluth"
PERFORMER "Ludger Remy - Kammerorchester & Kammerchor Michaelstein"
INDEX 01 25:34:45
TRACK 14 AUDIO
TITLE "Recitativo: Steck nur das Schwerdt an seinen Ort"
PERFORMER "Ludger Remy - Kammerorchester & Kammerchor Michaelstein"
INDEX 01 27:21:32
TRACK 15 AUDIO
TITLE "Coro: O Weh! sie binden ihn"
PERFORMER "Ludger Remy - Kammerorchester & Kammerchor Michaelstein"
INDEX 01 28:37:20
TRACK 16 AUDIO
TITLE "Recitativo et Aria: Wo flieht ihr ihn"
PERFORMER "Ludger Remy - Kammerorchester & Kammerchor Michaelstein"
INDEX 01 29:42:57
TRACK 17 AUDIO
TITLE "Chorale: Ich will hie bey dir stehen"
PERFORMER "Ludger Remy - Kammerorchester & Kammerchor Michaelstein"
INDEX 01 31:54:35
TRACK 18 AUDIO
TITLE "Pars II. Recitativo: Und Jesus ward zum Pallsat Caiphas"
PERFORMER "Ludger Remy - Kammerorchester & Kammerchor Michaelstein"
INDEX 01 33:00:15
TRACK 19 AUDIO
TITLE "Aria: Was Bahren-tanzen, Lowen-klauen"
PERFORMER "Ludger Remy - Kammerorchester & Kammerchor Michaelstein"
INDEX 01 34:29:42
TRACK 20 AUDIO
TITLE "Recitativo: Diess sahe Petrus an"
PERFORMER "Ludger Remy - Kammerorchester & Kammerchor Michaelstein"
INDEX 01 37:07:57
TRACK 21 AUDIO
TITLE "Aria et Recitativo: Heul, du Schaum der Menschenkinder"
PERFORMER "Ludger Remy - Kammerorchester & Kammerchor Michaelstein"
INDEX 01 40:34:10
TRACK 22 AUDIO
TITLE "Aria: Schau, ich fall in strenger Busse"
PERFORMER "Ludger Remy - Kammerorchester & Kammerchor Michaelstein"
INDEX 01 42:55:60
TRACK 23 AUDIO
TITLE "Chorale: Ach Gott und Herr"
PERFORMER "Ludger Remy - Kammerorchester & Kammerchor Michaelstein"
INDEX 01 44:03:70
TRACK 24 AUDIO
TITLE "Recitativo et Chor: Als Jesus nun, wie hart man ihn verklagte"
PERFORMER "Ludger Remy - Kammerorchester & Kammerchor Michaelstein"
INDEX 01 45:04:30
TRACK 25 AUDIO
TITLE "Aria: Erweg, ergrimmte Nattern-Bruth"
PERFORMER "Ludger Remy - Kammerorchester & Kammerchor Michaelstein"
INDEX 01 46:28:47
TRACK 26 AUDIO
TITLE "Chorale: Hertzliebster Jesu, was hast du verbrochen"
PERFORMER "Ludger Remy - Kammerorchester & Kammerchor Michaelstein"
INDEX 01 48:02:57

CUE CD2

REM GENRE Classical
REM DATE 1997
REM DISCID 1D121024
REM COMMENT "ExactAudioCopy v1.0b1"
PERFORMER "Ludger Remy - Kammerorchester & Kammerchor Michaelstein"
TITLE "Stolzel - Brockes Passion CD2"
FILE "Stolzel - Brockes Passion CD2.flac" WAVE
TRACK 01 AUDIO
TITLE "Pars III. Recitativo et Aria: Die Nacht war kaum vorbay"
PERFORMER "Ludger Remy - Kammerorchester & Kammerchor Michaelstein"
INDEX 01 00:00:00
TRACK 02 AUDIO
TITLE "Accompagnato: O was hab ich verfluchter Mensch getan"
PERFORMER "Ludger Remy - Kammerorchester & Kammerchor Michaelstein"
INDEX 01 03:52:70
TRACK 03 AUDIO
TITLE "Aria & Recitativo: Lass diese That nicht ungerochen"
PERFORMER "Ludger Remy - Kammerorchester & Kammerchor Michaelstein"
INDEX 01 04:40:15
TRACK 04 AUDIO
TITLE "Aria: Die ihr Gottes Gnad versaumet"
PERFORMER "Ludger Remy - Kammerorchester & Kammerchor Michaelstein"
INDEX 01 07:27:20
TRACK 05 AUDIO
TITLE "Recitativo & Coro: Wie nun Pilatus Jesum fragt"
PERFORMER "Ludger Remy - Kammerorchester & Kammerchor Michaelstein"
INDEX 01 09:05:70
TRACK 06 AUDIO
TITLE "Aria Senz'Oboi: Sprichst du denn auf diss Verklagen"
PERFORMER "Ludger Remy - Kammerorchester & Kammerchor Michaelstein"
INDEX 01 09:56:32
TRACK 07 AUDIO
TITLE "Recitativo & Coro: Pilatus wunderte sich sehr"
PERFORMER "Ludger Remy - Kammerorchester & Kammerchor Michaelstein"
INDEX 01 12:33:37
TRACK 08 AUDIO
TITLE "Accompagnato & Aria: Besinne dich, Pilatus"
PERFORMER "Ludger Remy - Kammerorchester & Kammerchor Michaelstein"
INDEX 01 14:07:00
TRACK 09 AUDIO
TITLE "Recitativo: Drauf zerreten die Kriegsknecht Ihn herein"
PERFORMER "Ludger Remy - Kammerorchester & Kammerchor Michaelstein"
INDEX 01 16:30:50
TRACK 10 AUDIO
TITLE "Arioso, Recitativo & Aria: Ich seh an einen Stein gebunden"
PERFORMER "Ludger Remy - Kammerorchester & Kammerchor Michaelstein"
INDEX 01 17:00:10
TRACK 11 AUDIO
TITLE "Recitativo: Wie nun das Blut mit Strohmen von ihm rann"
PERFORMER "Ludger Remy - Kammerorchester & Kammerchor Michaelstein"
INDEX 01 22:00:25
TRACK 12 AUDIO
TITLE "Aria & Recitativo: Die Rosen kronen sonst"
PERFORMER "Ludger Remy - Kammerorchester & Kammerchor Michaelstein"
INDEX 01 22:28:30
TRACK 13 AUDIO
TITLE "Aria & Recitativo: Lass doch diese herben Schmertzen"
PERFORMER "Ludger Remy - Kammerorchester & Kammerchor Michaelstein"
INDEX 01 26:23:52
TRACK 14 AUDIO
TITLE "Duetto: Jesu, dich mit unsern Seelen"
PERFORMER "Ludger Remy - Kammerorchester & Kammerchor Michaelstein"
INDEX 01 30:00:52
TRACK 15 AUDIO
TITLE "Recitativo & Coro: Drauf beugten sie aus Spott vor Ihm die Knie"
PERFORMER "Ludger Remy - Kammerorchester & Kammerchor Michaelstein"
INDEX 01 31:48:27
TRACK 16 AUDIO
TITLE "Aria: Schaumest du, du Schaum der Welt"
PERFORMER "Ludger Remy - Kammerorchester & Kammerchor Michaelstein"
INDEX 01 32:46:02
TRACK 17 AUDIO
TITLE "Recitativo, Aria & Recitativo: Worauf sie mit dem Rohr"
PERFORMER "Ludger Remy - Kammerorchester & Kammerchor Michaelstein"
INDEX 01 34:05:00
TRACK 18 AUDIO
TITLE "Aria con Coro & Chorale: Eilt, ihr angefochten Seelen"
PERFORMER "Ludger Remy - Kammerorchester & Kammerchor Michaelstein"
INDEX 01 40:27:05
TRACK 19 AUDIO
TITLE "Pars IV. Recitativo: Ach Gott! Mein Sohn wird fortgeschleppt"
PERFORMER "Ludger Remy - Kammerorchester & Kammerchor Michaelstein"
INDEX 01 42:16:30
TRACK 20 AUDIO
TITLE "Duetto: Soll mein Kind, mein Leben sterben"
PERFORMER "Ludger Remy - Kammerorchester & Kammerchor Michaelstein"
INDEX 01 43:47:32
TRACK 21 AUDIO
TITLE "Recitativo & Aria: Und er trug"
PERFORMER "Ludger Remy - Kammerorchester & Kammerchor Michaelstein"
INDEX 01 45:04:07
TRACK 22 AUDIO
TITLE "Recitativo, Aria & Recitativo: WIe sie nun an die Stadte"
PERFORMER "Ludger Remy - Kammerorchester & Kammerchor Michaelstein"
INDEX 01 48:18:35
TRACK 23 AUDIO
TITLE "Chorale: O Menschenkind, nur deine Sund"
PERFORMER "Ludger Remy - Kammerorchester & Kammerchor Michaelstein"
INDEX 01 51:29:47
TRACK 24 AUDIO
TITLE "Recitativo, Coro & Recitativo: Sobald er nun gecreuzigt war - Pfui, seht mir ..."
PERFORMER "Ludger Remy - Kammerorchester & Kammerchor Michaelstein"
INDEX 01 52:08:40
TRACK 25 AUDIO
TITLE "Aria: Was Wunder, dass der Sonnen Pracht"
PERFORMER "Ludger Remy - Kammerorchester & Kammerchor Michaelstein"
INDEX 01 53:36:27
TRACK 26 AUDIO
TITLE "Recitativo & Accompagnato: Diss war zur neundten Stund"
PERFORMER "Ludger Remy - Kammerorchester & Kammerchor Michaelstein"
INDEX 01 56:03:67
TRACK 27 AUDIO
TITLE "Arioso: Mein Heyland, Herr und Furst"
PERFORMER "Ludger Remy - Kammerorchester & Kammerchor Michaelstein"
INDEX 01 57:48:32
TRACK 28 AUDIO
TITLE "Recitativo: Drauf lief ein Krigsknecht"
PERFORMER "Ludger Remy - Kammerorchester & Kammerchor Michaelstein"
INDEX 01 59:00:05
TRACK 29 AUDIO
TITLE "Coro & Recitativo: O DOnnerwort, O seelig, wer diss glaubt"
PERFORMER "Ludger Remy - Kammerorchester & Kammerchor Michaelstein"
INDEX 01 59:43:00
TRACK 30 AUDIO
TITLE "Arioso & Recitativo: Sind meiner Seele tiefe Wunden"
PERFORMER "Ludger Remy - Kammerorchester & Kammerchor Michaelstein"
INDEX 01 62:55:02
TRACK 31 AUDIO
TITLE "Aria & Accompagnato: Brich, brullender Abgrund"
PERFORMER "Ludger Remy - Kammerorchester & Kammerchor Michaelstein"
INDEX 01 64:41:17
TRACK 32 AUDIO
TITLE "Aria: Wie kommt's, dass da der Himmel weint"
PERFORMER "Ludger Remy - Kammerorchester & Kammerchor Michaelstein"
INDEX 01 68:41:62
TRACK 33 AUDIO
TITLE "Coro a 5: Bey Jesu Todt und Leben leidet"
PERFORMER "Ludger Remy - Kammerorchester & Kammerchor Michaelstein"
INDEX 01 70:20:17
TRACK 34 AUDIO
TITLE "Chorale: Mein Sund mich werden krancken sehr"
PERFORMER "Ludger Remy - Kammerorchester & Kammerchor Michaelstein"
INDEX 01 72:44:20
TRACK 35 AUDIO
TITLE "Aria: Wisch ab der Thranen scharffe Lauge"
PERFORMER "Ludger Remy - Kammerorchester & Kammerchor Michaelstein"
INDEX 01 73:33:40
TRACK 36 AUDIO
TITLE "Chorale: Ich bin ein Glied an deinem Leib"
PERFORMER "Ludger Remy - Kammerorchester & Kammerchor Michaelstein"
INDEX 01 76:07:25
Доп. информация: Gottfried Heinrich Stölzel (13 January 1690 in Grünstädtel – 27 November 1749 in Gotha) was a prolific German baroque composer.
Stölzel grew up in Schwarzenberg, Saxony in the Erzgebirge. From 1707 he was a student of theology in Leipzig, and of Melchior Hofmann, the musical director of the Neukirche. He studied, worked and composed in Wrocław and Halle. Then an eighteen-month sojourn in Italy from 1713 — where he met Antonio Vivaldi in Venice — rendered him au courant with the latest musical taste. After working for three years in Prague, he became briefly court Kapellmeister in Bayreuth and Gera. Then in 1719 he married, and the next year took up an appointment in Gotha, where he worked until his death for the dukes Frederick II and Frederick III of Saxe-Gotha-Altenburg, composing a cantata each week.
mp3
[teatrix.ru].t18013.torrent 
Торрент: Зарегистрирован [ 2016-03-17 00:45 ] · 489DF3E05D984C926E249738DFBDAF210FF23D1C

Скачать .torrent

Скачать

13 KB

Статус: проверено
Скачан: 0 раз
Размер: 548 MB
terms.php



Быстрый ответ

Имя:

      
Для отправки сообщений необходимо включить JavaScript
Показать сообщения:    

Текущее время: 07-Дек 15:32

Часовой пояс: UTC + 3


Вы можете начинать темы
Вы можете отвечать на сообщения
Вы не можете редактировать свои сообщения
Вы не можете удалять свои сообщения
Вы не можете голосовать в опросах
Вы не можете прикреплять файлы к сообщениям
Вы можете скачивать файлы