(Vocal) Ruggero Raimondi Recital (Bizet, Berlioz, Mussorgsky,Mozart, Verdi, Massnet, Tosti) - 2008, FLAC (tracks+.cue), lossless


 

[Цитировать]

Ruggero RaimondiRecital- Жанр: Vocal
Год издания диска: 2008
Издатель (лейбл): Erato, Warner Classics & Jazz
Дата записи: 1982-1985
Аудиокодек: FLAC
Тип рипа: tracks+.cue
Битрейт аудио: lossless
Продолжительность: 54.24
Источник: собственный рип
Наличие сканов в содержимом раздачи: да (буклет на 3 языках, фотография РР 300 dpi)
Исполнители:
Ruggero Raimondi/ Руджеро Раймонди
con. Emil Tchakarov/ дир. Эмил Чакыров, Choer et Orchestre de The'atre National de L'Opera de Paris/ хор и оркестр Парижской Оперы (01-06)
con. Claudio Scimone/ дир. Клаудио Шимоне, I solisti Veneti/ оркестр "Солисты Венеции"(07-09)

Треклист

1. Bizet – Carmen – Couplet d’Escamillo (Air du Toreador) - 4.57
2. Berlioz – La Damnation de Faust – Sérénade de Méphistophéles - 2.35
3. Mussorgsky – Boris Godounov – Mort de Boris Godounov - 12.15
4. Mozart – Don Giovanni – Aria “Fin ch’han dal vino” - 1.22
5. Verdi – Otello – Aria di Jago (Credo) 5.06
6. Massenet – Don Quichotte – Mort de Don Quichotte - 14.12
7. Tosti – Non T’Amo Più - 4.40
8. Tosti – La Mia Canzone - 3.08
9. Tosti - Ancora -5.23

CUE

REM GENRE Opera
REM DATE 2008
REM DISCID 750CBE09
REM COMMENT "ExactAudioCopy v1.0b3"
PERFORMER "Ruggero Raimondi"
TITLE "Ruggero Raimondi Recital"
FILE "01 Toreador's Song.wav" WAVE
TRACK 01 AUDIO
TITLE "Toreador's Song"
PERFORMER "Ruggero Raimondi"
INDEX 01 00:00:00
TRACK 02 AUDIO
TITLE "Mephistopheles' Serenade"
PERFORMER "Ruggero Raimondi"
INDEX 00 04:57:13
FILE "02 Mephistopheles' Serenade.wav" WAVE
INDEX 01 00:00:00
TRACK 03 AUDIO
TITLE "Death of Boris"
PERFORMER "Ruggero Raimondi"
INDEX 00 02:34:52
FILE "03 Death of Boris.wav" WAVE
INDEX 01 00:00:00
TRACK 04 AUDIO
TITLE "Fin ch'han del vino"
PERFORMER "Ruggero Raimondi"
INDEX 00 12:14:55
FILE "04 Fin ch'han del vino.wav" WAVE
INDEX 01 00:00:00
TRACK 05 AUDIO
TITLE "Credo"
PERFORMER "Ruggero Raimondi"
INDEX 00 01:22:13
FILE "05 Credo.wav" WAVE
INDEX 01 00:00:00
TRACK 06 AUDIO
TITLE "Death of Don Quichotte"
PERFORMER "Ruggero Raimondi"
INDEX 00 05:05:42
FILE "06 Death of Don Quichotte.wav" WAVE
INDEX 01 00:00:00
TRACK 07 AUDIO
TITLE "Not t'amo piu!"
PERFORMER "Ruggero Raimondi"
INDEX 00 14:11:62
FILE "07 Not t'amo piu!.wav" WAVE
INDEX 01 00:00:00
TRACK 08 AUDIO
TITLE "La mia canzone!"
PERFORMER "Ruggero Raimondi"
INDEX 00 04:39:60
FILE "08 La mia canzone!.wav" WAVE
INDEX 01 00:00:00
TRACK 09 AUDIO
TITLE "Ancora!"
PERFORMER "Ruggero Raimondi"
INDEX 00 03:07:30
FILE "09 Ancora!.wav" WAVE
INDEX 01 00:00:00

Лог создания рипа

Exact Audio Copy V1.0 beta 3 from 29. August 2011
Отчёт EAC об извлечении, выполненном 28. декабря 2013, 17:31
Ruggero Raimondi / Ruggero Raimondi Recital
Дисковод: MATSHITADVD-RAM UJ8A0AS Adapter: 0 ID: 1
Режим чтения : Достоверность
Использование точного потока : Да
Отключение кэша аудио : Да
Использование указателей C2 : Нет
Коррекция смещения при чтении : 102
Способность читать области Lead-in и Lead-out : Нет
Заполнение пропущенных сэмплов тишиной : Да
Удаление блоков с тишиной в начале и конце : Нет
При вычислениях CRC использовались нулевые сэмплы : Да
Интерфейс : Установленный внешний ASPI-интерфейс
Обработка зазоров : Добавлено к предыдущему треку
Выходной формат : Пользовательский кодировщик
Выбранный битрейт : 128 kBit/s
Качество : Высокий
Добавление ID3-тега : Да
Утилита сжатия : C:\Program Files (x86)\Exact Audio Copy\Flac\flac.exe
Дополнительные параметры : -V -8 %source%
TOC извлечённого CD
Трек | Старт | Длительность | Начальный сектор | Конечный сектор
---------------------------------------------------------------------
1 | 0:00.00 | 5:01.43 | 0 | 22617
2 | 5:01.43 | 2:41.62 | 22618 | 34754
3 | 7:43.30 | 12:20.70 | 34755 | 90324
4 | 20:04.25 | 1:28.03 | 90325 | 96927
5 | 21:32.28 | 5:13.35 | 96928 | 120437
6 | 26:45.63 | 14:17.22 | 120438 | 184734
7 | 41:03.10 | 4:44.50 | 184735 | 206084
8 | 45:47.60 | 3:11.20 | 206085 | 220429
9 | 48:59.05 | 5:22.70 | 220430 | 244649
Трек 1
Имя файла C:\Users\Acer\Desktop\Ruggero Raimondi Recital (2008)\01 Track01.wav
Длина предзазора 0:00:02.00
Пиковый уровень 83.9 %
Скорость извлечения 1.2 X
Качество трека 100.0 %
CRC теста 04AE4D31
CRC копии 04AE4D31
Точное извлечение (достоверность 1) [1A16FD4B] (AR v1)
Копирование... OK
Трек 2
Имя файла C:\Users\Acer\Desktop\Ruggero Raimondi Recital (2008)\02 Track02.wav
Длина предзазора 0:00:04.30
Пиковый уровень 68.1 %
Скорость извлечения 1.2 X
Качество трека 100.0 %
CRC теста 074AD420
CRC копии 074AD420
Точное извлечение (достоверность 1) [368F9E5D] (AR v1)
Копирование... OK
Трек 3
Имя файла C:\Users\Acer\Desktop\Ruggero Raimondi Recital (2008)\03 Track03.wav
Длина предзазора 0:00:07.10
Пиковый уровень 95.1 %
Скорость извлечения 1.6 X
Качество трека 100.0 %
CRC теста 50ADB84D
CRC копии 50ADB84D
Точное извлечение (достоверность 1) [692F867D] (AR v1)
Копирование... OK
Трек 4
Имя файла C:\Users\Acer\Desktop\Ruggero Raimondi Recital (2008)\04 Track04.wav
Длина предзазора 0:00:06.15
Пиковый уровень 80.7 %
Скорость извлечения 1.3 X
Качество трека 100.0 %
CRC теста C5D3EB02
CRC копии C5D3EB02
Точное извлечение (достоверность 1) [8F0B6631] (AR v1)
Копирование... OK
Трек 5
Имя файла C:\Users\Acer\Desktop\Ruggero Raimondi Recital (2008)\05 Track05.wav
Длина предзазора 0:00:05.65
Пиковый уровень 72.5 %
Скорость извлечения 1.8 X
Качество трека 100.0 %
CRC теста 2818F305
CRC копии 2818F305
Точное извлечение (достоверность 1) [21406513] (AR v1)
Копирование... OK
Трек 6
Имя файла C:\Users\Acer\Desktop\Ruggero Raimondi Recital (2008)\06 Track06.wav
Длина предзазора 0:00:07.68
Пиковый уровень 95.0 %
Скорость извлечения 2.1 X
Качество трека 100.0 %
CRC теста 2CC19E0D
CRC копии 2CC19E0D
Точное извлечение (достоверность 1) [8FE7919E] (AR v1)
Копирование... OK
Трек 7
Имя файла C:\Users\Acer\Desktop\Ruggero Raimondi Recital (2008)\07 Track07.wav
Длина предзазора 0:00:05.35
Пиковый уровень 59.1 %
Скорость извлечения 2.1 X
Качество трека 100.0 %
CRC теста FCC6F0C4
CRC копии FCC6F0C4
Точное извлечение (достоверность 1) [017EA93F] (AR v1)
Копирование... OK
Трек 8
Имя файла C:\Users\Acer\Desktop\Ruggero Raimondi Recital (2008)\08 Track08.wav
Длина предзазора 0:00:04.65
Пиковый уровень 45.4 %
Скорость извлечения 2.1 X
Качество трека 100.0 %
CRC теста 33A7ED2A
CRC копии 33A7ED2A
Точное извлечение (достоверность 1) [58CF02F3] (AR v1)
Копирование... OK
Трек 9
Имя файла C:\Users\Acer\Desktop\Ruggero Raimondi Recital (2008)\09 Track09.wav
Длина предзазора 0:00:03.65
Пиковый уровень 51.6 %
Скорость извлечения 2.3 X
Качество трека 100.0 %
CRC теста D537D5DB
CRC копии D537D5DB
Точное извлечение (достоверность 1) [FC355CE0] (AR v1)
Копирование... OK
Все треки извлечены точно
Ошибок не произошло
Конец отчёта



Показать сообщения:    

Текущее время: 10-Дек 00:22

Часовой пояс: UTC + 3


Вы не можете начинать темы
Вы не можете отвечать на сообщения
Вы не можете редактировать свои сообщения
Вы не можете удалять свои сообщения
Вы не можете голосовать в опросах
Вы не можете прикреплять файлы к сообщениям
Вы не можете скачивать файлы