(Classical / Piano / Violin / Cello / Concerto) Ludwig van Beethoven - Klavierkonzerte • Tripelkonzert (Leon Fleisher, George Szell, Isaac Stern, Leonard Rose, Eugene Istomin, Eugene Ormandy, 1959–1964) - 1992 [3 CD], FLAC (tracks+.cue) lossless


Статистика раздачи [Обновить пиров]
Размер:  945 MB   |    Зарегистрирован:  8 месяцев 17 дней   |    Скачан:  0 раз

Полного источника не было: Никогда

 
   
 
 
 

[Цитировать]

Ludwig van Beethoven | Людвиг ван Бетховен
(1770–1827)



Konzerte für Klavier und Orchester
Концерты для фортепиано с оркестром


Leon Fleisher pianoCleveland OrchestraGeorge Szell conductor


Tripelkonzert für Klavier, Violine, Violoncello und Orchester
Тройной концерт для фортепиано, скрипки и виолончели с оркестром


Eugene Istomin pianoIsaac Stern violinLeonard Rose cello
Philadelphia OrchestraEugene Ormandy conductor


Жанр: Classical / Piano / Violin / Cello / Concerto
Даты записи: 1959, 1961, 1964
Формат записи: ADD, Stereo
Год издания диска: 1992
Издатель (лейбл): Sony
Номер по каталогу: SB3K 48397
Аудиокодек: FLAC
Тип рипа: tracks+.cue
Битрейт аудио: lossless
Продолжительность: 3:24:59
Наличие сканов в содержимом раздачи: да
Источник: What.CD
Релизёр: jdtalent

-Tracklist / ТреклистCD 1: Klavierkonzerte Nrn 1 und 3
Klavierkonzert Nr. 1 C-dur, Op. 15 - 37:35
I. Allegro con brio - 16:35
  • II. Largo - 12:19
  • III. Rondo: Allegro scherzando - 8:41
    Recorded: Severance Hall, Cleveland, 25.II.1961
    Klavierkonzert Nr. 3 c-moll, Op. 37 - 33:49
    I. Allegro con brio - 15:30
  • II. Largo - 9:46
  • III. Rondo: Allegro - 8:34
    Recorded: Severance Hall, Cleveland, 14.IV.1961
    CD 2: Klavierkonzerte Nrn 2 und 4
    Klavierkonzert Nr. 2 B-dur, Op. 19 - 27:44
    I. Allegro con brio - 12:59
  • II. Adagio - 9:01
  • III. Rondo: Molto allegro - 5:44
    Recorded: Severance Hall, Cleveland, 16.IV.1961
    Klavierkonzert Nr. 4 G-dur, Op. 58 - 32:12
    I. Allegro moderato - 18:02
  • II. Andante con moto - 5:07
  • III. Rondo: Vivace - 9:03
    Recorded: Severance Hall, Cleveland, 10.I.1959
    CD 3: Klavierkonzert Nr. 5 • Tripelkonzert
    Klavierkonzert Nr. 5 Es-dur, Op. 73 - 37:35
    I. Allegro - 19:25
  • II. Adagio un poco mosso - 8:25
  • III. Rondo: Allegro - 9:45
    Recorded: Severance Hall, Cleveland, 3 & 4.III.1961
    Tripelkonzert für Violine, Violoncello, Klavier und Orchester C-dur, Op. 56 - 36:03
    I. Allegro - 18:23
  • II. Largo - 4:39
  • III. Rondo alla Polacca - 13:01
    Recorded: Town Hall, Philadelphia, 16.IV.1964-

    XLD logs / Отчёты XLDCD 1: Klavierkonzerte Nrn 1 und 3

    X Lossless Decoder version 20130720 (144.0)
    XLD extraction logfile from 2013-10-18 14:26:34 -0500
    Leon Fleisher, George Szel, Cleveland Orchestra / Beethoven The 5 Piano Concertos, Triple [Disc 1]
    Used drive : MATSHITA DVD-R UJ-8A8 (revision HB14)
    Media type : Pressed CD
    Ripper mode : XLD Secure Ripper
    Disable audio cache : OK for the drive with a cache less than 1375KiB
    Make use of C2 pointers : NO
    Read offset correction : 102
    Max retry count : 100
    Gap status : Analyzed, Appended
    TOC of the extracted CD
    Track | Start | Length | Start sector | End sector
    ---------------------------------------------------------
    1 | 00:00:00 | 16:35:25 | 0 | 74649
    2 | 16:35:25 | 12:19:00 | 74650 | 130074
    3 | 28:54:25 | 08:40:62 | 130075 | 169136
    4 | 37:35:12 | 15:29:58 | 169137 | 238869
    5 | 53:04:70 | 09:45:65 | 238870 | 282809
    6 | 62:50:60 | 08:33:40 | 282810 | 321324
    AccurateRip Summary (DiscID: 00129163-0060fe4f-6110bc06)
    Track 01 : OK (v1+v2, confidence 20/20)
    Track 02 : OK (v1+v2, confidence 21/21)
    Track 03 : OK (v1+v2, confidence 21/21)
    Track 04 : OK (v1+v2, confidence 21/21)
    Track 05 : OK (v1+v2, confidence 21/21)
    Track 06 : OK (v1+v2, confidence 21/21)
    ->All tracks accurately ripped.
    All Tracks
    Album gain : 1.28 dB
    Peak : 0.993286
    Statistics
    Read error : 0
    Jitter error (maybe fixed) : 0
    Retry sector count : 0
    Damaged sector count : 0
    Track 01
    Filename : /Beethoven Piano Concertos, Triple - Fleisher/01 Piano Concerto #1 In C, Op. 15 - Allegro Con Brio.flac
    Pre-gap length : 00:02:00
    Track gain : 0.67 dB
    Peak : 0.827118
    CRC32 hash (test run) : 04210325
    CRC32 hash : 04210325
    CRC32 hash (skip zero) : 5AB3CF74
    AccurateRip v1 signature : BD2B2099
    AccurateRip v2 signature : ADAB492E
    ->Accurately ripped (v1+v2, confidence 12+8/20)
    Statistics
    Read error : 0
    Jitter error (maybe fixed) : 0
    Retry sector count : 0
    Damaged sector count : 0
    Track 02
    Filename : /Beethoven Piano Concertos, Triple - Fleisher/02 Piano Concerto #1 In C, Op. 15 - Largo.flac
    Pre-gap length : 00:05:73
    Track gain : 5.50 dB
    Peak : 0.522858
    CRC32 hash (test run) : 1F8A4C8A
    CRC32 hash : 1F8A4C8A
    CRC32 hash (skip zero) : F670FDED
    AccurateRip v1 signature : 6E8CDB62
    AccurateRip v2 signature : 679BC85B
    ->Accurately ripped (v1+v2, confidence 12+9/21)
    Statistics
    Read error : 0
    Jitter error (maybe fixed) : 0
    Retry sector count : 0
    Damaged sector count : 0
    Track 03
    Filename : /Beethoven Piano Concertos, Triple - Fleisher/03 Piano Concerto #1 In C, Op. 15 - Allegro Scherzando.flac
    Pre-gap length : 00:03:43
    Track gain : -0.02 dB
    Peak : 0.849670
    CRC32 hash (test run) : 56224BE5
    CRC32 hash : 56224BE5
    CRC32 hash (skip zero) : C99A95A2
    AccurateRip v1 signature : A0F7B624
    AccurateRip v2 signature : 536B3100
    ->Accurately ripped (v1+v2, confidence 12+9/21)
    Statistics
    Read error : 0
    Jitter error (maybe fixed) : 0
    Retry sector count : 0
    Damaged sector count : 0
    Track 04
    Filename : /Beethoven Piano Concertos, Triple - Fleisher/04 Piano Concerto #3 In C Minor, Op. 37 - Allegro Con Brio.flac
    Pre-gap length : 00:04:62
    Track gain : 0.65 dB
    Peak : 0.993286
    CRC32 hash (test run) : 42E78632
    CRC32 hash : 42E78632
    CRC32 hash (skip zero) : E03AC43E
    AccurateRip v1 signature : 1175B07C
    AccurateRip v2 signature : E7680C1B
    ->Accurately ripped (v1+v2, confidence 12+9/21)
    Statistics
    Read error : 0
    Jitter error (maybe fixed) : 0
    Retry sector count : 0
    Damaged sector count : 0
    Track 05
    Filename : /Beethoven Piano Concertos, Triple - Fleisher/05 Piano Concerto #3 In C Minor, Op. 37 - Largo.flac
    Pre-gap length : 00:08:28
    Track gain : 4.07 dB
    Peak : 0.630585
    CRC32 hash (test run) : 8BEB6AA1
    CRC32 hash : 8BEB6AA1
    CRC32 hash (skip zero) : C564A5D8
    AccurateRip v1 signature : 06A515F0
    AccurateRip v2 signature : FA4C6D6D
    ->Accurately ripped (v1+v2, confidence 12+9/21)
    Statistics
    Read error : 0
    Jitter error (maybe fixed) : 0
    Retry sector count : 0
    Damaged sector count : 0
    Track 06
    Filename : /Beethoven Piano Concertos, Triple - Fleisher/06 Piano Concerto #3 In C Minor, Op. 37 - Allegro.flac
    Pre-gap length : 00:00:40
    Track gain : 0.33 dB
    Peak : 0.846130
    CRC32 hash (test run) : 29FD96B0
    CRC32 hash : 29FD96B0
    CRC32 hash (skip zero) : 2B15C748
    AccurateRip v1 signature : 8ACCD8E7
    AccurateRip v2 signature : DE695BFC
    ->Accurately ripped (v1+v2, confidence 12+9/21)
    Statistics
    Read error : 0
    Jitter error (maybe fixed) : 0
    Retry sector count : 0
    Damaged sector count : 0
    No errors occurred
    End of status report
    -----BEGIN XLD SIGNATURE-----
    hafSTKAowm41cmRy9nI_21lg.4npF0Oufy7dfxe8WjEC1wPRYua7AXYH7FUt02qy6wU1x6CKfkziblSoRV0G6_G1neB3n_AgYEj8htW
    -----END XLD SIGNATURE-----

    CD 2: Klavierkonzerte Nrn 2 und 4

    X Lossless Decoder version 20130720 (144.0)
    XLD extraction logfile from 2013-10-18 15:06:59 -0500
    Leon Fleisher, George Szell, Cleveland Orchestra / Beethoven The Piano Concertos, Triple [Disc 2]
    Used drive : MATSHITA DVD-R UJ-8A8 (revision HB14)
    Media type : Pressed CD
    Ripper mode : XLD Secure Ripper
    Disable audio cache : OK for the drive with a cache less than 1375KiB
    Make use of C2 pointers : NO
    Read offset correction : 102
    Max retry count : 100
    Gap status : Analyzed, Appended
    TOC of the extracted CD
    Track | Start | Length | Start sector | End sector
    ---------------------------------------------------------
    1 | 00:00:00 | 12:59:15 | 0 | 58439
    2 | 12:59:15 | 09:00:72 | 58440 | 99011
    3 | 22:00:12 | 05:43:73 | 99012 | 124809
    4 | 27:44:10 | 18:02:00 | 124810 | 205959
    5 | 45:46:10 | 05:07:37 | 205960 | 229021
    6 | 50:53:47 | 09:02:73 | 229022 | 269744
    List of alternate offset correction values
    # | Absolute | Relative | Confidence
    ------------------------------------------
    1 | -846 | -948 | 19
    2 | -844 | -946 | 2
    AccurateRip Summary (DiscID: 000f0f6d-004f6d38-4f0e0c06)
    Track 01 : OK (v1+v2, confidence 16/35)
    Track 02 : OK (v1+v2, confidence 16/36)
    Track 03 : OK (v1+v2, confidence 16/37)
    Track 04 : OK (v1+v2, confidence 15/35)
    Track 05 : OK (v1+v2, confidence 15/36)
    Track 06 : OK (v1+v2, confidence 15/35)
    ->All tracks accurately ripped.
    All Tracks
    Album gain : -2.37 dB
    Peak : 0.977234
    Statistics
    Read error : 0
    Jitter error (maybe fixed) : 0
    Retry sector count : 0
    Damaged sector count : 0
    Track 01
    Filename : /Beethoven Piano Concertos, Triple - Fleisher/01 Piano Concerto #2 In B Flat, Op. 19 - 1. Allegro Con Brio.flac
    Pre-gap length : 00:02:00
    Track gain : -2.00 dB
    Peak : 0.971527
    CRC32 hash (test run) : 848178E3
    CRC32 hash : 848178E3
    CRC32 hash (skip zero) : 7EED66A3
    AccurateRip v1 signature : D384310D
    AccurateRip v2 signature : 51C269D8
    ->Accurately ripped (v1+v2, confidence 9+7/35)
    Statistics
    Read error : 0
    Jitter error (maybe fixed) : 0
    Retry sector count : 0
    Damaged sector count : 0
    Track 02
    Filename : /Beethoven Piano Concertos, Triple - Fleisher/02 Piano Concerto #2 In B Flat, Op. 19 - 2. Adagio.flac
    Pre-gap length : 00:03:63
    Track gain : -2.22 dB
    Peak : 0.947937
    CRC32 hash (test run) : E25D53D9
    CRC32 hash : E25D53D9
    CRC32 hash (skip zero) : 054DA108
    AccurateRip v1 signature : 438FDEF7
    AccurateRip v2 signature : DD1C38E5
    ->Accurately ripped (v1+v2, confidence 9+7/36)
    Statistics
    Read error : 0
    Jitter error (maybe fixed) : 0
    Retry sector count : 0
    Damaged sector count : 0
    Track 03
    Filename : /Beethoven Piano Concertos, Triple - Fleisher/03 Piano Concerto #2 In B Flat, Op. 19 - 3. Rondo- Molto Allegro.flac
    Pre-gap length : 00:02:60
    Track gain : -2.25 dB
    Peak : 0.965179
    CRC32 hash (test run) : 4070FA59
    CRC32 hash : 4070FA59
    CRC32 hash (skip zero) : 56FBCA19
    AccurateRip v1 signature : AE3AFE52
    AccurateRip v2 signature : 163C0971
    ->Accurately ripped (v1+v2, confidence 9+7/37)
    Statistics
    Read error : 0
    Jitter error (maybe fixed) : 0
    Retry sector count : 0
    Damaged sector count : 0
    Track 04
    Filename : /Beethoven Piano Concertos, Triple - Fleisher/04 Piano Concerto #4 In G, Op. 58 - 1. Allegro Moderato.flac
    Pre-gap length : 00:07:58
    Track gain : -3.11 dB
    Peak : 0.977234
    CRC32 hash (test run) : 989262E8
    CRC32 hash : 989262E8
    CRC32 hash (skip zero) : 942CBE1C
    AccurateRip v1 signature : DC611086
    AccurateRip v2 signature : 2AB8FD18
    ->Accurately ripped (v1+v2, confidence 9+6/35)
    Statistics
    Read error : 0
    Jitter error (maybe fixed) : 0
    Retry sector count : 0
    Damaged sector count : 0
    Track 05
    Filename : /Beethoven Piano Concertos, Triple - Fleisher/05 Piano Concerto #4 In G, Op. 58 - 2. Andante Con Moto.flac
    Pre-gap length : 00:02:55
    Track gain : -0.69 dB
    Peak : 0.944122
    CRC32 hash (test run) : EE7EBF69
    CRC32 hash : EE7EBF69
    CRC32 hash (skip zero) : ED99907F
    AccurateRip v1 signature : 48E7B5D3
    AccurateRip v2 signature : 03A64C39
    ->Accurately ripped (v1+v2, confidence 9+6/36)
    Statistics
    Read error : 0
    Jitter error (maybe fixed) : 0
    Retry sector count : 0
    Damaged sector count : 0
    Track 06
    Filename : /Beethoven Piano Concertos, Triple - Fleisher/06 Piano Concerto #4 In G, Op. 58 - 3. Rondo- Vivace.flac
    Track gain : -2.26 dB
    Peak : 0.977203
    CRC32 hash (test run) : 07EDA584
    CRC32 hash : 07EDA584
    CRC32 hash (skip zero) : 949F1915
    AccurateRip v1 signature : 8CD004B0
    AccurateRip v2 signature : 274FDB73
    ->Accurately ripped (v1+v2, confidence 9+6/35)
    Statistics
    Read error : 0
    Jitter error (maybe fixed) : 0
    Retry sector count : 0
    Damaged sector count : 0
    No errors occurred
    End of status report
    -----BEGIN XLD SIGNATURE-----
    WfsXfLb0Zi_lLKlbIr_8SzBWydulu_xJeEIRtxHgQ8iStlOAhA8cZUqpSEb6XqVfCpP9X7mopSbqI9TDVBgiVVQOVqcsLNTD6Co7hoG
    -----END XLD SIGNATURE-----

    CD 3: Klavierkonzert Nr. 5 • Tripelkonzert

    X Lossless Decoder version 20130720 (144.0)
    XLD extraction logfile from 2013-10-18 15:41:06 -0500
    Various Artists / Beethoven The Piano Concertos, Triple [Disc 3]
    Used drive : MATSHITA DVD-R UJ-8A8 (revision HB14)
    Media type : Pressed CD
    Ripper mode : XLD Secure Ripper
    Disable audio cache : OK for the drive with a cache less than 1375KiB
    Make use of C2 pointers : NO
    Read offset correction : 102
    Max retry count : 100
    Gap status : Analyzed, Appended
    TOC of the extracted CD
    Track | Start | Length | Start sector | End sector
    ---------------------------------------------------------
    1 | 00:00:00 | 19:25:12 | 0 | 87386
    2 | 19:25:12 | 08:25:18 | 87387 | 125279
    3 | 27:50:30 | 09:44:57 | 125280 | 169136
    4 | 37:35:12 | 18:23:00 | 169137 | 251861
    5 | 55:58:12 | 04:39:23 | 251862 | 272809
    6 | 60:37:35 | 13:00:42 | 272810 | 331351
    List of alternate offset correction values
    # | Absolute | Relative | Confidence
    ------------------------------------------
    1 | -562 | -664 | 12
    AccurateRip Summary (DiscID: 0012e344-00624f2d-52114206)
    Track 01 : OK (v1+v2, confidence 27/39)
    Track 02 : OK (v1+v2, confidence 27/39)
    Track 03 : OK (v1+v2, confidence 28/40)
    Track 04 : OK (v1+v2, confidence 27/39)
    Track 05 : OK (v1+v2, confidence 27/39)
    Track 06 : OK (v1+v2, confidence 26/36)
    ->All tracks accurately ripped.
    All Tracks
    Album gain : -0.34 dB
    Peak : 0.994537
    Statistics
    Read error : 0
    Jitter error (maybe fixed) : 0
    Retry sector count : 0
    Damaged sector count : 0
    Track 01
    Filename : /Beethoven Piano Concertos, Triple - Fleisher/01 Piano Concerto #5 In E Flat, Op. 73, "Emperor" - 1. Allegro.flac
    Pre-gap length : 00:02:00
    Track gain : -0.87 dB
    Peak : 0.899719
    CRC32 hash (test run) : 9D5C9404
    CRC32 hash : 9D5C9404
    CRC32 hash (skip zero) : E6893C85
    AccurateRip v1 signature : C84BE1A6
    AccurateRip v2 signature : 7B84FD2C
    ->Accurately ripped (v1+v2, confidence 15+12/39)
    Statistics
    Read error : 0
    Jitter error (maybe fixed) : 0
    Retry sector count : 0
    Damaged sector count : 0
    Track 02
    Filename : /Beethoven Piano Concertos, Triple - Fleisher/02 Piano Concerto #5 In E Flat, Op. 73, "Emperor" - 2. Adagio Un Poco Mosso.flac
    Pre-gap length : 00:02:62
    Track gain : 5.57 dB
    Peak : 0.437286
    CRC32 hash (test run) : 1AC1A606
    CRC32 hash : 1AC1A606
    CRC32 hash (skip zero) : 745F9DB7
    AccurateRip v1 signature : DD331F3E
    AccurateRip v2 signature : 37C6A2F7
    ->Accurately ripped (v1+v2, confidence 15+12/39)
    Statistics
    Read error : 0
    Jitter error (maybe fixed) : 0
    Retry sector count : 0
    Damaged sector count : 0
    Track 03
    Filename : /Beethoven Piano Concertos, Triple - Fleisher/03 Piano Concerto #5 In E Flat, Op. 73, "Emperor" - 3. Rondo- Allegro.flac
    Track gain : -0.21 dB
    Peak : 0.791748
    CRC32 hash (test run) : 79AF0E52
    CRC32 hash : 79AF0E52
    CRC32 hash (skip zero) : EDE9386B
    AccurateRip v1 signature : C586EADF
    AccurateRip v2 signature : 1BCA8268
    ->Accurately ripped (v1+v2, confidence 16+12/40)
    Statistics
    Read error : 0
    Jitter error (maybe fixed) : 0
    Retry sector count : 0
    Damaged sector count : 0
    Track 04
    Filename : /Beethoven Piano Concertos, Triple - Fleisher/04 Concerto In C For Piano, Violin & Cello, Op. 56, "Triple" - 1. Allegro.flac
    Pre-gap length : 00:07:02
    Track gain : -0.42 dB
    Peak : 0.975525
    CRC32 hash (test run) : 4EEC4CFF
    CRC32 hash : 4EEC4CFF
    CRC32 hash (skip zero) : 87C2C59B
    AccurateRip v1 signature : 75095477
    AccurateRip v2 signature : D34C32B5
    ->Accurately ripped (v1+v2, confidence 16+11/39)
    Statistics
    Read error : 0
    Jitter error (maybe fixed) : 0
    Retry sector count : 0
    Damaged sector count : 0
    Track 05
    Filename : /Beethoven Piano Concertos, Triple - Fleisher/05 Concerto In C For Piano, Violin & Cello, Op. 56, "Triple" - 2. Largo.flac
    Pre-gap length : 00:02:72
    Track gain : 5.75 dB
    Peak : 0.362762
    CRC32 hash (test run) : E851ABDF
    CRC32 hash : E851ABDF
    CRC32 hash (skip zero) : 90E9B49F
    AccurateRip v1 signature : FF24D182
    AccurateRip v2 signature : A42F761E
    ->Accurately ripped (v1+v2, confidence 16+11/39)
    Statistics
    Read error : 0
    Jitter error (maybe fixed) : 0
    Retry sector count : 0
    Damaged sector count : 0
    Track 06
    Filename : /Beethoven Piano Concertos, Triple - Fleisher/06 Concerto In C For Piano, Violin & Cello, Op. 56, "Triple" - 3. Rondo Alla Polacca.flac
    Track gain : -0.90 dB
    Peak : 0.994537
    CRC32 hash (test run) : 08E2BE9F
    CRC32 hash : 08E2BE9F
    CRC32 hash (skip zero) : 5B9C2304
    AccurateRip v1 signature : 10763FD2
    AccurateRip v2 signature : 4B0EF82E
    ->Accurately ripped (v1+v2, confidence 16+10/36)
    Statistics
    Read error : 0
    Jitter error (maybe fixed) : 0
    Retry sector count : 0
    Damaged sector count : 0
    No errors occurred
    End of status report
    -----BEGIN XLD SIGNATURE-----
    cOPvwjzOMVff_TrJQWEF1NYeyublJ6M1suIrqxPWpv8wfe_ePXA7AWpSAjC_M25HHUG9pZCrfKcuVC8fL1hMFmDCjJXu_xu_7264Xom
    -----END XLD SIGNATURE-----

    auCDtect Task Manager logs / Отчёты auCDtect Task ManagerCD 1: Klavierkonzerte Nrn 1 und 3

    -----------------------
    DON'T MODIFY THIS FILE
    -----------------------
    PERFORMER: auCDtect Task Manager, ver. 1.5.1RC3 build 1.5.1.4
    Copyright (c) 2008-2010 y-soft. All rights reserved
    ANALYZER: auCDtect: CD records authenticity detector, version 0.8.2
    Copyright (c) 2004 Oleg Berngardt. All rights reserved.
    Copyright (c) 2004 Alexander Djourik. All rights reserved.
    FILE: 06 - Klavierkonzert Nr. 3 c-moll, Op. 37 - III. Rondo. Allegro.flac
    Size: 41236529 Hash: 4AB6C762BD78CF03A24C8765792907C9 Accuracy: -m0
    Conclusion: CDDA 100%
    Signature: FF8C5B1EEACF7D5C77D59D37FDADBD62E796E5D7
    FILE: 05 - Klavierkonzert Nr. 3 c-moll, Op. 37 - II. Largo.flac
    Size: 43736054 Hash: A64D2B85CB21F9DB58D40DA529659C37 Accuracy: -m0
    Conclusion: CDDA 100%
    Signature: B3A3A1C96A12DE3E416D6CD005D46043625C3110
    FILE: 04 - Klavierkonzert Nr. 3 c-moll, Op. 37 - I. Allegro con brio.flac
    Size: 75772503 Hash: D8EFE98CDF5716AAEC16006B780C218F Accuracy: -m0
    Conclusion: CDDA 100%
    Signature: 4E2724A98BBF1190C73B2032365EE12044776649
    FILE: 03 - Klavierkonzert Nr. 1 C-dur, Op. 15 - III. Rondo. Allegro scherzando.flac
    Size: 41550839 Hash: 749F3DB6A6B72FB9F2DDB2FA3BAF60D4 Accuracy: -m0
    Conclusion: CDDA 100%
    Signature: 57F7200614862D47C3DD7ADC1C46A3D446382999
    FILE: 02 - Klavierkonzert Nr. 1 C-dur, Op. 15 - II. Largo.flac
    Size: 54761228 Hash: F12799431573327EAD4AF562EF71D82D Accuracy: -m0
    Conclusion: CDDA 100%
    Signature: 5A5EAAE8D69770B32EBA118174E528DA0DC3ABE8
    FILE: 01 - Klavierkonzert Nr. 1 C-dur, Op. 15 - I. Allegro con brio.flac
    Size: 78824666 Hash: 66F21CDE889608153811357A0798D828 Accuracy: -m0
    Conclusion: CDDA 100%
    Signature: B65BB89E68D828A8EBC3EBD8980127337B250ADF

    CD 2: Klavierkonzerte Nrn 2 und 4

    -----------------------
    DON'T MODIFY THIS FILE
    -----------------------
    PERFORMER: auCDtect Task Manager, ver. 1.5.1RC3 build 1.5.1.4
    Copyright (c) 2008-2010 y-soft. All rights reserved
    ANALYZER: auCDtect: CD records authenticity detector, version 0.8.2
    Copyright (c) 2004 Oleg Berngardt. All rights reserved.
    Copyright (c) 2004 Alexander Djourik. All rights reserved.
    FILE: 06 - Klavierkonzert Nr. 4 G-dur, Op. 58 - III. Rondo. Vivace.flac
    Size: 44364167 Hash: 7CE72912090C62F0BC1FA81CCDF7BF89 Accuracy: -m0
    Conclusion: CDDA 100%
    Signature: FCA81C7AADBB4E1ACA15F831BBB4BF6F666C3A04
    FILE: 05 - Klavierkonzert Nr. 4 G-dur, Op. 58 - II. Andante con moto.flac
    Size: 21050714 Hash: 07918E5A0C77E3155373EECBFE1363B7 Accuracy: -m0
    Conclusion: CDDA 100%
    Signature: 9559CE665A56AF656B073B06357536687C16CFA0
    FILE: 04 - Klavierkonzert Nr. 4 G-dur, Op. 58 - I. Allegro moderato.flac
    Size: 87044585 Hash: 6E6C271C2381EA3796EAC8A5AC88F702 Accuracy: -m0
    Conclusion: CDDA 100%
    Signature: D9743AC1E541A93F66AD73F6E4EC2BE01B4FFD6E
    FILE: 03 - Klavierkonzert Nr. 2 B-dur, Op. 19 - III. Rondo. Molto allegro.flac
    Size: 27545372 Hash: 289388EC01833F8BCBF975688B11CDE7 Accuracy: -m0
    Conclusion: CDDA 100%
    Signature: 7ADD7DB2F3DF51A3E00D1762D37761EEF729623D
    FILE: 02 - Klavierkonzert Nr. 2 B-dur, Op. 19 - II. Adagio.flac
    Size: 41252745 Hash: 50785D280E55590CCD46C1058BC18B75 Accuracy: -m0
    Conclusion: CDDA 100%
    Signature: 96D205C6025B6E495E41C492C829877429BB58D7
    FILE: 01 - Klavierkonzert Nr. 2 B-dur, Op. 19 - I. Allegro con brio.flac
    Size: 61318002 Hash: 262C9379DB6DFBA7C69A37BA21C35789 Accuracy: -m0
    Conclusion: CDDA 100%
    Signature: F0EF491A8EBCC3C3D8AA50175FCB68DAA7300753

    CD 3: Klavierkonzert Nr. 5 • Tripelkonzert

    -----------------------
    DON'T MODIFY THIS FILE
    -----------------------
    PERFORMER: auCDtect Task Manager, ver. 1.5.1RC3 build 1.5.1.4
    Copyright (c) 2008-2010 y-soft. All rights reserved
    ANALYZER: auCDtect: CD records authenticity detector, version 0.8.2
    Copyright (c) 2004 Oleg Berngardt. All rights reserved.
    Copyright (c) 2004 Alexander Djourik. All rights reserved.
    FILE: 06 - Tripelkonzert C-dur, Op. 56 - III. Rondo alla Polacca.flac
    Size: 65866572 Hash: 4EB65C51DDB864C40EB8E059C650B103 Accuracy: -m0
    Conclusion: CDDA 99%
    Signature: 02E847F4FA005E06479170DC0895CF54FD6DA981
    FILE: 05 - Tripelkonzert C-dur, Op. 56 - II. Largo.flac
    Size: 21817736 Hash: 73B96EC31D4E6CF5D24D6A51473FFEE2 Accuracy: -m0
    Conclusion: CDDA 100%
    Signature: 0275CD721D391ECA56C01FF22238B88830407039
    FILE: 04 - Tripelkonzert C-dur, Op. 56 - I. Allegro.flac
    Size: 91576330 Hash: 9B7B57E0659FED2FA995924FA4FACE61 Accuracy: -m0
    Conclusion: CDDA 100%
    Signature: A0B2EC9A32E7A571CA43A5116273A5846BCE3958
    FILE: 03 - Klavierkonzert Nr. 5 Es-dur, Op. 73 - III. Rondo. Allegro.flac
    Size: 48782591 Hash: 45683D6815FD9115BCDE35372F358D72 Accuracy: -m0
    Conclusion: CDDA 100%
    Signature: 1108A89494666031943592161EB9A0FC2210AA83
    FILE: 02 - Klavierkonzert Nr. 5 Es-dur, Op. 73 - II. Adagio un poco mosso.flac
    Size: 37868296 Hash: FFB50C298FDB45B43256B1728D0DEBF1 Accuracy: -m0
    Conclusion: CDDA 100%
    Signature: 6356784B08451CC89E0EEBB435D362312E493806
    FILE: 01 - Klavierkonzert Nr. 5 Es-dur, Op. 73 - I. Allegro.flac
    Size: 99718023 Hash: B4D0CA1857D90341E2E9DDD97FD7C283 Accuracy: -m0
    Conclusion: CDDA 100%
    Signature: A389C4F71311784AB4D9B4204368BF080CFF9E42

    CUETools logs / Отчёты CUEToolsCD 1: Klavierkonzerte Nrn 1 und 3

    [CUETools log; Date: 28.12.2013 20:35:23; Version: 2.1.4]
    [AccurateRip ID: 00129163-0060fe4f-6110bc06] found.
    Track [ CRC | V2 ] Status
    01 [bd2b2099|adab492e] (12+08/20) Accurately ripped
    02 [6e8cdb62|679bc85b] (12+09/21) Accurately ripped
    03 [a0f7b624|536b3100] (12+09/21) Accurately ripped
    04 [1175b07c|e7680c1b] (12+09/21) Accurately ripped
    05 [06a515f0|fa4c6d6d] (12+09/21) Accurately ripped
    06 [8accd8e7|de695bfc] (12+09/21) Accurately ripped
    Track Peak [ CRC32 ] [W/O NULL]
    -- 99,3 [60A4587F] [31C850B8]
    01 82,7 [04210325] [5AB3CF74]
    02 52,2 [1F8A4C8A] [F670FDED]
    03 84,9 [56224BE5] [C99A95A2]
    04 99,3 [42E78632] [E03AC43E]
    05 63,0 [8BEB6AA1] [C564A5D8]
    06 84,6 [29FD96B0] [2B15C748]

    CD 2: Klavierkonzerte Nrn 2 und 4

    [CUETools log; Date: 28.12.2013 20:35:32; Version: 2.1.4]
    [AccurateRip ID: 000f0f6d-004f6d38-4f0e0c06] found.
    Track [ CRC | V2 ] Status
    01 [d384310d|51c269d8] (09+07/35) Accurately ripped
    02 [438fdef7|dd1c38e5] (09+07/36) Accurately ripped
    03 [ae3afe52|163c0971] (09+07/37) Accurately ripped
    04 [dc611086|2ab8fd18] (09+06/35) Accurately ripped
    05 [48e7b5d3|03a64c39] (09+06/36) Accurately ripped
    06 [8cd004b0|274fdb73] (09+06/35) Accurately ripped
    Offsetted by -948:
    01 [e9d5da46] (12/35) Accurately ripped
    02 [9c4107cd] (13/36) Accurately ripped
    03 [bfa24a4c] (14/37) Accurately ripped
    04 [870fa4fc] (13/35) Accurately ripped
    05 [601a602e] (14/36) Accurately ripped
    06 [674dab41] (13/35) Accurately ripped
    Offsetted by -946:
    01 [44da7059] (00/35) No match (V2 was not tested)
    02 [ce258120] (00/36) No match (V2 was not tested)
    03 [0797407e] (00/37) No match (V2 was not tested)
    04 [9bd7f066] (00/35) No match (V2 was not tested)
    05 [1bad0014] (00/36) No match (V2 was not tested)
    06 [9ca3167a] (00/35) No match (V2 was not tested)
    Track Peak [ CRC32 ] [W/O NULL]
    -- 97,7 [BF85E268] [54065A2A]
    01 97,1 [848178E3] [7EED66A3]
    02 94,7 [E25D53D9] [054DA108]
    03 96,5 [4070FA59] [56FBCA19]
    04 97,7 [989262E8] [942CBE1C]
    05 94,4 [EE7EBF69] [ED99907F]
    06 97,7 [07EDA584] [949F1915]

    CD 3: Klavierkonzert Nr. 5 • Tripelkonzert

    [CUETools log; Date: 28.12.2013 20:35:45; Version: 2.1.4]
    [AccurateRip ID: 0012e344-00624f2d-52114206] found.
    Track [ CRC | V2 ] Status
    01 [c84be1a6|7b84fd2c] (15+12/39) Accurately ripped
    02 [dd331f3e|37c6a2f7] (15+12/39) Accurately ripped
    03 [c586eadf|1bca8268] (16+12/40) Accurately ripped
    04 [75095477|d34c32b5] (16+11/39) Accurately ripped
    05 [ff24d182|a42f761e] (16+11/39) Accurately ripped
    06 [10763fd2|4b0ef82e] (16+10/36) Accurately ripped
    Offsetted by -664:
    01 [97a41cb3] (09/39) Accurately ripped
    02 [5c00a4b0] (09/39) Accurately ripped
    03 [67ff80d5] (09/40) Accurately ripped
    04 [91028c3f] (09/39) Accurately ripped
    05 [f26203da] (09/39) Accurately ripped
    06 [377eff44] (07/36) Accurately ripped
    Track Peak [ CRC32 ] [W/O NULL]
    -- 99,4 [E6A0228B] [7925D4C3]
    01 89,9 [9D5C9404] [E6893C85]
    02 43,7 [1AC1A606] [745F9DB7]
    03 79,1 [79AF0E52] [EDE9386B]
    04 97,5 [4EEC4CFF] [87C2C59B]
    05 36,2 [E851ABDF] [90E9B49F]
    06 99,4 [08E2BE9F] [5B9C2304]

    CUE sheetsCD 1: Klavierkonzerte Nrn 1 und 3

    TITLE "Ludwig van Beethoven: Klavierkonzerte • Tripelkonzert"
    PERFORMER "Various"
    REM GENRE Classical
    REM DISCID 6110BC06
    REM REPLAYGAIN_ALBUM_GAIN 1.28 dB
    REM REPLAYGAIN_ALBUM_PEAK 0.993286
    FILE "01 - Klavierkonzert Nr. 1 C-dur, Op. 15 - I. Allegro con brio.flac" WAVE
    TRACK 01 AUDIO
    TITLE "Klavierkonzert Nr. 1 C-dur, Op. 15: I. Allegro con brio"
    PERFORMER "Leon Fleisher, Cleveland Orchestra. George Szell, conductor"
    REM DATE 1961
    REM REPLAYGAIN_TRACK_GAIN 0.67 dB
    REM REPLAYGAIN_TRACK_PEAK 0.827118
    INDEX 01 00:00:00
    TRACK 02 AUDIO
    TITLE "Klavierkonzert Nr. 1 C-dur, Op. 15: II. Largo"
    PERFORMER "Leon Fleisher, Cleveland Orchestra. George Szell, conductor"
    REM DATE 1961
    REM REPLAYGAIN_TRACK_GAIN 5.50 dB
    REM REPLAYGAIN_TRACK_PEAK 0.522858
    INDEX 00 16:29:27
    FILE "02 - Klavierkonzert Nr. 1 C-dur, Op. 15 - II. Largo.flac" WAVE
    INDEX 01 00:00:00
    TRACK 03 AUDIO
    TITLE "Klavierkonzert Nr. 1 C-dur, Op. 15: III. Rondo: Allegro scherzando"
    PERFORMER "Leon Fleisher, Cleveland Orchestra. George Szell, conductor"
    REM DATE 1961
    REM REPLAYGAIN_TRACK_GAIN -0.02 dB
    REM REPLAYGAIN_TRACK_PEAK 0.849670
    INDEX 00 12:15:32
    FILE "03 - Klavierkonzert Nr. 1 C-dur, Op. 15 - III. Rondo. Allegro scherzando.flac" WAVE
    INDEX 01 00:00:00
    TRACK 04 AUDIO
    TITLE "Klavierkonzert Nr. 3 c-moll, Op. 37: I. Allegro con brio"
    PERFORMER "Leon Fleisher, Cleveland Orchestra. George Szell, conductor"
    REM DATE 1961
    REM REPLAYGAIN_TRACK_GAIN 0.65 dB
    REM REPLAYGAIN_TRACK_PEAK 0.993286
    INDEX 00 08:36:00
    FILE "04 - Klavierkonzert Nr. 3 c-moll, Op. 37 - I. Allegro con brio.flac" WAVE
    INDEX 01 00:00:00
    TRACK 05 AUDIO
    TITLE "Klavierkonzert Nr. 3 c-moll, Op. 37: II. Largo"
    PERFORMER "Leon Fleisher, Cleveland Orchestra. George Szell, conductor"
    REM DATE 1961
    REM REPLAYGAIN_TRACK_GAIN 4.07 dB
    REM REPLAYGAIN_TRACK_PEAK 0.630585
    INDEX 00 15:21:30
    FILE "05 - Klavierkonzert Nr. 3 c-moll, Op. 37 - II. Largo.flac" WAVE
    INDEX 01 00:00:00
    TRACK 06 AUDIO
    TITLE "Klavierkonzert Nr. 3 c-moll, Op. 37: III. Rondo: Allegro"
    PERFORMER "Leon Fleisher, Cleveland Orchestra. George Szell, conductor"
    REM DATE 1961
    REM REPLAYGAIN_TRACK_GAIN 0.33 dB
    REM REPLAYGAIN_TRACK_PEAK 0.846130
    INDEX 00 09:45:25
    FILE "06 - Klavierkonzert Nr. 3 c-moll, Op. 37 - III. Rondo. Allegro.flac" WAVE
    INDEX 01 00:00:00

    CD 2: Klavierkonzerte Nrn 2 und 4

    TITLE "Ludwig van Beethoven: Klavierkonzerte • Tripelkonzert"
    PERFORMER "Various"
    REM GENRE Classical
    REM DISCID 4F0E0C06
    REM REPLAYGAIN_ALBUM_GAIN -2.37 dB
    REM REPLAYGAIN_ALBUM_PEAK 0.977234
    FILE "01 - Klavierkonzert Nr. 2 B-dur, Op. 19 - I. Allegro con brio.flac" WAVE
    TRACK 01 AUDIO
    TITLE "Klavierkonzert Nr. 2 B-dur, Op. 19: I. Allegro con brio"
    PERFORMER "Leon Fleisher, Cleveland Orchestra. George Szell, conductor"
    REM DATE 1961
    REM REPLAYGAIN_TRACK_GAIN -2.00 dB
    REM REPLAYGAIN_TRACK_PEAK 0.971527
    INDEX 01 00:00:00
    TRACK 02 AUDIO
    TITLE "Klavierkonzert Nr. 2 B-dur, Op. 19: II. Adagio"
    PERFORMER "Leon Fleisher, Cleveland Orchestra. George Szell, conductor"
    REM DATE 1961
    REM REPLAYGAIN_TRACK_GAIN -2.22 dB
    REM REPLAYGAIN_TRACK_PEAK 0.947937
    INDEX 00 12:55:27
    FILE "02 - Klavierkonzert Nr. 2 B-dur, Op. 19 - II. Adagio.flac" WAVE
    INDEX 01 00:00:00
    TRACK 03 AUDIO
    TITLE "Klavierkonzert Nr. 2 B-dur, Op. 19: III. Rondo: Molto allegro"
    PERFORMER "Leon Fleisher, Cleveland Orchestra. George Szell, conductor"
    REM DATE 1961
    REM REPLAYGAIN_TRACK_GAIN -2.25 dB
    REM REPLAYGAIN_TRACK_PEAK 0.965179
    INDEX 00 08:58:12
    FILE "03 - Klavierkonzert Nr. 2 B-dur, Op. 19 - III. Rondo. Molto allegro.flac" WAVE
    INDEX 01 00:00:00
    TRACK 04 AUDIO
    TITLE "Klavierkonzert Nr. 4 G-dur, Op. 58: I. Allegro moderato"
    PERFORMER "Leon Fleisher, Cleveland Orchestra. George Szell, conductor"
    REM DATE 1959
    REM REPLAYGAIN_TRACK_GAIN -3.11 dB
    REM REPLAYGAIN_TRACK_PEAK 0.977234
    INDEX 00 05:36:15
    FILE "04 - Klavierkonzert Nr. 4 G-dur, Op. 58 - I. Allegro moderato.flac" WAVE
    INDEX 01 00:00:00
    TRACK 05 AUDIO
    TITLE "Klavierkonzert Nr. 4 G-dur, Op. 58: II. Andante con moto"
    PERFORMER "Leon Fleisher, Cleveland Orchestra. George Szell, conductor"
    REM DATE 1959
    REM REPLAYGAIN_TRACK_GAIN -0.69 dB
    REM REPLAYGAIN_TRACK_PEAK 0.944122
    INDEX 00 17:59:20
    FILE "05 - Klavierkonzert Nr. 4 G-dur, Op. 58 - II. Andante con moto.flac" WAVE
    INDEX 01 00:00:00
    FILE "06 - Klavierkonzert Nr. 4 G-dur, Op. 58 - III. Rondo. Vivace.flac" WAVE
    TRACK 06 AUDIO
    TITLE "Klavierkonzert Nr. 4 G-dur, Op. 58: III. Rondo: Vivace"
    PERFORMER "Leon Fleisher, Cleveland Orchestra. George Szell, conductor"
    REM DATE 1959
    REM REPLAYGAIN_TRACK_GAIN -2.26 dB
    REM REPLAYGAIN_TRACK_PEAK 0.977203
    INDEX 01 00:00:00

    CD 3: Klavierkonzert Nr. 5 • Tripelkonzert

    TITLE "Ludwig van Beethoven: Klavierkonzerte • Tripelkonzert"
    PERFORMER "Various"
    REM GENRE Classical
    REM DISCID 52114206
    REM REPLAYGAIN_ALBUM_GAIN -0.34 dB
    REM REPLAYGAIN_ALBUM_PEAK 0.994537
    REM COMPILATION TRUE
    FILE "01 - Klavierkonzert Nr. 5 Es-dur, Op. 73 - I. Allegro.flac" WAVE
    TRACK 01 AUDIO
    TITLE "Klavierkonzert Nr. 5 Es-dur, Op. 73: I. Allegro"
    PERFORMER "Leon Fleisher, Cleveland Orchestra. George Szell, conductor"
    REM DATE 1961
    REM REPLAYGAIN_TRACK_GAIN -0.87 dB
    REM REPLAYGAIN_TRACK_PEAK 0.899719
    INDEX 01 00:00:00
    TRACK 02 AUDIO
    TITLE "Klavierkonzert Nr. 5 Es-dur, Op. 73: II. Adagio un poco mosso"
    PERFORMER "Leon Fleisher, Cleveland Orchestra. George Szell, conductor"
    REM DATE 1961
    REM REPLAYGAIN_TRACK_GAIN 5.57 dB
    REM REPLAYGAIN_TRACK_PEAK 0.437286
    INDEX 00 19:22:25
    FILE "02 - Klavierkonzert Nr. 5 Es-dur, Op. 73 - II. Adagio un poco mosso.flac" WAVE
    INDEX 01 00:00:00
    FILE "03 - Klavierkonzert Nr. 5 Es-dur, Op. 73 - III. Rondo. Allegro.flac" WAVE
    TRACK 03 AUDIO
    TITLE "Klavierkonzert Nr. 5 Es-dur, Op. 73: III. Rondo: Allegro"
    PERFORMER "Leon Fleisher, Cleveland Orchestra. George Szell, conductor"
    REM DATE 1961
    REM REPLAYGAIN_TRACK_GAIN -0.21 dB
    REM REPLAYGAIN_TRACK_PEAK 0.791748
    INDEX 01 00:00:00
    TRACK 04 AUDIO
    TITLE "Tripelkonzert für Violine, Violoncello, Klavier und Orchester C-dur, Op. 56: I. Allegro"
    PERFORMER "Isaac Stern, Leonard Rose, Eugene Istomin, Philadelphia Orchestra. Eugene Ormandy, conductor"
    REM DATE 1964
    REM REPLAYGAIN_TRACK_GAIN -0.42 dB
    REM REPLAYGAIN_TRACK_PEAK 0.975525
    INDEX 00 09:37:55
    FILE "04 - Tripelkonzert C-dur, Op. 56 - I. Allegro.flac" WAVE
    INDEX 01 00:00:00
    TRACK 05 AUDIO
    TITLE "Tripelkonzert für Violine, Violoncello, Klavier und Orchester C-dur, Op. 56: II. Largo"
    PERFORMER "Isaac Stern, Leonard Rose, Eugene Istomin, Philadelphia Orchestra. Eugene Ormandy, conductor"
    REM DATE 1964
    REM REPLAYGAIN_TRACK_GAIN 5.75 dB
    REM REPLAYGAIN_TRACK_PEAK 0.362762
    INDEX 00 18:20:03
    FILE "05 - Tripelkonzert C-dur, Op. 56 - II. Largo.flac" WAVE
    INDEX 01 00:00:00
    FILE "06 - Tripelkonzert C-dur, Op. 56 - III. Rondo alla Polacca.flac" WAVE
    TRACK 06 AUDIO
    TITLE "Tripelkonzert für Violine, Violoncello, Klavier und Orchester C-dur, Op. 56: III. Rondo alla Polacca"
    PERFORMER "Isaac Stern, Leonard Rose, Eugene Istomin, Philadelphia Orchestra. Eugene Ormandy, conductor"
    REM DATE 1964
    REM REPLAYGAIN_TRACK_GAIN -0.90 dB
    REM REPLAYGAIN_TRACK_PEAK 0.994537
    INDEX 01 00:00:00
    -
    Ludwig van Beethoven — каталог раздач на rutracker.orgВсе мои раздачи / All my releases
    [teatrix.ru].t18022.torrent 
    Торрент: Зарегистрирован [ 2016-03-17 00:45 ] · 3972897640A8AF4B1EAB27EFBE13CF3C53BAE64A

    Скачать .torrent

    Скачать

    24 KB

    Статус: проверено
    Скачан: 0 раз
    Размер: 945 MB
    terms.php



  • Быстрый ответ

    Имя:

          
    Для отправки сообщений необходимо включить JavaScript
    Показать сообщения:    

    Текущее время: 03-Дек 12:40

    Часовой пояс: UTC + 3


    Вы можете начинать темы
    Вы можете отвечать на сообщения
    Вы не можете редактировать свои сообщения
    Вы не можете удалять свои сообщения
    Вы не можете голосовать в опросах
    Вы не можете прикреплять файлы к сообщениям
    Вы можете скачивать файлы