(Classical) Bach Edition (Brilliant Classics) - Vocal Works Vol. II - 2006, FLAC (image+.cue) lossless


Статистика раздачи [Обновить пиров]
Размер:  1.91 GB   |    Зарегистрирован:  8 месяцев 19 дней   |    Скачан:  0 раз

Полного источника не было: Никогда

 
   
 
 
 

[Цитировать]

Bach Edition (Brilliant Classics) - Vocal Works Vol. II
Жанр: Classical
Год издания диска: 2006
Издатель (лейбл): Brilliant Classics
Номер по каталогу: 993761-8
Аудиокодек: FLAC
Тип рипа: image+.cue
Битрейт аудио: lossless
Продолжительность: 6:52;29
Источник: собственный рип
Наличие сканов в содержимом раздачи: да
Треклист и исполнители:

Christmas Oratorio Cantata /Weihnachtsoratorium BWV 248

CD1
1. Kantate am ersten Weihnachtstag - Chorus- Jauchzet, frohlocket!
2. Recit evangelist- Es begab sich aber zu der Zeit
3. Recit alto- Nun wird mein liebster Brautigam
4. Aria alto- Bereite dich, Zion
5. Chorale- Wie soll ich dich empfangen
6. Recit evangelist- Und sie gebar ihren ersten Sohn
7. Chorale, soprano- Er ist auf Erden kommen arm
8. Aria bass- Grosser Herr und starker Konig
9. Chorale- Ach mein herzliebes Jesulein
10. Kantate am zweiten Weihnachtstag - Sinfonia
11. Recit evangelist- Und es waren Hirten in derselben Gegend
12. Chorale- Brich an, o schones Morgenlicht
13. Recit evangelist, soprano- Und der Engel sprach zu ihnen- Furchtet euch nicht
14. Recit bass- Was Gott dem Abraham verheissen
15. Aria tenor- Frohe Hirten, eilt
16. Recit evangelist- Und das habt zum Zeichen
17. Chorale- Schaut hin, dort liegt im finstern Stall
18. Recit bass- So geht denn hin, ihr Hirten
19. Aria alto- Schlafe, mein Liebster
20. Recit evangelist- Und alsobald war da bei dem Engel
21. Chorus- Ehre sei Gott in der Hohe
22. Recit bass- So recht, ihr Engel, jauchzt und singet
23. Chorale- Wir singen dir in deinem Heer
CD2
1. Kantate am dritten Weihnachtstag - Chorus- Herrscher des Himmels
2. Recit evangelist- Und da die Engel von ihnen gen Himmel fuhren
3. Chorus- Lasset uns nun gehen
4. Recit bass- Er hat sein Volk getrost
5. Chorale- Dies hat er alles uns getan
6. Duetto soprano, bass- Herr, dein Mitleid
7. Recit evangelist- Und sie kamen eilend
8. Aria alto- Schliesse, mein Herze, dies selige Wunder
9. Recit alto- Ja, ja, mein Herz soll es bewahren
10. Chorale- Ich will dich mit Fleiss bewahren
11. Recit evangelist- Und die Hirten kehrten wieder um
12. Chorale- Seid froh dieweil
13. Chorus- Herrscher des Himmels
14. Kantate am Fest der Beschneidung Christi - Chorus- Fallt mit Danken, fallt mi...
15. Recit evangelist- Und da acht Tage um waren
16. Recit, Chorale- Immanuel, o susses Wort
17. Aria soprano, echo- Flosst, mein Heiland
18. Recit, Chorale- Wohlan, dein Name soll allein
19. Aria tenor- Ich will nur dir zu Ehren leben
20. Chorale- Jesus richte mein Beginnen
CD3
1. Kantate am Sonntag nach Neujahr - Chorus- Ehre sei dir, Gott, gesungen
2. Recit evangelist- Da Jesus geboren war zu Bethlehem
3. Chorus, Recit alto- Wo ist der neugeborne Konig
4. Chorale- Dein Glanz all Finsternis verzehrt
5. Aria bass- Erleucht auch meine finstre Sinnen
6. Recit evangelist- Da das der Konig Herodes horte
7. Recit alto- Warum wollt ihr erschrecken
8. Recit evangelist- Und liess versammeln alle Hohepriester
9. Terzetto soprano, alto, tenor- Ach, wenn wird die Zeit erscheinen
10. Recit alto- Mein liebster herrschet schon
11. Chorale- Zwar ist solche Herzensstube
12. Kantate am Fest der Erscheinung Christi - Chorus- Herr, wenn die stolzen Fein...
13. Recit evangelist, bass- Da berief Herodes die Weisen heimlich
14. Recit soprano- Du Falscher, suche nur den Herrn zu fallen
15. Aria soprano- Nur ein Wink von seinen Handen
16. Recit evangelist- Als sie nun den Konig gehoret hatten
17. Chorale- Ich steh an deiner Krippen hier
18. Recit evangelist- Und Gott befahl ihnen im Traum
19. Recit evangelist- So geht!
20. Aria tenor- Nun mogt ihr stolzen Feinde schrecken
21. Recit soprano, alto, tenor, bass- Was will der Holle Schrecken nun
22. Chorale- Nun seid ihr wohl gerochen
Performer/b]:
Arleen Auger (soprano),
Annelies Burmeister (alto),
Peter Schreier (tenor),
Theo Adam (bass),
Dresdner Kreuzchor,
Dresdner Philharmonie,
Martin Flämig

LOG CD1

Exact Audio Copy V1.0 beta 1 from 15. November 2010
EAC extraction logfile from 18. October 2011, 23:51
Martin Flamig; Dresdner Kreuzchor & Dresdner Philharmonie / Bach J.S. - Weihnachtsoratorium, BWV 248 - CD1
Used drive : ASUS DRW-1814BL Adapter: 0 ID: 0
Read mode : Secure
Utilize accurate stream : Yes
Defeat audio cache : Yes
Make use of C2 pointers : No
Read offset correction : 6
Overread into Lead-In and Lead-Out : No
Fill up missing offset samples with silence : Yes
Delete leading and trailing silent blocks : No
Null samples used in CRC calculations : Yes
Used interface : Native Win32 interface for Win NT & 2000
Used output format : User Defined Encoder
Selected bitrate : 768 kBit/s
Quality : High
Add ID3 tag : No
Command line compressor : C:\Program Files\Exact Audio Copy\Flac\flac.exe
Additional command line options : -8 -V %s
TOC of the extracted CD
Track | Start | Length | Start sector | End sector
---------------------------------------------------------
1 | 0:00.00 | 8:01.00 | 0 | 36074
2 | 8:01.00 | 1:17.25 | 36075 | 41874
3 | 9:18.25 | 0:59.25 | 41875 | 46324
4 | 10:17.50 | 5:54.00 | 46325 | 72874
5 | 16:11.50 | 1:24.25 | 72875 | 79199
6 | 17:36.00 | 0:23.25 | 79200 | 80949
7 | 17:59.25 | 3:41.25 | 80950 | 97549
8 | 21:40.50 | 5:11.50 | 97550 | 120924
9 | 26:52.25 | 1:21.50 | 120925 | 127049
10 | 28:14.00 | 6:38.50 | 127050 | 156949
11 | 34:52.50 | 0:50.45 | 156950 | 160744
12 | 35:43.20 | 1:21.55 | 160745 | 166874
13 | 37:05.00 | 0:51.50 | 166875 | 170749
14 | 37:56.50 | 0:48.25 | 170750 | 174374
15 | 38:45.00 | 3:28.00 | 174375 | 189974
16 | 42:13.00 | 0:23.55 | 189975 | 191754
17 | 42:36.55 | 0:46.20 | 191755 | 195224
18 | 43:23.00 | 0:57.37 | 195225 | 199536
19 | 44:20.37 | 9:55.13 | 199537 | 244174
20 | 54:15.50 | 0:14.02 | 244175 | 245226
21 | 54:29.52 | 3:01.60 | 245227 | 258861
22 | 57:31.37 | 0:27.70 | 258862 | 260956
23 | 57:59.32 | 1:18.43 | 260957 | 266849
Range status and errors
Selected range
Filename C:\Program Files\Exact Audio Copy\Flac\Bach J.S. - Weihnachtsoratorium, BWV 248 - CD1.wav
Peak level 100.0 %
Extraction speed 0.0 X
Range quality 100.0 %
Test CRC E92BC5E7
Copy CRC E92BC5E7
Copy OK
No errors occurred
AccurateRip summary
Track 1 accurately ripped (confidence 10) [776265F8]
Track 2 accurately ripped (confidence 10) [99EB6031]
Track 3 accurately ripped (confidence 10) [77D7B4FA]
Track 4 accurately ripped (confidence 10) [F3CF20F7]
Track 5 accurately ripped (confidence 10) [0CD220E0]
Track 6 accurately ripped (confidence 10) [E302F9C7]
Track 7 accurately ripped (confidence 10) [1B72EADC]
Track 8 accurately ripped (confidence 10) [8733BA9A]
Track 9 accurately ripped (confidence 10) [AA51BFF4]
Track 10 accurately ripped (confidence 10) [D51A2C12]
Track 11 accurately ripped (confidence 10) [CA110357]
Track 12 accurately ripped (confidence 10) [772CF638]
Track 13 accurately ripped (confidence 10) [864144D5]
Track 14 accurately ripped (confidence 10) [919DA883]
Track 15 accurately ripped (confidence 10) [2394CEEC]
Track 16 accurately ripped (confidence 10) [6AD53C6A]
Track 17 accurately ripped (confidence 10) [7CF387A9]
Track 18 accurately ripped (confidence 10) [A33E9EFB]
Track 19 accurately ripped (confidence 10) [14ECA7D2]
Track 20 accurately ripped (confidence 10) [18D48932]
Track 21 accurately ripped (confidence 10) [A860D710]
Track 22 accurately ripped (confidence 10) [BBBEED9D]
Track 23 accurately ripped (confidence 10) [AE752C34]
All tracks accurately ripped
End of status report
==== Log checksum 32DAD61EB53C1775A7CA56ED3DBDE8B0D206B20341EACB221D47F21670553384 ====

LOG CD2

Exact Audio Copy V1.0 beta 1 from 15. November 2010
EAC extraction logfile from 19. October 2011, 0:11
Martin Flamig; Dresdner Kreuzchor & Dresdner Philharmonie / Bach J.S. - Weihnachtsoratorium, BWV 248 - CD2
Used drive : ASUS DRW-1814BL Adapter: 0 ID: 0
Read mode : Secure
Utilize accurate stream : Yes
Defeat audio cache : Yes
Make use of C2 pointers : No
Read offset correction : 6
Overread into Lead-In and Lead-Out : No
Fill up missing offset samples with silence : Yes
Delete leading and trailing silent blocks : No
Null samples used in CRC calculations : Yes
Used interface : Native Win32 interface for Win NT & 2000
Used output format : User Defined Encoder
Selected bitrate : 768 kBit/s
Quality : High
Add ID3 tag : No
Command line compressor : C:\Program Files\Exact Audio Copy\Flac\flac.exe
Additional command line options : -8 -V %s
TOC of the extracted CD
Track | Start | Length | Start sector | End sector
---------------------------------------------------------
1 | 0:00.00 | 2:17.00 | 0 | 10274
2 | 2:17.00 | 0:09.15 | 10275 | 10964
3 | 2:26.15 | 0:53.40 | 10965 | 14979
4 | 3:19.55 | 0:45.20 | 14980 | 18374
5 | 4:05.00 | 0:55.00 | 18375 | 22499
6 | 5:00.00 | 8:10.00 | 22500 | 59249
7 | 13:10.00 | 1:34.50 | 59250 | 66349
8 | 14:44.50 | 5:20.00 | 66350 | 90349
9 | 20:04.50 | 0:28.00 | 90350 | 92449
10 | 20:32.50 | 1:09.62 | 92450 | 97686
11 | 21:42.37 | 0:27.15 | 97687 | 99726
12 | 22:09.52 | 0:55.73 | 99727 | 103924
13 | 23:05.50 | 2:23.50 | 103925 | 114699
14 | 25:29.25 | 5:39.50 | 114700 | 140174
15 | 31:09.00 | 0:33.25 | 140175 | 142674
16 | 31:42.25 | 2:39.50 | 142675 | 154649
17 | 34:22.00 | 5:35.25 | 154650 | 179799
18 | 39:57.25 | 1:41.25 | 179800 | 187399
19 | 41:38.50 | 5:38.62 | 187400 | 212811
20 | 47:17.37 | 2:34.38 | 212812 | 224399
Range status and errors
Selected range
Filename C:\Program Files\Exact Audio Copy\Flac\Bach J.S. - Weihnachtsoratorium, BWV 248 - CD2.wav
Peak level 100.0 %
Extraction speed 0.4 X
Range quality 100.0 %
Test CRC 7582713C
Copy CRC 7582713C
Copy OK
No errors occurred
AccurateRip summary
Track 1 accurately ripped (confidence 11) [3F9C7AF5]
Track 2 accurately ripped (confidence 11) [540AF0DC]
Track 3 accurately ripped (confidence 11) [761EE701]
Track 4 accurately ripped (confidence 11) [EA262795]
Track 5 accurately ripped (confidence 11) [B31A76A3]
Track 6 accurately ripped (confidence 11) [FA0EE837]
Track 7 accurately ripped (confidence 11) [684BDA7A]
Track 8 accurately ripped (confidence 11) [8BD455C5]
Track 9 accurately ripped (confidence 11) [884842AA]
Track 10 accurately ripped (confidence 11) [85A6C869]
Track 11 accurately ripped (confidence 11) [4F501DFB]
Track 12 accurately ripped (confidence 11) [D2F169D7]
Track 13 accurately ripped (confidence 11) [A16C19B8]
Track 14 accurately ripped (confidence 11) [1B358E65]
Track 15 accurately ripped (confidence 11) [E096907C]
Track 16 accurately ripped (confidence 11) [7BA2DB55]
Track 17 accurately ripped (confidence 11) [0C907476]
Track 18 accurately ripped (confidence 11) [DE987040]
Track 19 accurately ripped (confidence 11) [B696AFCA]
Track 20 accurately ripped (confidence 11) [A9B3602C]
All tracks accurately ripped
End of status report
==== Log checksum BCAC1BD69976C7E97E2382978360E9270BBCFE62F7A8F7D99AF42B22A4D81625 ====

LOG CD3

Exact Audio Copy V1.0 beta 1 from 15. November 2010
EAC extraction logfile from 19. October 2011, 0:31
Martin Flamig; Dresdner Kreuzchor & Dresdner Philharmonie / Bach J.S. - Weihnachtsoratorium, BWV 248 - CD3
Used drive : ASUS DRW-1814BL Adapter: 0 ID: 0
Read mode : Secure
Utilize accurate stream : Yes
Defeat audio cache : Yes
Make use of C2 pointers : No
Read offset correction : 6
Overread into Lead-In and Lead-Out : No
Fill up missing offset samples with silence : Yes
Delete leading and trailing silent blocks : No
Null samples used in CRC calculations : Yes
Used interface : Native Win32 interface for Win NT & 2000
Used output format : User Defined Encoder
Selected bitrate : 768 kBit/s
Quality : High
Add ID3 tag : No
Command line compressor : C:\Program Files\Exact Audio Copy\Flac\flac.exe
Additional command line options : -8 -V %s
TOC of the extracted CD
Track | Start | Length | Start sector | End sector
---------------------------------------------------------
1 | 0:00.00 | 7:01.37 | 0 | 31611
2 | 7:01.37 | 0:25.45 | 31612 | 33531
3 | 7:27.07 | 2:15.18 | 33532 | 43674
4 | 9:42.25 | 1:00.50 | 43675 | 48224
5 | 10:43.00 | 4:48.00 | 48225 | 69824
6 | 15:31.00 | 0:11.50 | 69825 | 70699
7 | 15:42.50 | 0:35.37 | 70700 | 73361
8 | 16:18.12 | 1:27.63 | 73362 | 79949
9 | 17:46.00 | 5:56.50 | 79950 | 106699
10 | 23:42.50 | 0:31.00 | 106700 | 109024
11 | 24:13.50 | 1:12.25 | 109025 | 114449
12 | 25:26.00 | 5:23.50 | 114450 | 138724
13 | 30:49.50 | 0:49.25 | 138725 | 142424
14 | 31:39.00 | 1:02.50 | 142425 | 147124
15 | 32:41.50 | 3:42.62 | 147125 | 163836
16 | 36:24.37 | 1:22.13 | 163837 | 169999
17 | 37:46.50 | 1:18.62 | 170000 | 175911
18 | 39:05.37 | 0:22.25 | 175912 | 177586
19 | 39:27.62 | 2:07.38 | 177587 | 187149
20 | 41:35.25 | 5:01.50 | 187150 | 209774
21 | 46:37.00 | 0:54.00 | 209775 | 213824
22 | 47:31.00 | 3:23.00 | 213825 | 229049
Range status and errors
Selected range
Filename C:\Program Files\Exact Audio Copy\Flac\Bach J.S. - Weihnachtsoratorium, BWV 248 - CD3.wav
Peak level 99.5 %
Extraction speed 0.4 X
Range quality 99.9 %
Test CRC 4CABE0C9
Copy CRC 4CABE0C9
Copy OK
No errors occurred
AccurateRip summary
Track 1 accurately ripped (confidence 11) [14C62EAC]
Track 2 accurately ripped (confidence 11) [5539713F]
Track 3 accurately ripped (confidence 11) [41AC2C01]
Track 4 accurately ripped (confidence 11) [F6FD3276]
Track 5 accurately ripped (confidence 11) [90B4C23A]
Track 6 accurately ripped (confidence 11) [1A539968]
Track 7 accurately ripped (confidence 11) [F52575D8]
Track 8 accurately ripped (confidence 11) [045E1B6C]
Track 9 accurately ripped (confidence 11) [DA17C96C]
Track 10 accurately ripped (confidence 11) [51B84B46]
Track 11 accurately ripped (confidence 11) [BC66F65B]
Track 12 accurately ripped (confidence 11) [46382E77]
Track 13 accurately ripped (confidence 11) [9B39822E]
Track 14 accurately ripped (confidence 11) [F95DC304]
Track 15 accurately ripped (confidence 11) [6840298F]
Track 16 accurately ripped (confidence 11) [E72CB998]
Track 17 accurately ripped (confidence 11) [CDDFBEE4]
Track 18 accurately ripped (confidence 11) [5B8F45E6]
Track 19 accurately ripped (confidence 11) [9C82DBCF]
Track 20 accurately ripped (confidence 11) [C837C0D9]
Track 21 accurately ripped (confidence 11) [A1109634]
Track 22 accurately ripped (confidence 11) [8083B2D1]
All tracks accurately ripped
End of status report
==== Log checksum 544EAC9B7199E29C77A1E2253AEAA4E81CECF1FAEB6040D13B0B065BB6CE0D53 ====

CUE CD1

REM GENRE Classical
REM DATE 2004
REM DISCID 460DE617
REM COMMENT "ExactAudioCopy v1.0b1"
PERFORMER "Martin Flamig; Dresdner Kreuzchor & Dresdner Philharmonie"
TITLE "Bach J.S. - Weihnachtsoratorium, BWV 248 - CD1"
FILE "Bach J.S. - Weihnachtsoratorium, BWV 248 - CD1.flac" WAVE
TRACK 01 AUDIO
TITLE "Kantate am ersten Weihnachtstag - Chorus- Jauchzet, frohlocket!"
PERFORMER "Martin Flamig; Dresdner Kreuzchor & Dresdner Philharmonie"
INDEX 01 00:00:00
TRACK 02 AUDIO
TITLE "Recit evangelist- Es begab sich aber zu der Zeit"
PERFORMER "Martin Flamig; Dresdner Kreuzchor & Dresdner Philharmonie"
INDEX 00 08:00:00
INDEX 01 08:01:00
TRACK 03 AUDIO
TITLE "Recit alto- Nun wird mein liebster Brautigam"
PERFORMER "Martin Flamig; Dresdner Kreuzchor & Dresdner Philharmonie"
INDEX 01 09:18:25
TRACK 04 AUDIO
TITLE "Aria alto- Bereite dich, Zion"
PERFORMER "Martin Flamig; Dresdner Kreuzchor & Dresdner Philharmonie"
INDEX 01 10:17:50
TRACK 05 AUDIO
TITLE "Chorale- Wie soll ich dich empfangen"
PERFORMER "Martin Flamig; Dresdner Kreuzchor & Dresdner Philharmonie"
INDEX 00 16:11:00
INDEX 01 16:11:50
TRACK 06 AUDIO
TITLE "Recit evangelist- Und sie gebar ihren ersten Sohn"
PERFORMER "Martin Flamig; Dresdner Kreuzchor & Dresdner Philharmonie"
INDEX 00 17:35:00
INDEX 01 17:36:00
TRACK 07 AUDIO
TITLE "Chorale, soprano- Er ist auf Erden kommen arm"
PERFORMER "Martin Flamig; Dresdner Kreuzchor & Dresdner Philharmonie"
INDEX 01 17:59:25
TRACK 08 AUDIO
TITLE "Aria bass- Grosser Herr und starker Konig"
PERFORMER "Martin Flamig; Dresdner Kreuzchor & Dresdner Philharmonie"
INDEX 00 21:40:00
INDEX 01 21:40:50
TRACK 09 AUDIO
TITLE "Chorale- Ach mein herzliebes Jesulein"
PERFORMER "Martin Flamig; Dresdner Kreuzchor & Dresdner Philharmonie"
INDEX 01 26:52:25
TRACK 10 AUDIO
TITLE "Kantate am zweiten Weihnachtstag - Sinfonia"
PERFORMER "Martin Flamig; Dresdner Kreuzchor & Dresdner Philharmonie"
INDEX 00 28:07:00
INDEX 01 28:14:00
TRACK 11 AUDIO
TITLE "Recit evangelist- Und es waren Hirten in derselben Gegend"
PERFORMER "Martin Flamig; Dresdner Kreuzchor & Dresdner Philharmonie"
INDEX 00 34:52:00
INDEX 01 34:52:50
TRACK 12 AUDIO
TITLE "Chorale- Brich an, o schones Morgenlicht"
PERFORMER "Martin Flamig; Dresdner Kreuzchor & Dresdner Philharmonie"
INDEX 01 35:43:20
TRACK 13 AUDIO
TITLE "Recit evangelist, soprano- Und der Engel sprach zu ihnen- Furchtet euch nicht"
PERFORMER "Martin Flamig; Dresdner Kreuzchor & Dresdner Philharmonie"
INDEX 01 37:05:00
TRACK 14 AUDIO
TITLE "Recit bass- Was Gott dem Abraham verheissen"
PERFORMER "Martin Flamig; Dresdner Kreuzchor & Dresdner Philharmonie"
INDEX 01 37:56:50
TRACK 15 AUDIO
TITLE "Aria tenor- Frohe Hirten, eilt"
PERFORMER "Martin Flamig; Dresdner Kreuzchor & Dresdner Philharmonie"
INDEX 01 38:45:00
TRACK 16 AUDIO
TITLE "Recit evangelist- Und das habt zum Zeichen"
PERFORMER "Martin Flamig; Dresdner Kreuzchor & Dresdner Philharmonie"
INDEX 01 42:13:00
TRACK 17 AUDIO
TITLE "Chorale- Schaut hin, dort liegt im finstern Stall"
PERFORMER "Martin Flamig; Dresdner Kreuzchor & Dresdner Philharmonie"
INDEX 01 42:36:55
TRACK 18 AUDIO
TITLE "Recit bass- So geht denn hin, ihr Hirten"
PERFORMER "Martin Flamig; Dresdner Kreuzchor & Dresdner Philharmonie"
INDEX 01 43:23:00
TRACK 19 AUDIO
TITLE "Aria alto- Schlafe, mein Liebster"
PERFORMER "Martin Flamig; Dresdner Kreuzchor & Dresdner Philharmonie"
INDEX 01 44:20:37
TRACK 20 AUDIO
TITLE "Recit evangelist- Und alsobald war da bei dem Engel"
PERFORMER "Martin Flamig; Dresdner Kreuzchor & Dresdner Philharmonie"
INDEX 01 54:15:50
TRACK 21 AUDIO
TITLE "Chorus- Ehre sei Gott in der Hohe"
PERFORMER "Martin Flamig; Dresdner Kreuzchor & Dresdner Philharmonie"
INDEX 01 54:29:52
TRACK 22 AUDIO
TITLE "Recit bass- So recht, ihr Engel, jauchzt und singet"
PERFORMER "Martin Flamig; Dresdner Kreuzchor & Dresdner Philharmonie"
INDEX 01 57:31:37
TRACK 23 AUDIO
TITLE "Chorale- Wir singen dir in deinem Heer"
PERFORMER "Martin Flamig; Dresdner Kreuzchor & Dresdner Philharmonie"
INDEX 01 57:59:32

CUE CD2

REM GENRE Classical
REM DATE 2004
REM DISCID F80BB014
REM COMMENT "ExactAudioCopy v1.0b1"
PERFORMER "Martin Flamig; Dresdner Kreuzchor & Dresdner Philharmonie"
TITLE "Bach J.S. - Weihnachtsoratorium, BWV 248 - CD2"
FILE "Bach J.S. - Weihnachtsoratorium, BWV 248 - CD2.flac" WAVE
TRACK 01 AUDIO
TITLE "Kantate am dritten Weihnachtstag - Chorus- Herrscher des Himmels"
PERFORMER "Martin Flamig; Dresdner Kreuzchor & Dresdner Philharmonie"
INDEX 01 00:00:00
TRACK 02 AUDIO
TITLE "Recit evangelist- Und da die Engel von ihnen gen Himmel fuhren"
PERFORMER "Martin Flamig; Dresdner Kreuzchor & Dresdner Philharmonie"
INDEX 00 02:16:50
INDEX 01 02:17:00
TRACK 03 AUDIO
TITLE "Chorus- Lasset uns nun gehen"
PERFORMER "Martin Flamig; Dresdner Kreuzchor & Dresdner Philharmonie"
INDEX 01 02:26:15
TRACK 04 AUDIO
TITLE "Recit bass- Er hat sein Volk getrost"
PERFORMER "Martin Flamig; Dresdner Kreuzchor & Dresdner Philharmonie"
INDEX 01 03:19:55
TRACK 05 AUDIO
TITLE "Chorale- Dies hat er alles uns getan"
PERFORMER "Martin Flamig; Dresdner Kreuzchor & Dresdner Philharmonie"
INDEX 01 04:05:00
TRACK 06 AUDIO
TITLE "Duetto soprano, bass- Herr, dein Mitleid"
PERFORMER "Martin Flamig; Dresdner Kreuzchor & Dresdner Philharmonie"
INDEX 00 04:59:00
INDEX 01 05:00:00
TRACK 07 AUDIO
TITLE "Recit evangelist- Und sie kamen eilend"
PERFORMER "Martin Flamig; Dresdner Kreuzchor & Dresdner Philharmonie"
INDEX 01 13:10:00
TRACK 08 AUDIO
TITLE "Aria alto- Schliesse, mein Herze, dies selige Wunder"
PERFORMER "Martin Flamig; Dresdner Kreuzchor & Dresdner Philharmonie"
INDEX 01 14:44:50
TRACK 09 AUDIO
TITLE "Recit alto- Ja, ja, mein Herz soll es bewahren"
PERFORMER "Martin Flamig; Dresdner Kreuzchor & Dresdner Philharmonie"
INDEX 00 20:04:00
INDEX 01 20:04:50
TRACK 10 AUDIO
TITLE "Chorale- Ich will dich mit Fleiss bewahren"
PERFORMER "Martin Flamig; Dresdner Kreuzchor & Dresdner Philharmonie"
INDEX 01 20:32:50
TRACK 11 AUDIO
TITLE "Recit evangelist- Und die Hirten kehrten wieder um"
PERFORMER "Martin Flamig; Dresdner Kreuzchor & Dresdner Philharmonie"
INDEX 00 21:42:00
INDEX 01 21:42:37
TRACK 12 AUDIO
TITLE "Chorale- Seid froh dieweil"
PERFORMER "Martin Flamig; Dresdner Kreuzchor & Dresdner Philharmonie"
INDEX 01 22:09:52
TRACK 13 AUDIO
TITLE "Chorus- Herrscher des Himmels"
PERFORMER "Martin Flamig; Dresdner Kreuzchor & Dresdner Philharmonie"
INDEX 01 23:05:50
TRACK 14 AUDIO
TITLE "Kantate am Fest der Beschneidung Christi - Chorus- Fallt mit Danken, fallt mi..."
PERFORMER "Martin Flamig; Dresdner Kreuzchor & Dresdner Philharmonie"
INDEX 00 25:22:00
INDEX 01 25:29:25
TRACK 15 AUDIO
TITLE "Recit evangelist- Und da acht Tage um waren"
PERFORMER "Martin Flamig; Dresdner Kreuzchor & Dresdner Philharmonie"
INDEX 01 31:09:00
TRACK 16 AUDIO
TITLE "Recit, Chorale- Immanuel, o susses Wort"
PERFORMER "Martin Flamig; Dresdner Kreuzchor & Dresdner Philharmonie"
INDEX 01 31:42:25
TRACK 17 AUDIO
TITLE "Aria soprano, echo- Flosst, mein Heiland"
PERFORMER "Martin Flamig; Dresdner Kreuzchor & Dresdner Philharmonie"
INDEX 01 34:22:00
TRACK 18 AUDIO
TITLE "Recit, Chorale- Wohlan, dein Name soll allein"
PERFORMER "Martin Flamig; Dresdner Kreuzchor & Dresdner Philharmonie"
INDEX 01 39:57:25
TRACK 19 AUDIO
TITLE "Aria tenor- Ich will nur dir zu Ehren leben"
PERFORMER "Martin Flamig; Dresdner Kreuzchor & Dresdner Philharmonie"
INDEX 00 41:38:00
INDEX 01 41:38:50
TRACK 20 AUDIO
TITLE "Chorale- Jesus richte mein Beginnen"
PERFORMER "Martin Flamig; Dresdner Kreuzchor & Dresdner Philharmonie"
INDEX 00 47:17:00
INDEX 01 47:17:37

CUE CD3

REM GENRE Classical
REM DATE 2004
REM DISCID 5E0BEE16
REM COMMENT "ExactAudioCopy v1.0b1"
PERFORMER "Martin Flamig; Dresdner Kreuzchor & Dresdner Philharmonie"
TITLE "Bach J.S. - Weihnachtsoratorium, BWV 248 - CD3"
FILE "Bach J.S. - Weihnachtsoratorium, BWV 248 - CD3.flac" WAVE
TRACK 01 AUDIO
TITLE "Kantate am Sonntag nach Neujahr - Chorus- Ehre sei dir, Gott, gesungen"
PERFORMER "Martin Flamig; Dresdner Kreuzchor & Dresdner Philharmonie"
INDEX 01 00:00:00
TRACK 02 AUDIO
TITLE "Recit evangelist- Da Jesus geboren war zu Bethlehem"
PERFORMER "Martin Flamig; Dresdner Kreuzchor & Dresdner Philharmonie"
INDEX 00 07:01:00
INDEX 01 07:01:37
TRACK 03 AUDIO
TITLE "Chorus, Recit alto- Wo ist der neugeborne Konig"
PERFORMER "Martin Flamig; Dresdner Kreuzchor & Dresdner Philharmonie"
INDEX 01 07:27:07
TRACK 04 AUDIO
TITLE "Chorale- Dein Glanz all Finsternis verzehrt"
PERFORMER "Martin Flamig; Dresdner Kreuzchor & Dresdner Philharmonie"
INDEX 01 09:42:25
TRACK 05 AUDIO
TITLE "Aria bass- Erleucht auch meine finstre Sinnen"
PERFORMER "Martin Flamig; Dresdner Kreuzchor & Dresdner Philharmonie"
INDEX 00 10:42:37
INDEX 01 10:43:00
TRACK 06 AUDIO
TITLE "Recit evangelist- Da das der Konig Herodes horte"
PERFORMER "Martin Flamig; Dresdner Kreuzchor & Dresdner Philharmonie"
INDEX 01 15:31:00
TRACK 07 AUDIO
TITLE "Recit alto- Warum wollt ihr erschrecken"
PERFORMER "Martin Flamig; Dresdner Kreuzchor & Dresdner Philharmonie"
INDEX 01 15:42:50
TRACK 08 AUDIO
TITLE "Recit evangelist- Und liess versammeln alle Hohepriester"
PERFORMER "Martin Flamig; Dresdner Kreuzchor & Dresdner Philharmonie"
INDEX 01 16:18:12
TRACK 09 AUDIO
TITLE "Terzetto soprano, alto, tenor- Ach, wenn wird die Zeit erscheinen"
PERFORMER "Martin Flamig; Dresdner Kreuzchor & Dresdner Philharmonie"
INDEX 01 17:46:00
TRACK 10 AUDIO
TITLE "Recit alto- Mein liebster herrschet schon"
PERFORMER "Martin Flamig; Dresdner Kreuzchor & Dresdner Philharmonie"
INDEX 00 23:42:00
INDEX 01 23:42:50
TRACK 11 AUDIO
TITLE "Chorale- Zwar ist solche Herzensstube"
PERFORMER "Martin Flamig; Dresdner Kreuzchor & Dresdner Philharmonie"
INDEX 01 24:13:50
TRACK 12 AUDIO
TITLE "Kantate am Fest der Erscheinung Christi - Chorus- Herr, wenn die stolzen Fein..."
PERFORMER "Martin Flamig; Dresdner Kreuzchor & Dresdner Philharmonie"
INDEX 00 25:18:00
INDEX 01 25:26:00
TRACK 13 AUDIO
TITLE "Recit evangelist, bass- Da berief Herodes die Weisen heimlich"
PERFORMER "Martin Flamig; Dresdner Kreuzchor & Dresdner Philharmonie"
INDEX 00 30:49:00
INDEX 01 30:49:50
TRACK 14 AUDIO
TITLE "Recit soprano- Du Falscher, suche nur den Herrn zu fallen"
PERFORMER "Martin Flamig; Dresdner Kreuzchor & Dresdner Philharmonie"
INDEX 01 31:39:00
TRACK 15 AUDIO
TITLE "Aria soprano- Nur ein Wink von seinen Handen"
PERFORMER "Martin Flamig; Dresdner Kreuzchor & Dresdner Philharmonie"
INDEX 01 32:41:50
TRACK 16 AUDIO
TITLE "Recit evangelist- Als sie nun den Konig gehoret hatten"
PERFORMER "Martin Flamig; Dresdner Kreuzchor & Dresdner Philharmonie"
INDEX 00 36:24:00
INDEX 01 36:24:37
TRACK 17 AUDIO
TITLE "Chorale- Ich steh an deiner Krippen hier"
PERFORMER "Martin Flamig; Dresdner Kreuzchor & Dresdner Philharmonie"
INDEX 01 37:46:50
TRACK 18 AUDIO
TITLE "Recit evangelist- Und Gott befahl ihnen im Traum"
PERFORMER "Martin Flamig; Dresdner Kreuzchor & Dresdner Philharmonie"
INDEX 00 39:05:00
INDEX 01 39:05:37
TRACK 19 AUDIO
TITLE "Recit evangelist- So geht!"
PERFORMER "Martin Flamig; Dresdner Kreuzchor & Dresdner Philharmonie"
INDEX 01 39:27:62
TRACK 20 AUDIO
TITLE "Aria tenor- Nun mogt ihr stolzen Feinde schrecken"
PERFORMER "Martin Flamig; Dresdner Kreuzchor & Dresdner Philharmonie"
INDEX 01 41:35:25
TRACK 21 AUDIO
TITLE "Recit soprano, alto, tenor, bass- Was will der Holle Schrecken nun"
PERFORMER "Martin Flamig; Dresdner Kreuzchor & Dresdner Philharmonie"
INDEX 01 46:37:00
TRACK 22 AUDIO
TITLE "Chorale- Nun seid ihr wohl gerochen"
PERFORMER "Martin Flamig; Dresdner Kreuzchor & Dresdner Philharmonie"
INDEX 01 47:31:00
Ascension Oratorio/Himmelfahrts Oratorium, BWV 11; Ich habe genug, BWV 82a; Sanctus, BWV 238
1. Lobet Gott in seinen Reichen Himmelfahrts Oratorium BWV 11 - Coro- Lobet Gott...
2. Recit (Tenore)- Der Herr Jesus hub seine Hande
3. Recit (Basso)- Ach. Jesu, ist dein Abschied
4. Aria (Alto)- Ach. bleibe doch
5. Recit (Tenore)- Und ward aufgehoben zusehends
6. Choral (Coro)- Nun lieget alles unter dir
7. Recit (Tenore, Basso)- Und da sie ihm nachsahen
8. Recit (Alto)- Ach ja! so komme bald zuruck
9. Recit (Tenore)- Sie aber beteten an
10. Aria (Soprano)- Jesu, deine Gnadenblicke
11. Choral (Coro)- Wann soll es doch geschehen
12. Ich habe genug BWV 82a Am Feste Mariae Reinigung - Aria (Soprano)- Ich habe g...
13. Recit (Soprano)- Ich habe genug!
14. Aria (Soprano)- Schlummert ein, ihr matten Augen
15. Recit (Soprano)- Mein Gott! wann komt das schone
16. Aria (Soprano)- Ich freue mich auf meinen Tod
17. Sanctus in D BWV 238 - Coro- Sanctus, sanctus, sanctus
Performer/b]:
Holland Boys Choir,
Netherlands Bach Collegium,
Peter Jan Leusink
LOG CDExact Audio Copy V1.0 beta 1 from 15. November 2010
EAC extraction logfile from 19. October 2011, 0:59
Pieter Jan Leu; Holland Boys Choir, The Bach Orchestra of the Netherlands / Bach J.S. - Himmelfahrts Oratorium BWV 11; Ich habe genug BWV 82a; Sanctus in D BWV 238
Used drive : ASUS DRW-1814BL Adapter: 0 ID: 0
Read mode : Secure
Utilize accurate stream : Yes
Defeat audio cache : Yes
Make use of C2 pointers : No
Read offset correction : 6
Overread into Lead-In and Lead-Out : No
Fill up missing offset samples with silence : Yes
Delete leading and trailing silent blocks : No
Null samples used in CRC calculations : Yes
Used interface : Native Win32 interface for Win NT & 2000
Used output format : User Defined Encoder
Selected bitrate : 768 kBit/s
Quality : High
Add ID3 tag : No
Command line compressor : C:\Program Files\Exact Audio Copy\Flac\flac.exe
Additional command line options : -8 -V %s
TOC of the extracted CD
Track | Start | Length | Start sector | End sector
---------------------------------------------------------
1 | 0:00.00 | 4:37.54 | 0 | 20828
2 | 4:37.54 | 0:30.20 | 20829 | 23098
3 | 5:07.74 | 1:04.60 | 23099 | 27958
4 | 6:12.59 | 6:41.03 | 27959 | 58036
5 | 12:53.62 | 0:33.06 | 58037 | 60517
6 | 13:26.68 | 1:06.28 | 60518 | 65495
7 | 14:33.21 | 1:15.62 | 65496 | 71182
8 | 15:49.08 | 0:35.19 | 71183 | 73826
9 | 16:24.27 | 0:42.09 | 73827 | 76985
10 | 17:06.36 | 6:30.62 | 76986 | 106297
11 | 23:37.23 | 4:20.31 | 106298 | 125828
12 | 27:57.54 | 7:56.63 | 125829 | 161591
13 | 35:54.42 | 1:19.22 | 161592 | 167538
14 | 37:13.64 | 9:42.35 | 167539 | 211223
15 | 46:56.24 | 0:44.32 | 211224 | 214555
16 | 47:40.56 | 3:52.38 | 214556 | 231993
17 | 51:33.19 | 2:55.07 | 231994 | 245125
Range status and errors
Selected range
Filename C:\Program Files\Exact Audio Copy\Flac\Bach J.S. - Himmelfahrts Oratorium; Ich habe genug; Sanctus in D.wav
Copy aborted
End of status report
==== Log checksum 3028F06290F08A84FD1B90DF2BEDACB779CF4E29627179D0ABAD961B00FE84CF ====
------------------------------------------------------------
Exact Audio Copy V1.0 beta 1 from 15. November 2010
EAC extraction logfile from 19. October 2011, 1:14
Pieter Jan Leu; Holland Boys Choir, The Bach Orchestra of the Netherlands / Bach J.S. - Himmelfahrts Oratorium BWV 11; Ich habe genug BWV 82a; Sanctus in D BWV 238
Used drive : ASUS DRW-1814BL Adapter: 0 ID: 0
Read mode : Secure
Utilize accurate stream : Yes
Defeat audio cache : Yes
Make use of C2 pointers : No
Read offset correction : 6
Overread into Lead-In and Lead-Out : No
Fill up missing offset samples with silence : Yes
Delete leading and trailing silent blocks : No
Null samples used in CRC calculations : Yes
Used interface : Native Win32 interface for Win NT & 2000
Used output format : User Defined Encoder
Selected bitrate : 768 kBit/s
Quality : High
Add ID3 tag : No
Command line compressor : C:\Program Files\Exact Audio Copy\Flac\flac.exe
Additional command line options : -8 -V %s
TOC of the extracted CD
Track | Start | Length | Start sector | End sector
---------------------------------------------------------
1 | 0:00.00 | 4:37.54 | 0 | 20828
2 | 4:37.54 | 0:30.20 | 20829 | 23098
3 | 5:07.74 | 1:04.60 | 23099 | 27958
4 | 6:12.59 | 6:41.03 | 27959 | 58036
5 | 12:53.62 | 0:33.06 | 58037 | 60517
6 | 13:26.68 | 1:06.28 | 60518 | 65495
7 | 14:33.21 | 1:15.62 | 65496 | 71182
8 | 15:49.08 | 0:35.19 | 71183 | 73826
9 | 16:24.27 | 0:42.09 | 73827 | 76985
10 | 17:06.36 | 6:30.62 | 76986 | 106297
11 | 23:37.23 | 4:20.31 | 106298 | 125828
12 | 27:57.54 | 7:56.63 | 125829 | 161591
13 | 35:54.42 | 1:19.22 | 161592 | 167538
14 | 37:13.64 | 9:42.35 | 167539 | 211223
15 | 46:56.24 | 0:44.32 | 211224 | 214555
16 | 47:40.56 | 3:52.38 | 214556 | 231993
17 | 51:33.19 | 2:55.07 | 231994 | 245125
Range status and errors
Selected range
Filename C:\Program Files\Exact Audio Copy\Flac\Bach J.S. - Himmelfahrts Oratorium; Ich habe genug; Sanctus in D.wav
Peak level 99.9 %
Extraction speed 0.4 X
Range quality 100.0 %
Test CRC C7E687D4
Copy CRC C7E687D4
Copy OK
No errors occurred
AccurateRip summary
Track 1 accurately ripped (confidence 10) [B6BB7BC3]
Track 2 accurately ripped (confidence 10) [57BE3F57]
Track 3 accurately ripped (confidence 10) [AE629A36]
Track 4 accurately ripped (confidence 10) [6E3EB116]
Track 5 accurately ripped (confidence 10) [DF754D8C]
Track 6 accurately ripped (confidence 10) [CA7EEE9D]
Track 7 accurately ripped (confidence 10) [70CC4F42]
Track 8 accurately ripped (confidence 10) [A97610D2]
Track 9 accurately ripped (confidence 10) [C93794D5]
Track 10 accurately ripped (confidence 10) [2F0BF763]
Track 11 accurately ripped (confidence 10) [D846CE33]
Track 12 accurately ripped (confidence 10) [AA0E0C6F]
Track 13 accurately ripped (confidence 10) [302DCA51]
Track 14 accurately ripped (confidence 10) [DD3DED4F]
Track 15 accurately ripped (confidence 10) [25DBAD14]
Track 16 accurately ripped (confidence 10) [3CF3B901]
Track 17 accurately ripped (confidence 10) [6CD417D0]
All tracks accurately ripped
End of status report
==== Log checksum 4C87C0F3351F0F94531E03234817662B82AB1E56F0D766F31E2363E263389693 ====

CUE CD

REM GENRE Classical
REM DATE 2004
REM DISCID 0D0CC411
REM COMMENT "ExactAudioCopy v1.0b1"
PERFORMER " Pieter Jan Leu; Holland Boys Choir, The Bach Orchestra of the Netherlands"
TITLE "Bach J.S. - Himmelfahrts Oratorium BWV 11; Ich habe genug BWV 82a; Sanctus in..."
FILE "Bach J.S. - Himmelfahrts Oratorium; Ich habe genug; Sanctus in D.flac" WAVE
TRACK 01 AUDIO
TITLE "Lobet Gott in seinen Reichen Himmelfahrts Oratorium BWV 11 - Coro- Lobet Gott..."
PERFORMER " Pieter Jan Leu; Holland Boys Choir, The Bach Orchestra of the Netherlands"
INDEX 01 00:00:00
TRACK 02 AUDIO
TITLE "Recit (Tenore)- Der Herr Jesus hub seine Hande"
PERFORMER " Pieter Jan Leu; Holland Boys Choir, The Bach Orchestra of the Netherlands"
INDEX 01 04:37:54
TRACK 03 AUDIO
TITLE "Recit (Basso)- Ach. Jesu, ist dein Abschied"
PERFORMER " Pieter Jan Leu; Holland Boys Choir, The Bach Orchestra of the Netherlands"
INDEX 01 05:07:74
TRACK 04 AUDIO
TITLE "Aria (Alto)- Ach. bleibe doch"
PERFORMER " Pieter Jan Leu; Holland Boys Choir, The Bach Orchestra of the Netherlands"
INDEX 01 06:12:59
TRACK 05 AUDIO
TITLE "Recit (Tenore)- Und ward aufgehoben zusehends"
PERFORMER " Pieter Jan Leu; Holland Boys Choir, The Bach Orchestra of the Netherlands"
INDEX 01 12:53:62
TRACK 06 AUDIO
TITLE "Choral (Coro)- Nun lieget alles unter dir"
PERFORMER " Pieter Jan Leu; Holland Boys Choir, The Bach Orchestra of the Netherlands"
INDEX 01 13:26:68
TRACK 07 AUDIO
TITLE "Recit (Tenore, Basso)- Und da sie ihm nachsahen"
PERFORMER " Pieter Jan Leu; Holland Boys Choir, The Bach Orchestra of the Netherlands"
INDEX 01 14:33:21
TRACK 08 AUDIO
TITLE "Recit (Alto)- Ach ja! so komme bald zuruck"
PERFORMER " Pieter Jan Leu; Holland Boys Choir, The Bach Orchestra of the Netherlands"
INDEX 01 15:49:08
TRACK 09 AUDIO
TITLE "Recit (Tenore)- Sie aber beteten an"
PERFORMER " Pieter Jan Leu; Holland Boys Choir, The Bach Orchestra of the Netherlands"
INDEX 01 16:24:27
TRACK 10 AUDIO
TITLE "Aria (Soprano)- Jesu, deine Gnadenblicke"
PERFORMER " Pieter Jan Leu; Holland Boys Choir, The Bach Orchestra of the Netherlands"
INDEX 01 17:06:36
TRACK 11 AUDIO
TITLE "Choral (Coro)- Wann soll es doch geschehen"
PERFORMER " Pieter Jan Leu; Holland Boys Choir, The Bach Orchestra of the Netherlands"
INDEX 01 23:37:23
TRACK 12 AUDIO
TITLE "Ich habe genug BWV 82a Am Feste Mariae Reinigung - Aria (Soprano)- Ich habe g..."
PERFORMER " Pieter Jan Leu; Holland Boys Choir, The Bach Orchestra of the Netherlands"
INDEX 01 27:57:54
TRACK 13 AUDIO
TITLE "Recit (Soprano)- Ich habe genug!"
PERFORMER " Pieter Jan Leu; Holland Boys Choir, The Bach Orchestra of the Netherlands"
INDEX 01 35:54:42
TRACK 14 AUDIO
TITLE "Aria (Soprano)- Schlummert ein, ihr matten Augen"
PERFORMER " Pieter Jan Leu; Holland Boys Choir, The Bach Orchestra of the Netherlands"
INDEX 01 37:13:64
TRACK 15 AUDIO
TITLE "Recit (Soprano)- Mein Gott! wann komt das schone"
PERFORMER " Pieter Jan Leu; Holland Boys Choir, The Bach Orchestra of the Netherlands"
INDEX 01 46:56:24
TRACK 16 AUDIO
TITLE "Aria (Soprano)- Ich freue mich auf meinen Tod"
PERFORMER " Pieter Jan Leu; Holland Boys Choir, The Bach Orchestra of the Netherlands"
INDEX 01 47:40:56
TRACK 17 AUDIO
TITLE "Sanctus in D BWV 238 - Coro- Sanctus, sanctus, sanctus"
PERFORMER " Pieter Jan Leu; Holland Boys Choir, The Bach Orchestra of the Netherlands"
INDEX 01 51:33:19
Tilge, Höchster, meine Sünden (Psalm 51), BWV 1083; O Jesu Christ, mein's Lebens Licht, BWV 118; Bekennen will ich seinen Namen, BWV 200; Sei Lob und Preis mit Ehren, BWV 231
1. Tilge, Hochster, meine Sunden BWV 1083 - Aria (Duetto)
2. Aria Soprano- Ist mein Herz in Missetaten
3. Aria (Duetto)- Missetaten, die mich drucken
4. Aria (Alto)- Dich erzurnt mein Tun und Lassen
5. Aria (Duetto)- Wer wird seine Schuld verneinen
6. Aria (Duetto)- Siehl ich bin in Sund empfangen
7. Aria (Soprano)- Sieh, du willst die Wahrheit
8. Aria (Alto)- Wasche mich doch rein
9. Aria (Duetto)- Las mich Freud und Wonne spuren
10. Aria (Duetto)- Schaue nicht auf meine Sunden
11. Aria (Alto)- Offne Lippen. Mund und Seele
12. Aria (Duetto)- Denn du willst kein Opfer
13. Aria (Duetto)- Las dein Zion bluhend dauern
14. Aria (Duetto)- Amen
15. O Jesu Christ, mein's Lebens Licht BWV 118 - Choral (Coro)
16. Bekennen will ich seinen Namen BWV 200 - Aria (Alto)
17. Sei Lob und Preis mit Ehren BWV 231 - (Coro)
Performer/b]:
Holland Boys Choir,
Netherlands Bach Collegium,
Peter Jan Leusink
LOG CDExact Audio Copy V1.0 beta 1 from 15. November 2010
EAC extraction logfile from 19. October 2011, 8:22
Peter Jan Leusink, Holland Boys Choir, Netherlands Bach Collegium / Bach J.S. - Tilge, Hochster, meine Sunden BWV 1083
Used drive : ASUS DRW-1814BL Adapter: 0 ID: 0
Read mode : Secure
Utilize accurate stream : Yes
Defeat audio cache : Yes
Make use of C2 pointers : No
Read offset correction : 6
Overread into Lead-In and Lead-Out : No
Fill up missing offset samples with silence : Yes
Delete leading and trailing silent blocks : No
Null samples used in CRC calculations : Yes
Used interface : Native Win32 interface for Win NT & 2000
Used output format : User Defined Encoder
Selected bitrate : 768 kBit/s
Quality : High
Add ID3 tag : No
Command line compressor : C:\Program Files\Exact Audio Copy\Flac\flac.exe
Additional command line options : -8 -V %s
TOC of the extracted CD
Track | Start | Length | Start sector | End sector
---------------------------------------------------------
1 | 0:00.00 | 3:36.02 | 0 | 16201
2 | 3:36.02 | 2:31.33 | 16202 | 27559
3 | 6:07.35 | 1:57.60 | 27560 | 36394
4 | 8:05.20 | 2:18.72 | 36395 | 46816
5 | 10:24.17 | 2:07.03 | 46817 | 56344
6 | 12:31.20 | 0:37.49 | 56345 | 59168
7 | 13:08.69 | 3:43.51 | 59169 | 75944
8 | 16:52.45 | 2:26.05 | 75945 | 86899
9 | 19:18.50 | 2:14.41 | 86900 | 96990
10 | 21:33.16 | 5:22.74 | 96991 | 121214
11 | 26:56.15 | 3:06.07 | 121215 | 135171
12 | 30:02.22 | 2:25.23 | 135172 | 146069
13 | 32:27.45 | 2:15.39 | 146070 | 156233
14 | 34:43.09 | 2:05.20 | 156234 | 165628
15 | 36:48.29 | 7:46.23 | 165629 | 200601
16 | 44:34.52 | 3:38.68 | 200602 | 217019
17 | 48:13.45 | 5:05.70 | 217020 | 239964
Range status and errors
Selected range
Filename C:\Program Files\Exact Audio Copy\Flac\Bach J.S. - Tilge, Hochster, meine Sunden BWV 1083.wav
Peak level 81.5 %
Extraction speed 0.4 X
Range quality 100.0 %
Test CRC 54BCFAA8
Copy CRC 54BCFAA8
Copy OK
No errors occurred
AccurateRip summary
Track 1 accurately ripped (confidence 11) [481C07F5]
Track 2 accurately ripped (confidence 11) [32A85B02]
Track 3 accurately ripped (confidence 11) [AECE0960]
Track 4 accurately ripped (confidence 11) [607376AF]
Track 5 accurately ripped (confidence 11) [4C1EB915]
Track 6 accurately ripped (confidence 11) [265FE75B]
Track 7 accurately ripped (confidence 11) [2592FF06]
Track 8 accurately ripped (confidence 11) [B33759D0]
Track 9 accurately ripped (confidence 11) [2C753094]
Track 10 accurately ripped (confidence 11) [71AB5A62]
Track 11 accurately ripped (confidence 11) [E365D2DC]
Track 12 accurately ripped (confidence 11) [FE0F880D]
Track 13 accurately ripped (confidence 11) [241E3A22]
Track 14 accurately ripped (confidence 11) [6B8C9293]
Track 15 accurately ripped (confidence 11) [15CFAB16]
Track 16 accurately ripped (confidence 11) [551FBEE7]
Track 17 accurately ripped (confidence 11) [7C66AE08]
All tracks accurately ripped
End of status report
==== Log checksum 6DCB93814C5D1709F6E00A43BF0056662AE2319DF4131026F01203931189E53A ====

CUE CD

REM GENRE Classical
REM DATE 2004
REM DISCID F30C7F11
REM COMMENT "ExactAudioCopy v1.0b1"
PERFORMER "Peter Jan Leusink, Holland Boys Choir, Netherlands Bach Collegium"
TITLE "Bach J.S. - Tilge, Hochster, meine Sunden BWV 1083"
FILE "Bach J.S. - Tilge, Hochster, meine Sunden BWV 1083.flac" WAVE
TRACK 01 AUDIO
TITLE "Tilge, Hochster, meine Sunden BWV 1083 - Aria (Duetto)"
PERFORMER "Peter Jan Leusink, Holland Boys Choir, Netherlands Bach Collegium"
INDEX 01 00:00:00
TRACK 02 AUDIO
TITLE "Aria Soprano- Ist mein Herz in Missetaten"
PERFORMER "Peter Jan Leusink, Holland Boys Choir, Netherlands Bach Collegium"
INDEX 01 03:36:02
TRACK 03 AUDIO
TITLE "Aria (Duetto)- Missetaten, die mich drucken"
PERFORMER "Peter Jan Leusink, Holland Boys Choir, Netherlands Bach Collegium"
INDEX 01 06:07:35
TRACK 04 AUDIO
TITLE "Aria (Alto)- Dich erzurnt mein Tun und Lassen"
PERFORMER "Peter Jan Leusink, Holland Boys Choir, Netherlands Bach Collegium"
INDEX 01 08:05:20
TRACK 05 AUDIO
TITLE "Aria (Duetto)- Wer wird seine Schuld verneinen"
PERFORMER "Peter Jan Leusink, Holland Boys Choir, Netherlands Bach Collegium"
INDEX 01 10:24:17
TRACK 06 AUDIO
TITLE "Aria (Duetto)- Siehl ich bin in Sund empfangen"
PERFORMER "Peter Jan Leusink, Holland Boys Choir, Netherlands Bach Collegium"
INDEX 01 12:31:20
TRACK 07 AUDIO
TITLE "Aria (Soprano)- Sieh, du willst die Wahrheit"
PERFORMER "Peter Jan Leusink, Holland Boys Choir, Netherlands Bach Collegium"
INDEX 01 13:08:69
TRACK 08 AUDIO
TITLE "Aria (Alto)- Wasche mich doch rein"
PERFORMER "Peter Jan Leusink, Holland Boys Choir, Netherlands Bach Collegium"
INDEX 01 16:52:45
TRACK 09 AUDIO
TITLE "Aria (Duetto)- Las mich Freud und Wonne spuren"
PERFORMER "Peter Jan Leusink, Holland Boys Choir, Netherlands Bach Collegium"
INDEX 01 19:18:50
TRACK 10 AUDIO
TITLE "Aria (Duetto)- Schaue nicht auf meine Sunden"
PERFORMER "Peter Jan Leusink, Holland Boys Choir, Netherlands Bach Collegium"
INDEX 01 21:33:16
TRACK 11 AUDIO
TITLE "Aria (Alto)- Offne Lippen. Mund und Seele"
PERFORMER "Peter Jan Leusink, Holland Boys Choir, Netherlands Bach Collegium"
INDEX 01 26:56:15
TRACK 12 AUDIO
TITLE "Aria (Duetto)- Denn du willst kein Opfer"
PERFORMER "Peter Jan Leusink, Holland Boys Choir, Netherlands Bach Collegium"
INDEX 01 30:02:22
TRACK 13 AUDIO
TITLE "Aria (Duetto)- Las dein Zion bluhend dauern"
PERFORMER "Peter Jan Leusink, Holland Boys Choir, Netherlands Bach Collegium"
INDEX 01 32:27:45
TRACK 14 AUDIO
TITLE "Aria (Duetto)- Amen"
PERFORMER "Peter Jan Leusink, Holland Boys Choir, Netherlands Bach Collegium"
INDEX 01 34:43:09
TRACK 15 AUDIO
TITLE "O Jesu Christ, mein's Lebens Licht BWV 118 - Choral (Coro)"
PERFORMER "Peter Jan Leusink, Holland Boys Choir, Netherlands Bach Collegium"
INDEX 01 36:48:29
TRACK 16 AUDIO
TITLE "Bekennen will ich seinen Namen BWV 200 - Aria (Alto)"
PERFORMER "Peter Jan Leusink, Holland Boys Choir, Netherlands Bach Collegium"
INDEX 01 44:34:52
TRACK 17 AUDIO
TITLE "Sei Lob und Preis mit Ehren BWV 231 - (Coro)"
PERFORMER "Peter Jan Leusink, Holland Boys Choir, Netherlands Bach Collegium"
INDEX 01 48:13:45
Magnificat in D, BWV 243; Chorales: BWV 14, 40, 47, 73, 90, 102, 115, 187, 409, 411, 413, 415, 417-420
1. MAGNIFICAT BWV 243 - I. Magnificat anima mea (chorus)
2. II. Et exultavit (soprano II)
3. III. Quia respexit (soprano I)
4. IV. Omnes generationes (chorus)
5. V. Quia fecit mihi magna (bass)
6. VI. Et misericordia (alto, tenor)
7. VII. Fecit potentiam (chorus)
8. VIII. Deposuit potentes (tenor)
9. IX. Esurientes (alto)
10. X. Suscepit Israel (chorus)
11. XI. Sicut locutus est (chorus)
12. XII. Gloria (chorus)
13. Schwing' dich auf zu deinem gott, Cantate BWV 40
14. Seelenbrautigam BWV 409
15. Singen wir aus Herzensgrund, Cantate BWV 187
16. Singt dem Herrn ein neues Lied BWV 411
17. Sollt' ich meinem Gott nicht singen BWV 413
18. Straf mich nicht in deinem Zorn, Cantate BWV 115
19. Valet will ich dir gehen BWV 415
20. Vater unser im Himmelreich, Cantate BWV 90
21. Vater unser im Himmelreich, Cantate BWV 102
22. Von Gott will ich nicht lassen BWV 417
23. Von Gott will ich nicht lassen BWV 418)
24. Von Gott will ich nicht lassen BWV 419
25. Von Gott will ich nicht lassen (unvollstandige Cantate)
26. Von Gott will ich nich lassen, Cantate BWV 73
27. War' Gott nicht mit uns diese Zeit, Cantate BWV 14
28. Warum betrubst du dich, mein Herz BWV 420
29. Warum betrubst du dich, mein Herz Cantate BWV 47
Performer/b]:
Lynda Russell & Gillian Fischer (sopranos),
Alison Browner & Caroline Trevor (altos),
Ian Partridge (tenor), Mischael George (bass),
The Sixteen Choir & Orchestra,
Harry Christophers;
Nordic Chamber Choir,
Solosts of the Freiburger Barockorchester,
Nicol Matt
LOG CDExact Audio Copy V1.0 beta 1 from 15. November 2010
EAC extraction logfile from 19. October 2011, 8:52
Nicol Matt, Nordic Chamber Choir, Solosts of the Freiburger Barockorchester / Bach J.S. - Magnificat in D major BWV 243
Used drive : ASUS DRW-1814BL Adapter: 0 ID: 0
Read mode : Secure
Utilize accurate stream : Yes
Defeat audio cache : Yes
Make use of C2 pointers : No
Read offset correction : 6
Overread into Lead-In and Lead-Out : No
Fill up missing offset samples with silence : Yes
Delete leading and trailing silent blocks : No
Null samples used in CRC calculations : Yes
Used interface : Native Win32 interface for Win NT & 2000
Used output format : User Defined Encoder
Selected bitrate : 768 kBit/s
Quality : High
Add ID3 tag : No
Command line compressor : C:\Program Files\Exact Audio Copy\Flac\flac.exe
Additional command line options : -8 -V %s
TOC of the extracted CD
Track | Start | Length | Start sector | End sector
---------------------------------------------------------
1 | 0:01.00 | 2:52.67 | 75 | 13041
2 | 2:53.67 | 2:24.66 | 13042 | 23907
3 | 5:18.58 | 2:13.06 | 23908 | 33888
4 | 7:31.64 | 1:12.57 | 33889 | 39345
5 | 8:44.46 | 2:12.70 | 39346 | 49315
6 | 10:57.41 | 3:37.73 | 49316 | 65663
7 | 14:35.39 | 1:54.10 | 65664 | 74223
8 | 16:29.49 | 2:00.42 | 74224 | 83265
9 | 18:30.16 | 2:56.51 | 83266 | 96516
10 | 21:26.67 | 2:10.51 | 96517 | 106317
11 | 23:37.43 | 1:34.45 | 106318 | 113412
12 | 25:12.13 | 2:07.53 | 113413 | 122990
13 | 27:19.66 | 1:42.29 | 122991 | 130669
14 | 29:02.20 | 0:43.08 | 130670 | 133902
15 | 29:45.28 | 2:17.13 | 133903 | 144190
16 | 32:02.41 | 0:53.65 | 144191 | 148230
17 | 32:56.31 | 1:13.67 | 148231 | 153772
18 | 34:10.23 | 1:33.07 | 153773 | 160754
19 | 35:43.30 | 0:50.56 | 160755 | 164560
20 | 36:34.11 | 0:44.16 | 164561 | 167876
21 | 37:18.27 | 1:25.39 | 167877 | 174290
22 | 38:43.66 | 0:55.51 | 174291 | 178466
23 | 39:39.42 | 0:58.36 | 178467 | 182852
24 | 40:38.03 | 0:58.66 | 182853 | 187268
25 | 41:36.69 | 0:50.58 | 187269 | 191076
26 | 42:27.52 | 0:52.12 | 191077 | 194988
27 | 43:19.64 | 1:44.38 | 194989 | 202826
28 | 45:04.27 | 0:42.26 | 202827 | 206002
29 | 45:46.53 | 0:40.62 | 206003 | 209064
Range status and errors
Selected range
Filename C:\Program Files\Exact Audio Copy\Flac\Bach J.S. - Magnificat in D major BWV 243.wav
Peak level 85.5 %
Extraction speed 0.1 X
Range quality 100.0 %
Test CRC D81A40E4
Copy CRC D81A40E4
Copy OK
No errors occurred
AccurateRip summary
Track 1 accurately ripped (confidence 12) [C2E2EFCF]
Track 2 accurately ripped (confidence 12) [EBD14880]
Track 3 accurately ripped (confidence 12) [321C5DC0]
Track 4 accurately ripped (confidence 12) [40291AC3]
Track 5 accurately ripped (confidence 12) [BF2F2CFB]
Track 6 accurately ripped (confidence 11) [415576AF]
Track 7 accurately ripped (confidence 11) [45AAE32A]
Track 8 accurately ripped (confidence 11) [B71CBD80]
Track 9 accurately ripped (confidence 11) [849F050A]
Track 10 accurately ripped (confidence 11) [5653B5A3]
Track 11 accurately ripped (confidence 12) [740D3668]
Track 12 accurately ripped (confidence 11) [C49B7F9D]
Track 13 accurately ripped (confidence 12) [0C491DAE]
Track 14 accurately ripped (confidence 12) [195F47D9]
Track 15 accurately ripped (confidence 11) [F07B4726]
Track 16 accurately ripped (confidence 12) [2DB7FDB2]
Track 17 accurately ripped (confidence 12) [D9E00227]
Track 18 accurately ripped (confidence 12) [CBDB001D]
Track 19 accurately ripped (confidence 12) [CD55BB12]
Track 20 accurately ripped (confidence 12) [A0551A5E]
Track 21 accurately ripped (confidence 11) [EEC28482]
Track 22 accurately ripped (confidence 12) [9E407E5E]
Track 23 accurately ripped (confidence 11) [A57FC9C1]
Track 24 accurately ripped (confidence 11) [39FA0A2E]
Track 25 accurately ripped (confidence 12) [6428EF3C]
Track 26 accurately ripped (confidence 11) [37301025]
Track 27 accurately ripped (confidence 11) [B10CEF36]
Track 28 accurately ripped (confidence 11) [DAC875B4]
Track 29 accurately ripped (confidence 11) [720AAB4A]
All tracks accurately ripped
End of status report
==== Log checksum A00B8DBF841457762754B3400563A30D0F651BE27690152E26925EC568BCC4D8 ====

CUE CD

REM GENRE Classical
REM DATE 2004
REM DISCID A50AE21D
REM COMMENT "ExactAudioCopy v1.0b1"
PERFORMER "Nicol Matt, Nordic Chamber Choir, Solosts of the Freiburger Barockorchester"
TITLE "Bach J.S. - Magnificat in D major BWV 243 "
FILE "Bach J.S. - Magnificat in D major BWV 243.flac" WAVE
TRACK 01 AUDIO
TITLE "MAGNIFICAT BWV 243 - I. Magnificat anima mea (chorus)"
PERFORMER "Nicol Matt, Nordic Chamber Choir, Solosts of the Freiburger Barockorchester"
FLAGS DCP
INDEX 00 00:00:00
INDEX 01 00:01:00
TRACK 02 AUDIO
TITLE "II. Et exultavit (soprano II)"
PERFORMER "Nicol Matt, Nordic Chamber Choir, Solosts of the Freiburger Barockorchester"
FLAGS DCP
INDEX 00 02:51:22
INDEX 01 02:53:67
TRACK 03 AUDIO
TITLE "III. Quia respexit (soprano I)"
PERFORMER "Nicol Matt, Nordic Chamber Choir, Solosts of the Freiburger Barockorchester"
FLAGS DCP
INDEX 00 05:16:13
INDEX 01 05:18:58
TRACK 04 AUDIO
TITLE "IV. Omnes generationes (chorus)"
PERFORMER "Nicol Matt, Nordic Chamber Choir, Solosts of the Freiburger Barockorchester"
FLAGS DCP
INDEX 01 07:31:64
TRACK 05 AUDIO
TITLE "V. Quia fecit mihi magna (bass)"
PERFORMER "Nicol Matt, Nordic Chamber Choir, Solosts of the Freiburger Barockorchester"
FLAGS DCP
INDEX 00 08:42:01
INDEX 01 08:44:46
TRACK 06 AUDIO
TITLE "VI. Et misericordia (alto, tenor)"
PERFORMER "Nicol Matt, Nordic Chamber Choir, Solosts of the Freiburger Barockorchester"
FLAGS DCP
INDEX 00 10:54:71
INDEX 01 10:57:41
TRACK 07 AUDIO
TITLE "VII. Fecit potentiam (chorus)"
PERFORMER "Nicol Matt, Nordic Chamber Choir, Solosts of the Freiburger Barockorchester"
FLAGS DCP
INDEX 00 14:32:69
INDEX 01 14:35:39
TRACK 08 AUDIO
TITLE "VIII. Deposuit potentes (tenor)"
PERFORMER "Nicol Matt, Nordic Chamber Choir, Solosts of the Freiburger Barockorchester"
FLAGS DCP
INDEX 00 16:27:04
INDEX 01 16:29:49
TRACK 09 AUDIO
TITLE "IX. Esurientes (alto)"
PERFORMER "Nicol Matt, Nordic Chamber Choir, Solosts of the Freiburger Barockorchester"
FLAGS DCP
INDEX 00 18:27:46
INDEX 01 18:30:16
TRACK 10 AUDIO
TITLE "X. Suscepit Israel (chorus)"
PERFORMER "Nicol Matt, Nordic Chamber Choir, Solosts of the Freiburger Barockorchester"
FLAGS DCP
INDEX 00 21:24:22
INDEX 01 21:26:67
TRACK 11 AUDIO
TITLE "XI. Sicut locutus est (chorus)"
PERFORMER "Nicol Matt, Nordic Chamber Choir, Solosts of the Freiburger Barockorchester"
FLAGS DCP
INDEX 00 23:34:73
INDEX 01 23:37:43
TRACK 12 AUDIO
TITLE "XII. Gloria (chorus)"
PERFORMER "Nicol Matt, Nordic Chamber Choir, Solosts of the Freiburger Barockorchester"
FLAGS DCP
INDEX 00 25:09:43
INDEX 01 25:12:13
TRACK 13 AUDIO
TITLE "Schwing' dich auf zu deinem gott, Cantate BWV 40"
PERFORMER "Nicol Matt, Nordic Chamber Choir, Solosts of the Freiburger Barockorchester"
FLAGS DCP
INDEX 00 27:17:21
INDEX 01 27:19:66
TRACK 14 AUDIO
TITLE "Seelenbrautigam BWV 409"
PERFORMER "Nicol Matt, Nordic Chamber Choir, Solosts of the Freiburger Barockorchester"
FLAGS DCP
INDEX 00 28:59:50
INDEX 01 29:02:20
TRACK 15 AUDIO
TITLE "Singen wir aus Herzensgrund, Cantate BWV 187"
PERFORMER "Nicol Matt, Nordic Chamber Choir, Solosts of the Freiburger Barockorchester"
FLAGS DCP
INDEX 00 29:42:58
INDEX 01 29:45:28
TRACK 16 AUDIO
TITLE "Singt dem Herrn ein neues Lied BWV 411"
PERFORMER "Nicol Matt, Nordic Chamber Choir, Solosts of the Freiburger Barockorchester"
FLAGS DCP
INDEX 00 31:59:71
INDEX 01 32:02:41
TRACK 17 AUDIO
TITLE "Sollt' ich meinem Gott nicht singen BWV 413"
PERFORMER "Nicol Matt, Nordic Chamber Choir, Solosts of the Freiburger Barockorchester"
FLAGS DCP
INDEX 00 32:53:61
INDEX 01 32:56:31
TRACK 18 AUDIO
TITLE "Straf mich nicht in deinem Zorn, Cantate BWV 115"
PERFORMER "Nicol Matt, Nordic Chamber Choir, Solosts of the Freiburger Barockorchester"
FLAGS DCP
INDEX 00 34:07:53
INDEX 01 34:10:23
TRACK 19 AUDIO
TITLE "Valet will ich dir gehen BWV 415"
PERFORMER "Nicol Matt, Nordic Chamber Choir, Solosts of the Freiburger Barockorchester"
FLAGS DCP
INDEX 00 35:40:60
INDEX 01 35:43:30
TRACK 20 AUDIO
TITLE "Vater unser im Himmelreich, Cantate BWV 90"
PERFORMER "Nicol Matt, Nordic Chamber Choir, Solosts of the Freiburger Barockorchester"
FLAGS DCP
INDEX 00 36:31:41
INDEX 01 36:34:11
TRACK 21 AUDIO
TITLE "Vater unser im Himmelreich, Cantate BWV 102"
PERFORMER "Nicol Matt, Nordic Chamber Choir, Solosts of the Freiburger Barockorchester"
FLAGS DCP
INDEX 00 37:15:57
INDEX 01 37:18:27
TRACK 22 AUDIO
TITLE "Von Gott will ich nicht lassen BWV 417"
PERFORMER "Nicol Matt, Nordic Chamber Choir, Solosts of the Freiburger Barockorchester"
FLAGS DCP
INDEX 00 38:41:21
INDEX 01 38:43:66
TRACK 23 AUDIO
TITLE "Von Gott will ich nicht lassen BWV 418"
PERFORMER "Nicol Matt, Nordic Chamber Choir, Solosts of the Freiburger Barockorchester"
FLAGS DCP
INDEX 00 39:36:72
INDEX 01 39:39:42
TRACK 24 AUDIO
TITLE "Von Gott will ich nicht lassen BWV 419"
PERFORMER "Nicol Matt, Nordic Chamber Choir, Solosts of the Freiburger Barockorchester"
FLAGS DCP
INDEX 00 40:35:33
INDEX 01 40:38:03
TRACK 25 AUDIO
TITLE "Von Gott will ich nicht lassen (unvollstandige Cantate)"
PERFORMER "Nicol Matt, Nordic Chamber Choir, Solosts of the Freiburger Barockorchester"
FLAGS DCP
INDEX 00 41:34:24
INDEX 01 41:36:69
TRACK 26 AUDIO
TITLE "Von Gott will ich nich lassen, Cantate BWV 73"
PERFORMER "Nicol Matt, Nordic Chamber Choir, Solosts of the Freiburger Barockorchester"
FLAGS DCP
INDEX 00 42:25:07
INDEX 01 42:27:52
TRACK 27 AUDIO
TITLE "War' Gott nicht mit uns diese Zeit, Cantate BWV 14"
PERFORMER "Nicol Matt, Nordic Chamber Choir, Solosts of the Freiburger Barockorchester"
FLAGS DCP
INDEX 00 43:17:19
INDEX 01 43:19:64
TRACK 28 AUDIO
TITLE "Warum betrubst du dich, mein Herz BWV 420"
PERFORMER "Nicol Matt, Nordic Chamber Choir, Solosts of the Freiburger Barockorchester"
FLAGS DCP
INDEX 00 45:01:57
INDEX 01 45:04:27
TRACK 29 AUDIO
TITLE "Warum betrubst du dich, mein Herz Cantate BWV 47"
PERFORMER "Nicol Matt, Nordic Chamber Choir, Solosts of the Freiburger Barockorchester"
FLAGS DCP
INDEX 00 45:44:08
INDEX 01 45:46:53
Chorales From the Breitkopf-Edition "389 Choräle"
CD1
1. Warum sollt' ich mich denn gramen BWV 422
2. Was betrubst du dich, mein Herze BWV 423
3. Was bist du doch, o Seele, so betrubet BWV 424
4. Was Gott thut. das ist wohlgethan. Cantate BWV 144
5. Was Gott thut. das ist wohlgethan. Cantate BWV 99
6. Was mein Gott will, das g'scheh' allzeit. Matthaus Passion BWV 244
7. Was mein Gott will, das g'scheh' allzeit. Cantate BWV 144
8. Was mein Gott will, das g'scheh' allzeit, Cantate BWV 72
9. Was mein Gott will, das g'scheh' allzeit. CantateBWV 111
10. Was mein Gott will, das g'scheh' allzeit, Cantate BWV 65
11. Was mein Gott will, das g'scheh' allzeit. Cantate BWV 92
12. Was mein Gott will, das g'scheh' allzeit, Cantate BWV 103
13. Was willst du dich, o meine Seele BWV 425
14. Weltlich Ehr' und zeitlich Gut BWV 426
15. Wenn ich in Angst und Noth BWV 427
16. Wenn mein Stundlein vorhanden ist BWV 430
17. Wenn wir in hochsten Nothen sein BWV 431
18. Wenn wir in hochsten Nothen sein BWV 432
19. Werde munter, mein Gemuthe. Cantate BWV 116
20. Werde munter, mein Gemuthe. Matthaus Passion BWV 244
21. Werde munter, mein Gemuthe BWV 3601
22. Werde munter, mein Gemuthe. Cantate BWV 154
23. Wer Gott vertraut, hat wohlgebaut BWV 433
24. Wer nur den lieben Gott lasst walten BWV 434
25. Wer nur den lieben Gott lasst walten. Cantate BWV 88
26. Wer nur den lieben Gott lasst walten BWV 197
27. Wer nur den lieben Gott lasst walten. Cantate BWV 179
28. Wer nur den lieben Gott lasst walten. Cantate BWV 166
29. Wer nur den lieben Gott lasst walten. Cantate BWV 84
30. Wie bist du. Seele, in mir so aar betrubt BWV 435
31. Wie schon leuchtet der Morgenstern. Cantate BWV 36
32. Wo Gott der Herr nicht bei uns halt BWV 258
33. Wo Gott der Herr nicht bei uns halt. Cantate BWV 178
34. Wo Gott der Herr nicht bei uns halt BWV 256
35. Wo Gott der Herr nicht bei uns halt. Cantate BWV 114
36. Wo Gott der Herr nicht bei uns halt BWV 257
37. Wo Gott zum Haus nicht gibt sein' Gunst BWV 438
CD2
1. Jesu, meine Freude, Cantate BWV 64
2. Jesu, meines Hesens Freud' BWV 361
3. Jesu, nun sei gepreiset BWV 362
4. Jesus, meine Zuversicht BWV 365
5. Ihr Gestirn', ihr hohlen Lufte BWV 366
6. In allen meinen Thaten BWV 367
7. Ist Gott mein Schild und Helfersmann, Cantate BWV 85)
8. Keinen hat Gott verlassen BWV 369
9. Komm, Gott Schopfer, heiliger Geist BWV 370
10. Komm, heiliger Geist, Herre Gott BWV 226
11. Komm, Jesu komm, BWV 229
12. Kommt her zu mir, spricht Gottes Sohn. Cantate BWV 74
13. Kommt her zu mir. spricht Gottes Sohn, Cantate BWV 108
14. Lass, o Herr, dein Ohr sich neigen BWV 372
15. Liebster Jesu, wir sind hier BWV 373
16. Liehster Immanuel. Herzog der Frommen. CantateBWV 123
17. Lohe den Herren, den machtigen Konig der Ehren., Cantate BWV 57
18. Lohet den Herren, denn er ist sehr freundlich BWV 374
19. Mach's mit mir, Gott, nach deiner Gut' BWV 377
20. Mach's mit mir, Gott, nach deiner Gut', Cantate BWV 139
21. Mein' Augen schliess' ich jetzt BWV 378
22. Meinen Jesum lass' ich nicht, Jesus BWV 379
23. Meinen Jesum lass' ich nicht BWV 380
24. Meinen Jesu in lass' ich nicht, Cantate BWV 157
25. Meinen Jesum lass' ich nicht, Cantate BWV 124
26. Meines Lebens letzte Zeil BWV 381
27. Mit Fried' und Freud' ich fahr' dahin BWV 382
28. Mit Fried' und Freud' ich fahr' dahin. Cantate BWV 83
29. Mit Fried' und Freud' ich fahr' dahin, CantateBWV 125
30. Mitten wir im Lehen sind BWV 383
31. Nicht so traurig, nicht so sehr BWV 384
32. Nun bitten wir den heiligen Geist BWV 385
33. Nun bitten wir den heiligen Geist. Cantate BWV 169
34. Nun danket alle Gott BWV 386
35. Nun freut euch, Gottes Kinder all BWV 387
36. Nun lasst uns Gott, dem Herren. Cantate BWV 165
37. Nun lob', mein' Seel', den Herren BWV 389
38. Nun lob', mein' Seel'. den Herren BWV 390
39. Nun preiset alle Gottes Barmherzigkeit BWV 391
40. Nun sich der Tag geendet hat BWV 396
41. O Ewigkeil, du Donnerwort BWV 397
42. O Ewigkeil, du Donnerwort, Cantate BWV 20
43. O Gott, du frommer Gott BWV 398
44. O Gott, du frommer Gott. Cantate BWV 64, 94
45. O Gott, du frommer Gott BWV 399
46. O Herre Gott, dein gotllich Wort, Cantate BWV 184
47. O Welt, ich muss dich lassen BWV 392
48. O wie selig seid ihr doch, ihr Frommen BWV 405
49. O wie selig seid ihr doch, ihr Frommen BWV 406
50. Schmucke dich, o liebe Seele, Cantate BWV 180
Performer/b]:
Nordic Chamber Choir,
Solosts of the Freiburger Barockorchester,
Nicol Matt
LOG CD1Exact Audio Copy V1.0 beta 1 from 15. November 2010
EAC extraction logfile from 19. October 2011, 21:06
Nicol Matt, Nordic Chamber Choir / Bach J.S. - Chorales (Breitkopf Edition) - CD1
Used drive : ASUS DRW-1814BL Adapter: 0 ID: 0
Read mode : Secure
Utilize accurate stream : Yes
Defeat audio cache : Yes
Make use of C2 pointers : No
Read offset correction : 6
Overread into Lead-In and Lead-Out : No
Fill up missing offset samples with silence : Yes
Delete leading and trailing silent blocks : No
Null samples used in CRC calculations : Yes
Used interface : Native Win32 interface for Win NT & 2000
Used output format : User Defined Encoder
Selected bitrate : 768 kBit/s
Quality : High
Add ID3 tag : No
Command line compressor : C:\Program Files\Exact Audio Copy\Flac\flac.exe
Additional command line options : -8 -V %s
TOC of the extracted CD
Track | Start | Length | Start sector | End sector
---------------------------------------------------------
1 | 0:01.00 | 0:51.74 | 75 | 3973
2 | 0:52.74 | 1:07.50 | 3974 | 9048
3 | 2:00.49 | 0:52.27 | 9049 | 12975
4 | 2:53.01 | 0:51.73 | 12976 | 16873
5 | 3:44.74 | 0:51.26 | 16874 | 20724
6 | 4:36.25 | 1:00.14 | 20725 | 25238
7 | 5:36.39 | 1:12.40 | 25239 | 30678
8 | 6:49.04 | 1:04.62 | 30679 | 35540
9 | 7:53.66 | 1:09.45 | 35541 | 40760
10 | 9:03.36 | 2:22.05 | 40761 | 51415
11 | 11:25.41 | 1:04.46 | 51416 | 56261
12 | 12:30.12 | 1:51.24 | 56262 | 64610
13 | 14:21.36 | 1:30.34 | 64611 | 71394
14 | 15:51.70 | 0:58.56 | 71395 | 75800
15 | 16:50.51 | 0:47.34 | 75801 | 79359
16 | 17:38.10 | 1:01.32 | 79360 | 83966
17 | 18:39.42 | 1:13.28 | 83967 | 89469
18 | 19:52.70 | 0:58.14 | 89470 | 93833
19 | 20:51.09 | 0:52.11 | 93834 | 97744
20 | 21:43.20 | 0:54.48 | 97745 | 101842
21 | 22:37.68 | 0:59.05 | 101843 | 106272
22 | 23:36.73 | 0:55.05 | 106273 | 110402
23 | 24:32.03 | 1:33.40 | 110403 | 117417
24 | 26:05.43 | 0:58.16 | 117418 | 121783
25 | 27:03.59 | 0:51.29 | 121784 | 125637
26 | 27:55.13 | 0:46.00 | 125638 | 129087
27 | 28:41.13 | 0:54.70 | 129088 | 133207
28 | 29:36.08 | 0:49.72 | 133208 | 136954
29 | 30:26.05 | 0:46.62 | 136955 | 140466
30 | 31:12.67 | 0:44.42 | 140467 | 143808
31 | 31:57.34 | 1:06.66 | 143809 | 148824
32 | 33:04.25 | 0:50.53 | 148825 | 152627
33 | 33:55.03 | 1:35.19 | 152628 | 159771
34 | 35:30.22 | 0:51.04 | 159772 | 163600
35 | 36:21.26 | 0:53.57 | 163601 | 167632
36 | 37:15.08 | 0:53.60 | 167633 | 171667
37 | 38:08.68 | 0:28.55 | 171668 | 173822
Range status and errors
Selected range
Filename C:\Program Files\Exact Audio Copy\Flac\Bach J.S. - Chorales (Breitkopf Edition) - CD1.wav
Peak level 86.4 %
Extraction speed 0.0 X
Range quality 100.0 %
Test CRC 26C009A6
Copy CRC 26C009A6
Copy OK
No errors occurred
AccurateRip summary
Track 1 accurately ripped (confidence 10) [E741AC8D]
Track 2 accurately ripped (confidence 10) [BBD900E2]
Track 3 accurately ripped (confidence 10) [B161CEBD]
Track 4 accurately ripped (confidence 10) [B6794A79]
Track 5 accurately ripped (confidence 10) [686771C1]
Track 6 accurately ripped (confidence 10) [65536A95]
Track 7 accurately ripped (confidence 10) [12C565F7]
Track 8 accurately ripped (confidence 10) [84146967]
Track 9 accurately ripped (confidence 10) [1FBDD0DE]
Track 10 accurately ripped (confidence 10) [E4661A17]
Track 11 accurately ripped (confidence 10) [91BB3393]
Track 12 accurately ripped (confidence 10) [74B2C2D5]
Track 13 accurately ripped (confidence 10) [D818D81A]
Track 14 accurately ripped (confidence 10) [3E8A7AAA]
Track 15 accurately ripped (confidence 10) [B69822B7]
Track 16 accurately ripped (confidence 10) [BC92FDEB]
Track 17 accurately ripped (confidence 10) [3DF93501]
Track 18 accurately ripped (confidence 10) [982FDEE3]
Track 19 accurately ripped (confidence 10) [48CEE13A]
Track 20 accurately ripped (confidence 10) [3589D23D]
Track 21 accurately ripped (confidence 10) [794CAEB1]
Track 22 accurately ripped (confidence 10) [AF60853D]
Track 23 accurately ripped (confidence 10) [AC1925FF]
Track 24 accurately ripped (confidence 10) [CE7B6B73]
Track 25 accurately ripped (confidence 10) [BB348CBA]
Track 26 accurately ripped (confidence 10) [7F04785A]
Track 27 accurately ripped (confidence 10) [39E35707]
Track 28 accurately ripped (confidence 10) [262FC6E0]
Track 29 accurately ripped (confidence 10) [1C3C302F]
Track 30 accurately ripped (confidence 10) [12BC0387]
Track 31 accurately ripped (confidence 10) [54CCBA8C]
Track 32 accurately ripped (confidence 10) [FB5980F2]
Track 33 accurately ripped (confidence 10) [24713BFE]
Track 34 accurately ripped (confidence 10) [2ABA44C0]
Track 35 accurately ripped (confidence 10) [EEE3EC23]
Track 36 accurately ripped (confidence 10) [5613AD5E]
Track 37 accurately ripped (confidence 10) [624F2F18]
All tracks accurately ripped
End of status report
==== Log checksum D9E466A10E7A8D0B8F6D43FA98F21008520A90BD3A4F1552FBF7E5716F9CBA12 ====

LOG CD2

Exact Audio Copy V1.0 beta 1 from 15. November 2010
EAC extraction logfile from 19. October 2011, 21:45
Nicol Matt, Nordic Chamber Choir / Bach J.S. - Chorales (Breitkopf Edition) - CD2
Used drive : ASUS DRW-1814BL Adapter: 0 ID: 0
Read mode : Secure
Utilize accurate stream : Yes
Defeat audio cache : Yes
Make use of C2 pointers : No
Read offset correction : 6
Overread into Lead-In and Lead-Out : No
Fill up missing offset samples with silence : Yes
Delete leading and trailing silent blocks : No
Null samples used in CRC calculations : Yes
Used interface : Native Win32 interface for Win NT & 2000
Used output format : User Defined Encoder
Selected bitrate : 768 kBit/s
Quality : High
Add ID3 tag : No
Command line compressor : C:\Program Files\Exact Audio Copy\Flac\flac.exe
Additional command line options : -8 -V %s
TOC of the extracted CD
Track | Start | Length | Start sector | End sector
---------------------------------------------------------
1 | 0:00.00 | 1:10.61 | 0 | 5310
2 | 1:10.61 | 0:56.49 | 5311 | 9559
3 | 2:07.35 | 1:47.25 | 9560 | 17609
4 | 3:54.60 | 0:53.28 | 17610 | 21612
5 | 4:48.13 | 0:39.26 | 21613 | 24563
6 | 5:27.39 | 0:45.18 | 24564 | 27956
7 | 6:12.57 | 1:45.59 | 27957 | 35890
8 | 7:58.41 | 0:57.55 | 35891 | 40220
9 | 8:56.21 | 0:34.21 | 40221 | 42791
10 | 9:30.42 | 1:30.23 | 42792 | 49564
11 | 11:00.65 | 1:20.29 | 49565 | 55593
12 | 12:21.19 | 1:30.19 | 55594 | 62362
13 | 13:51.38 | 0:48.40 | 62363 | 66002
14 | 14:40.03 | 1:12.50 | 66003 | 71452
15 | 15:52.53 | 0:55.00 | 71453 | 75577
16 | 16:47.53 | 1:58.27 | 75578 | 84454
17 | 18:46.05 | 1:17.18 | 84455 | 90247
18 | 20:03.23 | 1:10.28 | 90248 | 95525
19 | 21:13.51 | 0:49.00 | 95526 | 99200
20 | 22:02.51 | 1:24.32 | 99201 | 105532
21 | 23:27.08 | 1:09.30 | 105533 | 110737
22 | 24:36.38 | 0:53.51 | 110738 | 114763
23 | 25:30.14 | 0:53.21 | 114764 | 118759
24 | 26:23.35 | 0:50.35 | 118760 | 122544
25 | 27:13.70 | 0:52.03 | 122545 | 126447
26 | 28:05.73 | 1:04.13 | 126448 | 131260
27 | 29:10.11 | 0:52.19 | 131261 | 135179
28 | 30:02.30 | 0:47.59 | 135180 | 138763
29 | 30:50.14 | 0:49.00 | 138764 | 142438
30 | 31:39.14 | 2:15.02 | 142439 | 152565
31 | 33:54.16 | 0:47.61 | 152566 | 156151
32 | 34:42.02 | 0:56.06 | 156152 | 160357
33 | 35:38.08 | 1:06.44 | 160358 | 165351
34 | 36:44.52 | 0:54.55 | 165352 | 169456
35 | 37:39.32 | 0:35.72 | 169457 | 172153
36 | 38:15.29 | 1:02.50 | 172154 | 176853
37 | 39:18.04 | 1:27.03 | 176854 | 183381
38 | 40:45.07 | 1:03.10 | 183382 | 188116
39 | 41:48.17 | 0:46.62 | 188117 | 191628
40 | 42:35.04 | 0:34.08 | 191629 | 194186
41 | 43:09.12 | 2:34.61 | 194187 | 205797
42 | 45:43.73 | 1:53.63 | 205798 | 214335
43 | 47:37.61 | 1:44.35 | 214336 | 222170
44 | 49:22.21 | 2:16.02 | 222171 | 232372
45 | 51:38.23 | 0:59.41 | 232373 | 236838
46 | 52:37.64 | 2:04.22 | 236839 | 246160
47 | 54:42.11 | 0:56.43 | 246161 | 250403
48 | 55:38.54 | 0:48.50 | 250404 | 254053
49 | 56:27.29 | 0:46.48 | 254054 | 257551
50 | 57:14.02 | 2:20.20 | 257552 | 268071
Range status and errors
Selected range
Filename C:\Program Files\Exact Audio Copy\Flac\Bach J.S. - Chorales (Breitkopf Edition) - CD2.wav
Peak level 88.6 %
Extraction speed 0.1 X
Range quality 100.0 %
Test CRC 52D2B3B0
Copy CRC 52D2B3B0
Copy OK
No errors occurred
AccurateRip summary
Track 1 accurately ripped (confidence 10) [2E1AC7B4]
Track 2 accurately ripped (confidence 10) [ABC8FDA9]
Track 3 accurately ripped (confidence 10) [15714C3A]
Track 4 accurately ripped (confidence 10) [58087F8D]
Track 5 accurately ripped (confidence 10) [CFA43F44]
Track 6 accurately ripped (confidence 10) [AD62CAD8]
Track 7 accurately ripped (confidence 10) [B0F640BB]
Track 8 accurately ripped (confidence 10) [9058083B]
Track 9 accurately ripped (confidence 10) [EED5928F]
Track 10 accurately ripped (confidence 10) [2E5AE41D]
Track 11 accurately ripped (confidence 10) [0494AF57]
Track 12 accurately ripped (confidence 10) [A810594C]
Track 13 accurately ripped (confidence 10) [A6CA4745]
Track 14 accurately ripped (confidence 10) [CCC2798F]
Track 15 accurately ripped (confidence 10) [AF256AD4]
Track 16 accurately ripped (confidence 10) [B21057A7]
Track 17 accurately ripped (confidence 10) [06F98F96]
Track 18 accurately ripped (confidence 10) [55882DD0]
Track 19 accurately ripped (confidence 10) [7C610F16]
Track 20 accurately ripped (confidence 10) [BF057936]
Track 21 accurately ripped (confidence 10) [AD4922EB]
Track 22 accurately ripped (confidence 10) [CEA3A5A4]
Track 23 accurately ripped (confidence 10) [884B8CE2]
Track 24 accurately ripped (confidence 10) [FEB3D111]
Track 25 accurately ripped (confidence 10) [BAEB3B1C]
Track 26 accurately ripped (confidence 10) [CA80EDE9]
Track 27 accurately ripped (confidence 10) [2C6407EE]
Track 28 accurately ripped (confidence 10) [3D7C02AA]
Track 29 accurately ripped (confidence 10) [16767E83]
Track 30 accurately ripped (confidence 10) [122061DE]
Track 31 accurately ripped (confidence 10) [8FA358FD]
Track 32 accurately ripped (confidence 10) [70E76D34]
Track 33 accurately ripped (confidence 10) [D02146C1]
Track 34 accurately ripped (confidence 10) [6845B867]
Track 35 accurately ripped (confidence 10) [FD040BB5]
Track 36 accurately ripped (confidence 10) [233C6183]
Track 37 accurately ripped (confidence 10) [FB068099]
Track 38 accurately ripped (confidence 10) [EDDC681C]
Track 39 accurately ripped (confidence 10) [5CF8AD67]
Track 40 accurately ripped (confidence 10) [FD68F193]
Track 41 accurately ripped (confidence 10) [4B2E3252]
Track 42 accurately ripped (confidence 10) [8C637DA4]
Track 43 accurately ripped (confidence 10) [6E266BF7]
Track 44 accurately ripped (confidence 10) [8A10C9F9]
Track 45 accurately ripped (confidence 10) [F1BE3751]
Track 46 accurately ripped (confidence 10) [F98EC024]
Track 47 accurately ripped (confidence 10) [E6A2AC58]
Track 48 accurately ripped (confidence 10) [9375DC18]
Track 49 accurately ripped (confidence 10) [EB1CCCC1]
Track 50 accurately ripped (confidence 10) [5ACEEA37]
All tracks accurately ripped
End of status report
==== Log checksum 87F9FA0D50F6B1D9ADC215C300547DC1D061263D6F133592D48576E10A5B77B7 ====

CUE CD1

REM GENRE Classical
REM DATE 2006
REM DISCID FE090C25
REM COMMENT "ExactAudioCopy v1.0b1"
PERFORMER "Nicol Matt, Nordic Chamber Choir"
TITLE "Bach J.S. - Chorales (Breitkopf Edition) - CD1"
FILE "Bach J.S. - Chorales (Breitkopf Edition) - CD1.flac" WAVE
TRACK 01 AUDIO
TITLE "Warum sollt' ich mich denn gramen BWV 422"
PERFORMER "Nicol Matt, Nordic Chamber Choir"
FLAGS DCP
INDEX 00 00:00:00
INDEX 01 00:01:00
TRACK 02 AUDIO
TITLE "Was betrubst du dich, mein Herze BWV 423"
PERFORMER "Nicol Matt, Nordic Chamber Choir"
FLAGS DCP
INDEX 00 00:50:29
INDEX 01 00:52:74
TRACK 03 AUDIO
TITLE "Was bist du doch, o Seele, so betrubet BWV 424"
PERFORMER "Nicol Matt, Nordic Chamber Choir"
FLAGS DCP
INDEX 00 01:58:04
INDEX 01 02:00:49
TRACK 04 AUDIO
TITLE "Was Gott thut. das ist wohlgethan. Cantate BWV 144"
PERFORMER "Nicol Matt, Nordic Chamber Choir"
FLAGS DCP
INDEX 00 02:50:31
INDEX 01 02:53:01
TRACK 05 AUDIO
TITLE "Was Gott thut. das ist wohlgethan. Cantate BWV 99"
PERFORMER "Nicol Matt, Nordic Chamber Choir"
FLAGS DCP
INDEX 00 03:42:29
INDEX 01 03:44:74
TRACK 06 AUDIO
TITLE "Was mein Gott will, das g'scheh' allzeit. Matthaus Passion BWV 244"
PERFORMER "Nicol Matt, Nordic Chamber Choir"
FLAGS DCP
INDEX 00 04:33:55
INDEX 01 04:36:25
TRACK 07 AUDIO
TITLE "Was mein Gott will, das g'scheh' allzeit. Cantate BWV 144"
PERFORMER "Nicol Matt, Nordic Chamber Choir"
FLAGS DCP
INDEX 00 05:33:69
INDEX 01 05:36:39
TRACK 08 AUDIO
TITLE "Was mein Gott will, das g'scheh' allzeit, Cantate BWV 72"
PERFORMER "Nicol Matt, Nordic Chamber Choir"
FLAGS DCP
INDEX 00 06:46:34
INDEX 01 06:49:04
TRACK 09 AUDIO
TITLE "Was mein Gott will, das g'scheh' allzeit. CantateBWV 111"
PERFORMER "Nicol Matt, Nordic Chamber Choir"
FLAGS DCP
INDEX 00 07:51:21
INDEX 01 07:53:66
TRACK 10 AUDIO
TITLE "Was mein Gott will, das g'scheh' allzeit, Cantate BWV 65"
PERFORMER "Nicol Matt, Nordic Chamber Choir"
FLAGS DCP
INDEX 00 09:00:66
INDEX 01 09:03:36
TRACK 11 AUDIO
TITLE "Was mein Gott will, das g'scheh' allzeit. Cantate BWV 92"
PERFORMER "Nicol Matt, Nordic Chamber Choir"
FLAGS DCP
INDEX 00 11:22:71
INDEX 01 11:25:41
TRACK 12 AUDIO
TITLE "Was mein Gott will, das g'scheh' allzeit, Cantate BWV 103"
PERFORMER "Nicol Matt, Nordic Chamber Choir"
FLAGS DCP
INDEX 00 12:27:42
INDEX 01 12:30:12
TRACK 13 AUDIO
TITLE "Was willst du dich, o meine Seele BWV 425"
PERFORMER "Nicol Matt, Nordic Chamber Choir"
FLAGS DCP
INDEX 00 14:18:66
INDEX 01 14:21:36
TRACK 14 AUDIO
TITLE "Weltlich Ehr' und zeitlich Gut BWV 426"
PERFORMER "Nicol Matt, Nordic Chamber Choir"
FLAGS DCP
INDEX 00 15:49:25
INDEX 01 15:51:70
TRACK 15 AUDIO
TITLE "Wenn ich in Angst und Noth BWV 427"
PERFORMER "Nicol Matt, Nordic Chamber Choir"
FLAGS DCP
INDEX 00 16:48:06
INDEX 01 16:50:51
TRACK 16 AUDIO
TITLE "Wenn mein Stundlein vorhanden ist BWV 430"
PERFORMER "Nicol Matt, Nordic Chamber Choir"
FLAGS DCP
INDEX 00 17:35:40
INDEX 01 17:38:10
TRACK 17 AUDIO
TITLE "Wenn wir in hochsten Nothen sein BWV 431"
PERFORMER "Nicol Matt, Nordic Chamber Choir"
FLAGS DCP
INDEX 00 18:36:72
INDEX 01 18:39:42
TRACK 18 AUDIO
TITLE "Wenn wir in hochsten Nothen sein BWV 432"
PERFORMER "Nicol Matt, Nordic Chamber Choir"
FLAGS DCP
INDEX 00 19:50:25
INDEX 01 19:52:70
TRACK 19 AUDIO
TITLE "Werde munter, mein Gemuthe. Cantate BWV 116"
PERFORMER "Nicol Matt, Nordic Chamber Choir"
FLAGS DCP
INDEX 00 20:48:39
INDEX 01 20:51:09
TRACK 20 AUDIO
TITLE "Werde munter, mein Gemuthe. Matthaus Passion BWV 244"
PERFORMER "Nicol Matt, Nordic Chamber Choir"
FLAGS DCP
INDEX 00 21:40:50
INDEX 01 21:43:20
TRACK 21 AUDIO
TITLE "Werde munter, mein Gemuthe BWV 3601"
PERFORMER "Nicol Matt, Nordic Chamber Choir"
FLAGS DCP
INDEX 00 22:35:23
INDEX 01 22:37:68
TRACK 22 AUDIO
TITLE "Werde munter, mein Gemuthe. Cantate BWV 154"
PERFORMER "Nicol Matt, Nordic Chamber Choir"
FLAGS DCP
INDEX 00 23:34:28
INDEX 01 23:36:73
TRACK 23 AUDIO
TITLE "Wer Gott vertraut, hat wohlgebaut BWV 433"
PERFORMER "Nicol Matt, Nordic Chamber Choir"
FLAGS DCP
INDEX 00 24:29:33
INDEX 01 24:32:03
TRACK 24 AUDIO
TITLE "Wer nur den lieben Gott lasst walten BWV 434"
PERFORMER "Nicol Matt, Nordic Chamber Choir"
FLAGS DCP
INDEX 00 26:02:73
INDEX 01 26:05:43
TRACK 25 AUDIO
TITLE "Wer nur den lieben Gott lasst walten. Cantate BWV 88"
PERFORMER "Nicol Matt, Nordic Chamber Choir"
FLAGS DCP
INDEX 00 27:01:14
INDEX 01 27:03:59
TRACK 26 AUDIO
TITLE "Wer nur den lieben Gott lasst walten BWV 197"
PERFORMER "Nicol Matt, Nordic Chamber Choir"
FLAGS DCP
INDEX 00 27:52:43
INDEX 01 27:55:13
TRACK 27 AUDIO
TITLE "Wer nur den lieben Gott lasst walten. Cantate BWV 179"
PERFORMER "Nicol Matt, Nordic Chamber Choir"
FLAGS DCP
INDEX 00 28:38:43
INDEX 01 28:41:13
TRACK 28 AUDIO
TITLE "Wer nur den lieben Gott lasst walten. Cantate BWV 166"
PERFORMER "Nicol Matt, Nordic Chamber Choir"
FLAGS DCP
INDEX 00 29:33:38
INDEX 01 29:36:08
TRACK 29 AUDIO
TITLE "Wer nur den lieben Gott lasst walten. Cantate BWV 84"
PERFORMER "Nicol Matt, Nordic Chamber Choir"
FLAGS DCP
INDEX 00 30:23:35
INDEX 01 30:26:05
TRACK 30 AUDIO
TITLE "Wie bist du. Seele, in mir so aar betrubt BWV 435"
PERFORMER "Nicol Matt, Nordic Chamber Choir"
FLAGS DCP
INDEX 00 31:10:22
INDEX 01 31:12:67
TRACK 31 AUDIO
TITLE "Wie schon leuchtet der Morgenstern. Cantate BWV 36"
PERFORMER "Nicol Matt, Nordic Chamber Choir"
FLAGS DCP
INDEX 00 31:54:64
INDEX 01 31:57:34
TRACK 32 AUDIO
TITLE "Wo Gott der Herr nicht bei uns halt BWV 258"
PERFORMER "Nicol Matt, Nordic Chamber Choir"
FLAGS DCP
INDEX 00 33:01:55
INDEX 01 33:04:25
TRACK 33 AUDIO
TITLE "Wo Gott der Herr nicht bei uns halt. Cantate BWV 178"
PERFORMER "Nicol Matt, Nordic Chamber Choir"
FLAGS DCP
INDEX 00 33:52:33
INDEX 01 33:55:03
TRACK 34 AUDIO
TITLE "Wo Gott der Herr nicht bei uns halt BWV 256"
PERFORMER "Nicol Matt, Nordic Chamber Choir"
FLAGS DCP
INDEX 00 35:27:52
INDEX 01 35:30:22
TRACK 35 AUDIO
TITLE "Wo Gott der Herr nicht bei uns halt. Cantate BWV 114"
PERFORMER "Nicol Matt, Nordic Chamber Choir"
FLAGS DCP
INDEX 00 36:18:56
INDEX 01 36:21:26
TRACK 36 AUDIO
TITLE "Wo Gott der Herr nicht bei uns halt BWV 257"
PERFORMER "Nicol Matt, Nordic Chamber Choir"
FLAGS DCP
INDEX 00 37:12:38
INDEX 01 37:15:08
TRACK 37 AUDIO
TITLE "Wo Gott zum Haus nicht gibt sein' Gunst BWV 438"
PERFORMER "Nicol Matt, Nordic Chamber Choir"
FLAGS DCP
INDEX 00 38:06:23
INDEX 01 38:08:68

CUE CD2

REM GENRE Classical
REM DATE 2006
REM DISCID BE0DF632
REM COMMENT "ExactAudioCopy v1.0b1"
PERFORMER "Nicol Matt, Nordic Chamber Choir"
TITLE "Bach J.S. - Chorales (Breitkopf Edition) - CD2"
FILE "Bach J.S. - Chorales (Breitkopf Edition) - CD2.flac" WAVE
TRACK 01 AUDIO
TITLE "Jesu, meine Freude, Cantate BWV 64"
PERFORMER "Nicol Matt, Nordic Chamber Choir"
FLAGS DCP
INDEX 01 00:00:00
TRACK 02 AUDIO
TITLE "Jesu, meines Hesens Freud' BWV 361"
PERFORMER "Nicol Matt, Nordic Chamber Choir"
FLAGS DCP
INDEX 01 01:10:61
TRACK 03 AUDIO
TITLE "Jesu, nun sei gepreiset BWV 362"
PERFORMER "Nicol Matt, Nordic Chamber Choir"
FLAGS DCP
INDEX 01 02:07:35
TRACK 04 AUDIO
TITLE "Jesus, meine Zuversicht BWV 365"
PERFORMER "Nicol Matt, Nordic Chamber Choir"
FLAGS DCP
INDEX 01 03:54:60
TRACK 05 AUDIO
TITLE "Ihr Gestirn', ihr hohlen Lufte BWV 366"
PERFORMER "Nicol Matt, Nordic Chamber Choir"
FLAGS DCP
INDEX 01 04:48:13
TRACK 06 AUDIO
TITLE "In allen meinen Thaten BWV 367"
PERFORMER "Nicol Matt, Nordic Chamber Choir"
FLAGS DCP
INDEX 01 05:27:39
TRACK 07 AUDIO
TITLE "Ist Gott mein Schild und Helfersmann, Cantate BWV 85"
PERFORMER "Nicol Matt, Nordic Chamber Choir"
FLAGS DCP
INDEX 01 06:12:57
TRACK 08 AUDIO
TITLE "Keinen hat Gott verlassen BWV 369"
PERFORMER "Nicol Matt, Nordic Chamber Choir"
FLAGS DCP
INDEX 01 07:58:41
TRACK 09 AUDIO
TITLE "Komm, Gott Schopfer, heiliger Geist BWV 370"
PERFORMER "Nicol Matt, Nordic Chamber Choir"
FLAGS DCP
INDEX 01 08:56:21
TRACK 10 AUDIO
TITLE "Komm, heiliger Geist, Herre Gott BWV 226"
PERFORMER "Nicol Matt, Nordic Chamber Choir"
FLAGS DCP
INDEX 01 09:30:42
TRACK 11 AUDIO
TITLE "Komm, Jesu komm, BWV 229"
PERFORMER "Nicol Matt, Nordic Chamber Choir"
FLAGS DCP
INDEX 01 11:00:65
TRACK 12 AUDIO
TITLE "Kommt her zu mir, spricht Gottes Sohn. Cantate BWV 74"
PERFORMER "Nicol Matt, Nordic Chamber Choir"
FLAGS DCP
INDEX 01 12:21:19
TRACK 13 AUDIO
TITLE "Kommt her zu mir. spricht Gottes Sohn, Cantate BWV 108"
PERFORMER "Nicol Matt, Nordic Chamber Choir"
FLAGS DCP
INDEX 01 13:51:38
TRACK 14 AUDIO
TITLE "Lass, o Herr, dein Ohr sich neigen BWV 372"
PERFORMER "Nicol Matt, Nordic Chamber Choir"
FLAGS DCP
INDEX 01 14:40:03
TRACK 15 AUDIO
TITLE "Liebster Jesu, wir sind hier BWV 373"
PERFORMER "Nicol Matt, Nordic Chamber Choir"
FLAGS DCP
INDEX 01 15:52:53
TRACK 16 AUDIO
TITLE "Liehster Immanuel. Herzog der Frommen. CantateBWV 123"
PERFORMER "Nicol Matt, Nordic Chamber Choir"
FLAGS DCP
INDEX 01 16:47:53
TRACK 17 AUDIO
TITLE "Lohe den Herren, den machtigen Konig der Ehren., Cantate BWV 57"
PERFORMER "Nicol Matt, Nordic Chamber Choir"
FLAGS DCP
INDEX 01 18:46:05
TRACK 18 AUDIO
TITLE "Lohet den Herren, denn er ist sehr freundlich BWV 374"
PERFORMER "Nicol Matt, Nordic Chamber Choir"
FLAGS DCP
INDEX 01 20:03:23
TRACK 19 AUDIO
TITLE "Mach's mit mir, Gott, nach deiner Gut' BWV 377"
PERFORMER "Nicol Matt, Nordic Chamber Choir"
FLAGS DCP
INDEX 01 21:13:51
TRACK 20 AUDIO
TITLE "Mach's mit mir, Gott, nach deiner Gut', Cantate BWV 139"
PERFORMER "Nicol Matt, Nordic Chamber Choir"
FLAGS DCP
INDEX 01 22:02:51
TRACK 21 AUDIO
TITLE "Mein' Augen schliess' ich jetzt BWV 378"
PERFORMER "Nicol Matt, Nordic Chamber Choir"
FLAGS DCP
INDEX 01 23:27:08
TRACK 22 AUDIO
TITLE "Meinen Jesum lass' ich nicht, Jesus BWV 379"
PERFORMER "Nicol Matt, Nordic Chamber Choir"
FLAGS DCP
INDEX 01 24:36:38
TRACK 23 AUDIO
TITLE "Meinen Jesum lass' ich nicht BWV 380"
PERFORMER "Nicol Matt, Nordic Chamber Choir"
FLAGS DCP
INDEX 01 25:30:14
TRACK 24 AUDIO
TITLE "Meinen Jesu in lass' ich nicht, Cantate BWV 157"
PERFORMER "Nicol Matt, Nordic Chamber Choir"
FLAGS DCP
INDEX 01 26:23:35
TRACK 25 AUDIO
TITLE "Meinen Jesum lass' ich nicht, Cantate BWV 124"
PERFORMER "Nicol Matt, Nordic Chamber Choir"
FLAGS DCP
INDEX 01 27:13:70
TRACK 26 AUDIO
TITLE "Meines Lebens letzte Zeil BWV 381"
PERFORMER "Nicol Matt, Nordic Chamber Choir"
FLAGS DCP
INDEX 01 28:05:73
TRACK 27 AUDIO
TITLE "Mit Fried' und Freud' ich fahr' dahin BWV 382"
PERFORMER "Nicol Matt, Nordic Chamber Choir"
FLAGS DCP
INDEX 01 29:10:11
TRACK 28 AUDIO
TITLE "Mit Fried' und Freud' ich fahr' dahin. Cantate BWV 83"
PERFORMER "Nicol Matt, Nordic Chamber Choir"
FLAGS DCP
INDEX 01 30:02:30
TRACK 29 AUDIO
TITLE "Mit Fried' und Freud' ich fahr' dahin, CantateBWV 125"
PERFORMER "Nicol Matt, Nordic Chamber Choir"
FLAGS DCP
INDEX 01 30:50:14
TRACK 30 AUDIO
TITLE "Mitten wir im Lehen sind BWV 383"
PERFORMER "Nicol Matt, Nordic Chamber Choir"
FLAGS DCP
INDEX 01 31:39:14
TRACK 31 AUDIO
TITLE "Nicht so traurig, nicht so sehr BWV 384"
PERFORMER "Nicol Matt, Nordic Chamber Choir"
FLAGS DCP
INDEX 01 33:54:16
TRACK 32 AUDIO
TITLE "Nun bitten wir den heiligen Geist BWV 385"
PERFORMER "Nicol Matt, Nordic Chamber Choir"
FLAGS DCP
INDEX 01 34:42:02
TRACK 33 AUDIO
TITLE "Nun bitten wir den heiligen Geist. Cantate BWV 169"
PERFORMER "Nicol Matt, Nordic Chamber Choir"
FLAGS DCP
INDEX 01 35:38:08
TRACK 34 AUDIO
TITLE "Nun danket alle Gott BWV 386"
PERFORMER "Nicol Matt, Nordic Chamber Choir"
FLAGS DCP
INDEX 01 36:44:52
TRACK 35 AUDIO
TITLE "Nun freut euch, Gottes Kinder all BWV 387"
PERFORMER "Nicol Matt, Nordic Chamber Choir"
FLAGS DCP
INDEX 01 37:39:32
TRACK 36 AUDIO
TITLE "Nun lasst uns Gott, dem Herren. Cantate BWV 165"
PERFORMER "Nicol Matt, Nordic Chamber Choir"
FLAGS DCP
INDEX 01 38:15:29
TRACK 37 AUDIO
TITLE "Nun lob', mein' Seel', den Herren BWV 389"
PERFORMER "Nicol Matt, Nordic Chamber Choir"
FLAGS DCP
INDEX 01 39:18:04
TRACK 38 AUDIO
TITLE "Nun lob', mein' Seel'. den Herren BWV 390"
PERFORMER "Nicol Matt, Nordic Chamber Choir"
FLAGS DCP
INDEX 01 40:45:07
TRACK 39 AUDIO
TITLE "Nun preiset alle Gottes Barmherzigkeit BWV 391"
PERFORMER "Nicol Matt, Nordic Chamber Choir"
FLAGS DCP
INDEX 01 41:48:17
TRACK 40 AUDIO
TITLE "Nun sich der Tag geendet hat BWV 396"
PERFORMER "Nicol Matt, Nordic Chamber Choir"
FLAGS DCP
INDEX 01 42:35:04
TRACK 41 AUDIO
TITLE "O Ewigkeil, du Donnerwort BWV 397"
PERFORMER "Nicol Matt, Nordic Chamber Choir"
FLAGS DCP
INDEX 01 43:09:12
TRACK 42 AUDIO
TITLE "O Ewigkeil, du Donnerwort, Cantate BWV 20"
PERFORMER "Nicol Matt, Nordic Chamber Choir"
FLAGS DCP
INDEX 01 45:43:73
TRACK 43 AUDIO
TITLE "O Gott, du frommer Gott BWV 398"
PERFORMER "Nicol Matt, Nordic Chamber Choir"
FLAGS DCP
INDEX 01 47:37:61
TRACK 44 AUDIO
TITLE "O Gott, du frommer Gott. Cantate BWV 64, 94"
PERFORMER "Nicol Matt, Nordic Chamber Choir"
FLAGS DCP
INDEX 01 49:22:21
TRACK 45 AUDIO
TITLE "O Gott, du frommer Gott BWV 399"
PERFORMER "Nicol Matt, Nordic Chamber Choir"
FLAGS DCP
INDEX 01 51:38:23
TRACK 46 AUDIO
TITLE "O Herre Gott, dein gotllich Wort, Cantate BWV 184"
PERFORMER "Nicol Matt, Nordic Chamber Choir"
FLAGS DCP
INDEX 01 52:37:64
TRACK 47 AUDIO
TITLE "O Welt, ich muss dich lassen BWV 392"
PERFORMER "Nicol Matt, Nordic Chamber Choir"
FLAGS DCP
INDEX 01 54:42:11
TRACK 48 AUDIO
TITLE "O wie selig seid ihr doch, ihr Frommen BWV 405"
PERFORMER "Nicol Matt, Nordic Chamber Choir"
FLAGS DCP
INDEX 01 55:38:54
TRACK 49 AUDIO
TITLE "O wie selig seid ihr doch, ihr Frommen BWV 406"
PERFORMER "Nicol Matt, Nordic Chamber Choir"
FLAGS DCP
INDEX 01 56:27:29
TRACK 50 AUDIO
TITLE "Schmucke dich, o liebe Seele, Cantate BWV 180"
PERFORMER "Nicol Matt, Nordic Chamber Choir"
FLAGS DCP
INDEX 01 57:14:02
Bach Edition - Vocal Works Vol. I
Bach Edition - Vocal Works Vol. II
Bach Edition - Passions
Bach Edition - Orchestral Works & Concertos
Bach Edition - Keyboard Works Vol.I
Bach Edition - Keyboard Works Vol.II
Bach Edition - Organ Works Vol.II
И.С. Бах - Полное собрание сочинений, [Brilliant Classics], 160 CD
[teatrix.ru].t18023.torrent 
Торрент: Зарегистрирован [ 2016-03-17 00:45 ] · 46E04832C04F1E9A3FEDBA284C154485CE538635

Скачать .torrent

Скачать

26 KB

Статус: проверено
Скачан: 0 раз
Размер: 1.91 GB
terms.php



Быстрый ответ

Имя:

      
Для отправки сообщений необходимо включить JavaScript
Показать сообщения:    

Текущее время: 05-Дек 01:24

Часовой пояс: UTC + 3


Вы можете начинать темы
Вы можете отвечать на сообщения
Вы не можете редактировать свои сообщения
Вы не можете удалять свои сообщения
Вы не можете голосовать в опросах
Вы не можете прикреплять файлы к сообщениям
Вы можете скачивать файлы