(20th Century Concertos Orchestral Sacred) Wojciech Kilar - Piano Concerto, Bogurodzica, Siwa Mgla, Koscielec 1909 (Waldemar Malicki, Wieslaw Ochman, Warsaw National Philharmonic Choir and Orchestra, Antoni Wit)- 2006, FLAC (image+.cue) lossless


Статистика раздачи [Обновить пиров]
Размер:  298 MB   |    Зарегистрирован:  8 месяцев 18 дней   |    Скачан:  0 раз

Полного источника не было: Никогда

 
   
 
 
 

[Цитировать]

Wojciech Kilar - Piano Concerto, Bogurodzica, Siwa Mgla, Koscielec 1909 (Waldemar Malicki, Wieslaw Ochman, Warsaw National Philharmonic Choir and Orchestra, Antoni Wit)
Жанр: 20th Century Concertos Orchestral Sacred
Страна-производитель диска: EU
Год издания диска: 2006
Издатель (лейбл): Naxos
Номер по каталогу: 8.557813
Дата записи: 2002
Аудиокодек: FLAC
Тип рипа: image+.cue
Битрейт аудио: lossless
Продолжительность: 01:08:46
Источник: скачано с
сайт-источник/ник/другое: WEB
Наличие сканов в содержимом раздачи: да
Треклист:
Войцех Киляр (17 июля 1932 — 29 декабря 2013)
1. Bogurodzica (Mother of God) / For mixed Chorus and Orchestra 10:52
2 – 4. Piano Concerto 25:48
I. Andante con moto 08:43
II. Corale 10:36
III. Toccata 06:31
5. Siwa Mgla (Grey Mist) / For Baritone and Orchestra 16:06
6. Koscielec 1909 / (Symphonic Poem) 15:55
Исполнители:
Waldemar Malicki (2-4, piano)
Wieslaw Ochman (5, baritone)
Warsaw National Philharmonic Choir and Orchestra
Antoni Wit

Лог создания рипа

Exact Audio Copy V1.0 beta 3 from 29. August 2011
EAC extraction logfile from 21. December 2013, 23:37
Wojciech Kilar / Piano Concerto, Mother of God, Grey Mist, Koscielec 1909
Used drive : TSSTcorpCDDVDW SH-S223C Adapter: 2 ID: 1
Read mode : Secure
Utilize accurate stream : Yes
Defeat audio cache : Yes
Make use of C2 pointers : No
Read offset correction : 697
Overread into Lead-In and Lead-Out : No
Fill up missing offset samples with silence : Yes
Delete leading and trailing silent blocks : No
Null samples used in CRC calculations : Yes
Used interface : Native Win32 interface for Win NT & 2000
Used output format : User Defined Encoder
Selected bitrate : 896 kBit/s
Quality : High
Add ID3 tag : No
Command line compressor : C:\Program Files (x86)\Exact Audio Copy\FLAC\FLAC.EXE
Additional command line options : -V -0 -T "COMMENT=Ripped by Tapaz9" -T "artist=%artist%" -T "title=%title%" -T "album=%albumtitle%" -T "date=%year%" -T "tracknumber=%tracknr%" -T "genre=%genre%" %source%
TOC of the extracted CD
Track | Start | Length | Start sector | End sector
---------------------------------------------------------
1 | 0:00.00 | 10:51.62 | 0 | 48886
2 | 10:51.62 | 8:42.46 | 48887 | 88082
3 | 19:34.33 | 10:36.36 | 88083 | 135818
4 | 30:10.69 | 6:31.48 | 135819 | 165191
5 | 36:42.42 | 16:06.08 | 165192 | 237649
6 | 52:48.50 | 15:55.18 | 237650 | 309292
Range status and errors
Selected range
Filename F:\Musique\Kilar, Wojciech\Kilar_PianoConcerto\Wojciech Kilar - Piano Concerto, Mother of God, Grey Mist, Koscielec 1909.wav
Peak level 100.0 %
Extraction speed 14.4 X
Range quality 100.0 %
Copy CRC CE21D3F2
Copy OK
No errors occurred
End of status report
==== Log checksum D6C29E84BC110FA7C757430576C459F2723B21E54327E233301A0F42E4094B8D ====
[teatrix.ru].t18024.torrent 
Торрент: Зарегистрирован [ 2016-03-17 00:45 ] · 7E934A5EFFF124BA36C4E4ABFAA54F247E12280F

Скачать .torrent

Скачать

13 KB

Статус: проверено
Скачан: 0 раз
Размер: 298 MB
terms.php



Быстрый ответ

Имя:

      
Для отправки сообщений необходимо включить JavaScript
Показать сообщения:    

Текущее время: 04-Дек 21:21

Часовой пояс: UTC + 3


Вы можете начинать темы
Вы можете отвечать на сообщения
Вы не можете редактировать свои сообщения
Вы не можете удалять свои сообщения
Вы не можете голосовать в опросах
Вы не можете прикреплять файлы к сообщениям
Вы можете скачивать файлы