(Classical) L. V. Beethoven - Piano Concerto No. 1, op. 15, F. Chopin - Etudes, S. Richter (Святослав Рихтер), C. Eschenbach - 1994, FLAC (image+.cue) lossless


Статистика раздачи [Обновить пиров]
Размер:  208 MB   |    Зарегистрирован:  8 месяцев 20 дней   |    Скачан:  0 раз

Полного источника не было: Никогда

 
   
 
 
 

[Цитировать]

L. V. Beethoven - Piano Concerto No. 1, op. 15, F. Chopin - Etudes, S. Richter (Святослав Рихтер), C. Eschenbach
Жанр: Classical
Страна-производитель диска: Germany
Год издания диска: 1994
Издатель (лейбл): RCA Victor RED SEAL
Дата записи: 1988
Аудиокодек: FLAC
Тип рипа: image+.cue
Битрейт аудио: lossless
Продолжительность: 57:52
Источник: скачано с
сайт-источник/ник/другое: odeonmusic.blogspot.com
Наличие сканов в содержимом раздачи: да
Треклист:
Ludwig Van Beethoven, Concerto No. 1, Op. 15 in C-dur
01. Allegro con brio [0:18:38.72]
02. Largo [0:11:22.38]
03. Rondo: Allegro scherzando [0:09:43.40]
Frederic Chopin, Etudes, Op. 10
04. No. 1-Allegro [0:02:13.67]
05. No. 2-Allegro, sempre legato [0:01:32.08]
06. No. 3-Lento ma non troppo [0:04:04.32]
07. No. 4-Presto [0:02:01.35]
08. No. 6-Andante con molto espressione [0:03:25.48]
09. No. 11-Allegretto [0:01:50.70]
10. No. 12-Allegro con fuoco [0:02:58.65]
Исполнители:
Sviatoslav Richter - piano
Orchestra of the Schleswig-Holstein Musik Festival
Christoph Eschenbach - conductor

Лог создания рипа

Exact Audio Copy V1.0 beta 3 from 29. August 2011
EAC extraction logfile from 25. July 2013, 16:03
Sviatoslav Richter / Beethoven – Piano Concerto No.1; Chopin - Etudes - Sviatoslav Richter
Used drive : TSSTcorpCDDVDW SH-222BB Adapter: 2 ID: 1
Read mode : Secure
Utilize accurate stream : Yes
Defeat audio cache : Yes
Make use of C2 pointers : No
Read offset correction : 6
Overread into Lead-In and Lead-Out : No
Fill up missing offset samples with silence : Yes
Delete leading and trailing silent blocks : No
Null samples used in CRC calculations : Yes
Used interface : Native Win32 interface for Win NT & 2000
Used output format : User Defined Encoder
Selected bitrate : 1024 kBit/s
Quality : High
Add ID3 tag : No
Command line compressor : C:\Program Files\Exact Audio Copy\Flac\flac.exe
Additional command line options : -8 -V -T "TITLE=%title%" -T "ARTIST=%artist%" -T "ALBUMARTIST=%albumartist%" -T "ALBUM=%albumtitle%" -T "DATE=%year%" -T "TRACKNUMBER=%tracknr%" -T "TRACKTOTAL=%numtracks%" -T "GENRE=%genre%" -T "COMMENT=%comment%" -T "PERFORMER=%albuminterpret%" -T "COMPOSER=%composer%" %source% -o %dest%
TOC of the extracted CD
Track | Start | Length | Start sector | End sector
---------------------------------------------------------
1 | 0:00.33 | 18:38.72 | 33 | 83954
2 | 18:39.30 | 11:22.38 | 83955 | 135142
3 | 30:01.68 | 9:43.40 | 135143 | 178907
4 | 39:45.33 | 2:13.67 | 178908 | 188949
5 | 41:59.25 | 1:32.08 | 188950 | 195857
6 | 43:31.33 | 4:04.32 | 195858 | 214189
7 | 47:35.65 | 2:01.35 | 214190 | 223299
8 | 49:37.25 | 3:25.48 | 223300 | 238722
9 | 53:02.73 | 1:50.70 | 238723 | 247042
10 | 54:53.68 | 2:58.65 | 247043 | 260457
Range status and errors
Selected range
Filename G:\Ripped general\[2319] Beethoven – Piano Concerto No.1; Chopin – Etudes – Sviatoslav Richter\Beethoven – Piano Concerto No.1; Chopin - Etudes - Sviatoslav Richter.wav
Peak level 93.4 %
Extraction speed 2.3 X
Range quality 100.0 %
Test CRC FD10E10E
Copy CRC FD10E10E
Copy OK
No errors occurred
AccurateRip summary
Track 1 accurately ripped (confidence 1) [9F09342B] (AR v1)
Track 2 accurately ripped (confidence 1) [3BB97390] (AR v1)
Track 3 accurately ripped (confidence 1) [A76248CA] (AR v1)
Track 4 accurately ripped (confidence 1) [3B5CA151] (AR v1)
Track 5 accurately ripped (confidence 1) [F518CEF6] (AR v1)
Track 6 accurately ripped (confidence 1) [EB9FE3B3] (AR v1)
Track 7 accurately ripped (confidence 1) [A1B47C89] (AR v1)
Track 8 accurately ripped (confidence 1) [864337FF] (AR v1)
Track 9 accurately ripped (confidence 1) [78E52034] (AR v1)
Track 10 accurately ripped (confidence 1) [B5EA0938] (AR v1)
All tracks accurately ripped
End of status report
[teatrix.ru].t18025.torrent 
Торрент: Зарегистрирован [ 2016-03-17 00:45 ] · 9B22507B042D2297CC0BDF4994DCA1EFA5731D55

Скачать .torrent

Скачать

18 KB

Статус: проверено
Скачан: 0 раз
Размер: 208 MB
terms.php



Быстрый ответ

Имя:

      
Для отправки сообщений необходимо включить JavaScript
Показать сообщения:    

Текущее время: 06-Дек 19:02

Часовой пояс: UTC + 3


Вы можете начинать темы
Вы можете отвечать на сообщения
Вы не можете редактировать свои сообщения
Вы не можете удалять свои сообщения
Вы не можете голосовать в опросах
Вы не можете прикреплять файлы к сообщениям
Вы можете скачивать файлы