6 Дней до Эфира: Создание Южного Парка / 6 Days to Air: The Making of South Park (Артур Брэдфорд) [2011; документальный; BDRip] VO (L0cDoG) + Original


Статистика раздачи [Обновить пиров]
Размер:  631 MB   |    Зарегистрирован:  8 месяцев 20 дней   |    Скачан:  1 раз

Полного источника не было: 4 дня

 
   
 
 
 

[Цитировать]

6 Дней до Эфира: Создание Южного Парка / 6 Days to Air: The Making of South Park-
  • Год выпуска: 2011
  • Страна: США
  • Жанр: документальный
  • Продолжительность: 00:42:04
  • Перевод: профессиональный (одноголосый, закадровый) - L0cDoG
  • Русские субтитры: нет
    -
  • Режиссер: Артур Брэдфорд
    -
  • Описание: Документальный фильм о создании мультсериала "Южный Парк".
    -
  • Ссылка на предыдущие и альтернативные раздачи
  • Семпл
    -
  • Качество: BDRip
  • Формат: AVI
  • Видео: Xvid, 720x400 (16:9), 23.976fps
  • Аудио:
  • MP3, 48000Hz, stereo, 128kbps (Russian: L0cDoG)
  • MP3, 48000Hz, stereo, 128kbps (English)
  • Субтитры: отсутствуют

    Подробные технические данные

    General
    Complete name : C:\Users\Сергей\Downloads\The.Making.of.South.Park.6.Days.To.Air.BDRip.Rus.Eng.Nice-media.avi
    Format : AVI
    Format/Info : Audio Video Interleave
    File size : 631 MiB
    Duration : 42mn 4s
    Overall bit rate : 2 098 Kbps
    Writing application : VirtualDubMod 1.5.10.2 (build 2540/release)
    Writing library : VirtualDubMod build 2540/release
    Video
    ID : 0
    Format : MPEG-4 Visual
    Format profile : Advanced Simple@L5
    Format settings, BVOP : Yes
    Format settings, QPel : No
    Format settings, GMC : No warppoints
    Format settings, Matrix : Default (H.263)
    Codec ID : XVID
    Codec ID/Hint : XviD
    Duration : 42mn 4s
    Bit rate : 1 828 Kbps
    Width : 720 pixels
    Height : 400 pixels
    Display aspect ratio : 16:9
    Original display aspect ratio : 16:9
    Frame rate : 23.976 fps
    Color space : YUV
    Chroma subsampling : 4:2:0
    Bit depth : 8 bits
    Scan type : Progressive
    Compression mode : Lossy
    Bits/(Pixel*Frame) : 0.265
    Stream size : 550 MiB (87%)
    Writing library : XviD 1.2.1 (UTC 2008-12-04)
    Audio #1
    ID : 1
    Format : MPEG Audio
    Format version : Version 1
    Format profile : Layer 3
    Mode : Joint stereo
    Codec ID : 55
    Codec ID/Hint : MP3
    Duration : 42mn 4s
    Bit rate mode : Constant
    Bit rate : 128 Kbps
    Channel count : 2 channels
    Sampling rate : 48.0 KHz
    Compression mode : Lossy
    Stream size : 38.5 MiB (6%)
    Alignment : Aligned on interleaves
    Interleave, duration : 42 ms (1.00 video frame)
    Interleave, preload duration : 504 ms
    Audio #2
    ID : 2
    Format : MPEG Audio
    Format version : Version 1
    Format profile : Layer 3
    Mode : Joint stereo
    Codec ID : 55
    Codec ID/Hint : MP3
    Duration : 42mn 4s
    Bit rate mode : Constant
    Bit rate : 128 Kbps
    Channel count : 2 channels
    Sampling rate : 48.0 KHz
    Compression mode : Lossy
    Stream size : 38.5 MiB (6%)
    Alignment : Aligned on interleaves
    Interleave, duration : 42 ms (1.00 video frame)
    Interleave, preload duration : 504 ms

    Скриншоты

    [teatrix.ru].t18028.torrent 
    Торрент: Зарегистрирован [ 2016-03-17 00:45 ] · F9F9C4DB3DA37C33AED6490ACEBF6D69ED36BD19

    Скачать .torrent

    Скачать

    13 KB

    Статус: проверено
    Скачан: 1 раз
    Размер: 631 MB
    terms.php



  • Показать сообщения:    

    Текущее время: 06-Дек 22:55

    Часовой пояс: UTC + 3


    Вы не можете начинать темы
    Вы не можете отвечать на сообщения
    Вы не можете редактировать свои сообщения
    Вы не можете удалять свои сообщения
    Вы не можете голосовать в опросах
    Вы не можете прикреплять файлы к сообщениям
    Вы можете скачивать файлы