(Classical / Oratorio / Orchestral) Robert Schumann - Das Paradies und die Peri • Ouverture, Scherzo und Finale (Julia Faulkner, Staatsopernchor Dresden, Staatskapelle Dresden, Giuseppe Sinopoli, 1993/1994) - 1995, FLAC (image+.cue) lossless


Статистика раздачи [Обновить пиров]
Размер:  473 MB   |    Зарегистрирован:  8 месяцев 20 дней   |    Скачан:  0 раз

Полного источника не было: Никогда

 
   
 
 
 

[Цитировать]

Robert Schumann | Роберт Шуманн
(1810–1856)



Das Paradies und die Peri | Ouvertüre, Scherzo und Finale
Рай и Пери | Увертюра, Скерцо и Финал


Julia FaulknerHeidi Grant MurphyFlorence QuivarElisabeth Wilke
Keith LewisRobert SwensenRobert Hale
Staatsopernchor Dresden (Hans-Dieter Pflüger chorus master)
Staatskapelle Dresden
Giuseppe Sinopoli conductor


Жанр: Classical / Oratorio / Orchestral
Даты и место записи: Dresden, Semperoper, 1993, 1994
Формат записи: DDD, Stereo
Год издания диска: 1995
Издатель (лейбл): Deutsche Grammophon
Номер по каталогу: 445 875-2
Аудиокодек: FLAC
Тип рипа: image+.cue
Битрейт аудио: lossless
Продолжительность: 1:52:38
Наличие сканов в содержимом раздачи: да
Источник: блог OdeonMusic

-Tracklist / ТреклистCD 1
«Das Paradies und die Peri» - 1:34:38
für Solostimmen, Chor und Orchester, Op. 50
Text: Emil Flechsig & Robert Schumann nach Thomas Moore («Lalla Rookh»)

Erster Teil - 25:30
Nr. 1. «Vor Edens Tor im Morgenprangen» - 3:42
  • Nr. 2. «Wie glücklich sie wandeln, die sel'gen Geister» - 2:29
  • Nr. 3. Rezitativ: «Der hehre Engel, der die Pforte des Lichts bewacht» — «Dir, Kind des Stamms, schön, doch voll Sünden» - 1:55
  • Nr. 4. «Wo find' ich sie? Wo blüht, wo liegt die Gabe» - 2:08
  • Nr. 5. «So sann sie nach und schwang die Flügel» — «O süßes Land! O Götterpracht!» - 1:05
  • Nr. 6. «Doch seine Ströme sind jetzt rot» - 2:50
  • Nr. 7. «Und einsam steht ein Jüngling noch» — «Komm, kühner Held, und huld'ge mir» — «Du schlugst des Landes Bürger» - 2:23
  • Nr. 8. «Weh, weh, weh, er fehlte das Ziel» - 2:08
  • Nr. 9. «Die Peri sah das Mal der Wunde» — «Sei dies, mein Geschenk, willkommen dorten» - 6:49
    Zweiter Teil - 29:14
    Nr. 10. «Die Peri tritt mit schüchterner Gebärde vor Edens Tor» — «Gern grüßen wir, die so gegangen» - 3:01
  • Nr. 11. «Ihr erstes Himmelshoffen schwand» — «Hervor aus den Wässern geschwind» / «Ach Eden, ach Eden» - 3:46
  • Nr. 12. «Fort streift von hier das Kind der Lüfte» — «Für euren ersten Fall» - 3:57
  • Nr. 13. «Die Peri weint» - 2:22
  • Nr. 14. «Im Waldesgrün am stillen See» — «Ach, einen Tropfen nur aus der See» - 3:04
  • Nr. 15. «Verlassener Jüngling» — «Doch sieh, wer naht dort leise schleichend» — «Du hier?» - 4:27
  • Nr. 16. «O laß mich von der Luft durchdringen» — «Sie wankt — sie sinkt» - 4:24
  • Nr. 17. «Schlaf nun und ruhe in Träumen voll Duft» - 4:13
    CD 2
    «Das Paradies und die Peri» (cont.)
    Dritter Teil - 39:54
    Nr. 18. «Schmücket die Stufen zu Allahs Thron» — «Auch der Geliebten vergesset nicht» — «Seht da, die Bahn zum ew'gen Licht» - 2:55
  • Nr. 19. «Dem Sang von Ferne lauschend» — «Noch nicht! Treu war die Maid» - 2:48
  • Nr. 20. «Verstoßen! Verschlossen aufs neu das Goldportal!» - 4:19
  • Nr. 21. «Jetzt sank des Abends goldner Schein» - 3:09
  • Nr. 22. «Und wie sie niederwärts sich schwingt» — «Peri, ist's wahr, daß du in den Himmel willst?» — «Mit ihrer Schwestern Worten wächst ihr Schmerz» - 4:01
  • Nr. 23. «Hinab zu jenem Sonnentempel!» — «Sie schwebt herab im frohen Hoffen» — «Doch horch, wie Vesperruf zum Beten» — «Und was fühlt er, der sünd'ge Mann» — «'s war eine Zeit, du selig Kind» - 6:38
  • Nr. 24. «O heil'ge Tränen inn'ger Reue» - 3:12
  • Nr. 25. «Es fällt ein Tropfen aufs Land Ägypten» — «Und sich, demütig betend kniet der Mann» - 6:21
  • Nr. 26. «Freud', ew'ge Freude, mein Werk ist getan» / «Willkommen, willkommen unter den Frommen!» - 6:31
    Julia Faulkner, soprano (die Peri, Vokalquartett: Sopran II)
    Heidi Grant Murphy, soprano (die Jungfrau, Vokalquartett: Sopran/Sopran I)
    Florence Quivar, mezzo-soprano (Mezzosopran-Solo, Alt-Solo, der Engel, Vokalquartett: Alt/Alt II)
    Elisabeth Wilke, mezzo-soprano (Vokalquartett: Alt I)
    Keith Lewis, tenor (Tenor-Solo)
    Robert Swensen, tenor (Tenor-Solo [Nrn. 7, 16, 23], der Jüngling, Vokalquartett: Tenor)
    Robert Hale, bass (Bariton-Solo, Gazna, der Mann, Vokalquartett: Bass)
    Staatsopernchor Dresden (Hans-Dieter Pflüger, chorus master)
    Staatskapelle Dresden
    Recorded: Dresden, Semperoper, III.1994

    Ouvertüre, Scherzo und Finale, Op. 52 - 18:00
    I. Ouvertüre. Andante con moto. — Allegro - 6:27
  • II. Scherzo. Vivo - 4:21
  • III. Finale. Allegro molto vivace - 7:13
    Staatskapelle Dresden
    Recorded: Dresden, Semperoper, VII & X.1993
    -

    EAC logs / Отчёты EACCD 1

    Exact Audio Copy V1.0 beta 3 from 29. August 2011
    EAC extraction logfile from 6. November 2013, 22:27
    Giuseppe Sinopoli / Schumann - Das Paradis und die Peri - Sinopoli (Disc 1)
    Used drive : TSSTcorpCDDVDW SH-222BB Adapter: 2 ID: 1
    Read mode : Secure
    Utilize accurate stream : Yes
    Defeat audio cache : Yes
    Make use of C2 pointers : No
    Read offset correction : 6
    Overread into Lead-In and Lead-Out : No
    Fill up missing offset samples with silence : Yes
    Delete leading and trailing silent blocks : No
    Null samples used in CRC calculations : Yes
    Used interface : Native Win32 interface for Win NT & 2000
    Used output format : User Defined Encoder
    Selected bitrate : 1024 kBit/s
    Quality : High
    Add ID3 tag : No
    Command line compressor : C:\Program Files\Exact Audio Copy\Flac\flac.exe
    Additional command line options : -8 -V -T "TITLE=%title%" -T "ARTIST=%artist%" -T "ALBUMARTIST=%albumartist%" -T "ALBUM=%albumtitle%" -T "DATE=%year%" -T "TRACKNUMBER=%tracknr%" -T "TRACKTOTAL=%numtracks%" -T "GENRE=%genre%" -T "COMMENT=%comment%" -T "PERFORMER=%albuminterpret%" -T "COMPOSER=%composer%" %source% -o %dest%
    TOC of the extracted CD
    Track | Start | Length | Start sector | End sector
    ---------------------------------------------------------
    1 | 0:00.33 | 3:42.05 | 33 | 16687
    2 | 3:42.38 | 2:28.57 | 16688 | 27844
    3 | 6:11.20 | 1:55.23 | 27845 | 36492
    4 | 8:06.43 | 2:08.15 | 36493 | 46107
    5 | 10:14.58 | 1:05.15 | 46108 | 50997
    6 | 11:19.73 | 2:50.05 | 50998 | 63752
    7 | 14:10.03 | 2:23.32 | 63753 | 74509
    8 | 16:33.35 | 2:07.63 | 74510 | 84097
    9 | 18:41.23 | 6:49.12 | 84098 | 114784
    10 | 25:30.35 | 3:00.73 | 114785 | 128357
    11 | 28:31.33 | 3:45.65 | 128358 | 145297
    12 | 32:17.23 | 3:57.12 | 145298 | 163084
    13 | 36:14.35 | 2:21.73 | 163085 | 173732
    14 | 38:36.33 | 3:04.00 | 173733 | 187532
    15 | 41:40.33 | 4:27.25 | 187533 | 207582
    16 | 46:07.58 | 4:23.50 | 207583 | 227357
    17 | 50:31.33 | 4:13.00 | 227358 | 246332
    Range status and errors
    Selected range
    Filename G:\Ripped general\[2581] Schumann – Das Paradis und die Peri – Sinopoli\cd1\Schumann - Das Paradis und die Peri - Sinopoli (Disc 1).wav
    Peak level 99.9 %
    Extraction speed 2.3 X
    Range quality 100.0 %
    Test CRC 681EDE6C
    Copy CRC 681EDE6C
    Copy OK
    No errors occurred
    AccurateRip summary
    Track 1 cannot be verified as accurate (confidence 2) [175BCF34], AccurateRip returned [A2F60EFA] (AR v2)
    Track 2 cannot be verified as accurate (confidence 2) [06D97873], AccurateRip returned [7F7C0D85] (AR v2)
    Track 3 cannot be verified as accurate (confidence 2) [51AEF2BF], AccurateRip returned [EA18E2BC] (AR v2)
    Track 4 cannot be verified as accurate (confidence 2) [0C1CF5EC], AccurateRip returned [BB32277C] (AR v2)
    Track 5 cannot be verified as accurate (confidence 2) [8E2DFAEC], AccurateRip returned [EE3CA01B] (AR v2)
    Track 6 cannot be verified as accurate (confidence 2) [1E10C60A], AccurateRip returned [D2AA6632] (AR v2)
    Track 7 cannot be verified as accurate (confidence 2) [07724FA1], AccurateRip returned [6064FC5F] (AR v2)
    Track 8 cannot be verified as accurate (confidence 2) [216AB192], AccurateRip returned [905E3BB5] (AR v2)
    Track 9 cannot be verified as accurate (confidence 2) [17AED578], AccurateRip returned [75EEE286] (AR v2)
    Track 10 cannot be verified as accurate (confidence 2) [50AAA442], AccurateRip returned [803A9FF0] (AR v2)
    Track 11 cannot be verified as accurate (confidence 2) [8012C0F6], AccurateRip returned [BD6CF5CE] (AR v2)
    Track 12 cannot be verified as accurate (confidence 2) [76D4856E], AccurateRip returned [CB8C463F] (AR v2)
    Track 13 cannot be verified as accurate (confidence 2) [28B1817F], AccurateRip returned [74C0F187] (AR v2)
    Track 14 cannot be verified as accurate (confidence 2) [6C9537EF], AccurateRip returned [16689E1D] (AR v2)
    Track 15 cannot be verified as accurate (confidence 2) [1AA66015], AccurateRip returned [23254855] (AR v2)
    Track 16 cannot be verified as accurate (confidence 2) [A9CBEEE4], AccurateRip returned [AF4F02D0] (AR v2)
    Track 17 cannot be verified as accurate (confidence 2) [B7299CD4], AccurateRip returned [8B80A306] (AR v2)
    No tracks could be verified as accurate
    You may have a different pressing from the one(s) in the database
    End of status report

    CD 2

    Exact Audio Copy V1.0 beta 3 from 29. August 2011
    EAC extraction logfile from 7. November 2013, 8:05
    Giuseppe Sinopoli / Schumann - Das Paradis und die Peri - Sinopoli (Disc 2)
    Used drive : TSSTcorpCDDVDW SH-222BB Adapter: 2 ID: 1
    Read mode : Secure
    Utilize accurate stream : Yes
    Defeat audio cache : Yes
    Make use of C2 pointers : No
    Read offset correction : 6
    Overread into Lead-In and Lead-Out : No
    Fill up missing offset samples with silence : Yes
    Delete leading and trailing silent blocks : No
    Null samples used in CRC calculations : Yes
    Used interface : Native Win32 interface for Win NT & 2000
    Used output format : User Defined Encoder
    Selected bitrate : 1024 kBit/s
    Quality : High
    Add ID3 tag : No
    Command line compressor : C:\Program Files\Exact Audio Copy\Flac\flac.exe
    Additional command line options : -8 -V -T "TITLE=%title%" -T "ARTIST=%artist%" -T "ALBUMARTIST=%albumartist%" -T "ALBUM=%albumtitle%" -T "DATE=%year%" -T "TRACKNUMBER=%tracknr%" -T "TRACKTOTAL=%numtracks%" -T "GENRE=%genre%" -T "COMMENT=%comment%" -T "PERFORMER=%albuminterpret%" -T "COMPOSER=%composer%" %source% -o %dest%
    TOC of the extracted CD
    Track | Start | Length | Start sector | End sector
    ---------------------------------------------------------
    1 | 0:00.32 | 2:54.45 | 32 | 13126
    2 | 2:55.02 | 2:48.30 | 13127 | 25756
    3 | 5:43.32 | 4:18.38 | 25757 | 45144
    4 | 10:01.70 | 3:09.37 | 45145 | 59356
    5 | 13:11.32 | 4:01.00 | 59357 | 77431
    6 | 17:12.32 | 6:37.38 | 77432 | 107244
    7 | 23:49.70 | 3:12.37 | 107245 | 121681
    8 | 27:02.32 | 6:20.73 | 121682 | 150254
    9 | 33:23.30 | 6:30.52 | 150255 | 179556
    10 | 39:54.07 | 6:26.50 | 179557 | 208556
    11 | 46:20.57 | 4:20.50 | 208557 | 228106
    12 | 50:41.32 | 7:13.00 | 228107 | 260581
    Range status and errors
    Selected range
    Filename G:\Ripped general\[2581] Schumann – Das Paradis und die Peri – Sinopoli\cd2\Schumann - Das Paradis und die Peri - Sinopoli (Disc 2).wav
    Peak level 97.8 %
    Extraction speed 2.2 X
    Range quality 100.0 %
    Test CRC B6E2A763
    Copy CRC B6E2A763
    Copy OK
    No errors occurred
    AccurateRip summary
    Track 1 cannot be verified as accurate (confidence 2) [2BF57EED], AccurateRip returned [641DE28A] (AR v2)
    Track 2 cannot be verified as accurate (confidence 2) [FEB865E0], AccurateRip returned [058B188E] (AR v2)
    Track 3 cannot be verified as accurate (confidence 2) [B87D8145], AccurateRip returned [B4CE22E4] (AR v2)
    Track 4 cannot be verified as accurate (confidence 2) [30892E23], AccurateRip returned [FE2E1A6B] (AR v2)
    Track 5 cannot be verified as accurate (confidence 2) [5F43C523], AccurateRip returned [D4DAF26E] (AR v2)
    Track 6 cannot be verified as accurate (confidence 2) [991246FE], AccurateRip returned [390BD3FE] (AR v2)
    Track 7 cannot be verified as accurate (confidence 2) [C10D65CF], AccurateRip returned [5E21CDE9] (AR v2)
    Track 8 cannot be verified as accurate (confidence 2) [B16C75FA], AccurateRip returned [5B261257] (AR v2)
    Track 9 cannot be verified as accurate (confidence 2) [2F7252CB], AccurateRip returned [74E71739] (AR v2)
    Track 10 cannot be verified as accurate (confidence 2) [2EF84600], AccurateRip returned [94F5CF11] (AR v2)
    Track 11 cannot be verified as accurate (confidence 2) [FA6D1535], AccurateRip returned [9321BD9B] (AR v2)
    Track 12 cannot be verified as accurate (confidence 2) [07C8F646], AccurateRip returned [89773613] (AR v2)
    No tracks could be verified as accurate
    You may have a different pressing from the one(s) in the database
    End of status report

    auCDtect Task Manager logs / Отчёты auCDtect Task ManagerCD 1

    -----------------------
    DON'T MODIFY THIS FILE
    -----------------------
    PERFORMER: auCDtect Task Manager, ver. 1.5.1RC3 build 1.5.1.4
    Copyright (c) 2008-2010 y-soft. All rights reserved
    ANALYZER: auCDtect: CD records authenticity detector, version 0.8.2
    Copyright (c) 2004 Oleg Berngardt. All rights reserved.
    Copyright (c) 2004 Alexander Djourik. All rights reserved.
    FILE: Schumann. Das Paradies und die Peri (Sinopoli) - CD 1.flac
    Size: 237149250 Hash: 5FE3D794C0EDAD1510BAAD468BDFA1D5 Accuracy: -m0
    Conclusion: CDDA 100%
    Signature: 9763870512517ADF2BA3E57591C661703D00B3A8

    CD 2

    -----------------------
    DON'T MODIFY THIS FILE
    -----------------------
    PERFORMER: auCDtect Task Manager, ver. 1.5.1RC3 build 1.5.1.4
    Copyright (c) 2008-2010 y-soft. All rights reserved
    ANALYZER: auCDtect: CD records authenticity detector, version 0.8.2
    Copyright (c) 2004 Oleg Berngardt. All rights reserved.
    Copyright (c) 2004 Alexander Djourik. All rights reserved.
    FILE: Schumann. Das Paradies und die Peri (Sinopoli) - CD 2.flac
    Size: 254327502 Hash: 3D4E84507E50EBE16F35DBE9F17947D4 Accuracy: -m0
    Conclusion: CDDA 99%
    Signature: B7FB9668AAC86B97737174655A82B818E47250B6

    CUETools logs / Отчёты CUEToolsCD 1

    [CUETools log; Date: 29.12.2013 12:01:32; Version: 2.1.4]
    Pregap length 00:00:33.
    [AccurateRip ID: 001e6f60-018b0443-e90cd411] found.
    Track [ CRC | V2 ] Status
    01 [ec35b59f|175bcf34] (0+0/5) No match
    02 [eb286bd3|06d97873] (0+0/5) No match
    03 [d2858701|51aef2bf] (0+0/5) No match
    04 [60acf466|0c1cf5ec] (0+0/5) No match
    05 [ebc96f7b|8e2dfaec] (0+0/5) No match
    06 [44a15c20|1e10c60a] (0+0/5) No match
    07 [7e84168d|07724fa1] (0+0/5) No match
    08 [1b4fbb8d|216ab192] (0+0/5) No match
    09 [385e2aeb|17aed578] (0+0/5) No match
    10 [93145c03|50aaa442] (0+0/5) No match
    11 [121c7a90|8012c0f6] (0+0/5) No match
    12 [b8509cce|76d4856e] (0+0/5) No match
    13 [f20258c2|28b1817f] (0+0/5) No match
    14 [25d1507d|6c9537ef] (0+0/5) No match
    15 [c5d489c2|1aa66015] (0+0/5) No match
    16 [5bc81429|a9cbeee4] (0+0/5) No match
    17 [a8b6c4e2|b7299cd4] (0+0/5) No match
    Offsetted by -72:
    01 [a2f60efa] (2/5) Accurately ripped
    02 [7f7c0d85] (2/5) Accurately ripped
    03 [ea18e2bc] (2/5) Accurately ripped
    04 [bb32277c] (2/5) Accurately ripped
    05 [ee3ca01b] (2/5) Accurately ripped
    06 [d2aa6632] (2/5) Accurately ripped
    07 [6064fc5f] (2/5) Accurately ripped
    08 [905e3bb5] (2/5) Accurately ripped
    09 [75eee286] (2/5) Accurately ripped
    10 [803a9ff0] (2/5) Accurately ripped
    11 [bd6cf5ce] (2/5) Accurately ripped
    12 [cb8c463f] (2/5) Accurately ripped
    13 [74c0f187] (2/5) Accurately ripped
    14 [16689e1d] (2/5) Accurately ripped
    15 [23254855] (2/5) Accurately ripped
    16 [af4f02d0] (2/5) Accurately ripped
    17 [8b80a306] (2/5) Accurately ripped
    Track Peak [ CRC32 ] [W/O NULL] [ LOG ]
    -- 99,9 [681EDE6C] [F5EFBF51] CRC32
    01 33,5 [9FF5A652] [7820DC5D]
    02 48,1 [FE70F3BB] [5A59FF2B]
    03 33,1 [AAA122CE] [43394F28]
    04 52,5 [B3801CF2] [8AFA5C80]
    05 49,4 [B3E4433A] [13582FEF]
    06 99,9 [30CD4BD1] [9575D22B]
    07 77,5 [AD6F21D1] [3892232E]
    08 37,3 [6A4FD527] [2F5E75E8]
    09 99,9 [53C21B59] [55851662]
    10 56,4 [ECB43D58] [E006D7AA]
    11 73,7 [FABD4637] [4C5C8607]
    12 30,7 [7CC675E5] [6BD15669]
    13 49,1 [B7C03325] [7B0FF15B]
    14 29,2 [65E38E9C] [A3254B78]
    15 51,5 [DD71E277] [AB244678]
    16 54,3 [DC9A8404] [476FD3A7]
    17 47,9 [91192301] [EECACF29]

    CD 2

    [CUETools log; Date: 29.12.2013 12:01:48; Version: 2.1.4]
    Pregap length 00:00:32.
    [AccurateRip ID: 001688e3-00dac20f-8f0d920c] found.
    Track [ CRC | V2 ] Status
    01 [0df472a5|2bf57eed] (0+0/5) No match
    02 [0608cfbd|feb865e0] (0+0/5) No match
    03 [6c5aec5f|b87d8145] (0+0/5) No match
    04 [d0b304ff|30892e23] (0+0/5) No match
    05 [755d9b88|5f43c523] (0+0/5) No match
    06 [291d2826|991246fe] (0+0/5) No match
    07 [233826fa|c10d65cf] (0+0/5) No match
    08 [e80f94e4|b16c75fa] (0+0/5) No match
    09 [6e65502d|2f7252cb] (0+0/5) No match
    10 [a2930a64|2ef84600] (0+0/5) No match
    11 [3a054edf|fa6d1535] (0+0/5) No match
    12 [042263a9|07c8f646] (0+0/5) No match
    Offsetted by -72:
    01 [641de28a] (2/5) Accurately ripped
    02 [058b188e] (2/5) Accurately ripped
    03 [b4ce22e4] (2/5) Accurately ripped
    04 [fe2e1a6b] (2/5) Accurately ripped
    05 [d4daf26e] (2/5) Accurately ripped
    06 [390bd3fe] (2/5) Accurately ripped
    07 [5e21cde9] (2/5) Accurately ripped
    08 [5b261257] (2/5) Accurately ripped
    09 [74e71739] (2/5) Accurately ripped
    10 [94f5cf11] (2/5) Accurately ripped
    11 [9321bd9b] (2/5) Accurately ripped
    12 [89773613] (2/5) Accurately ripped
    Track Peak [ CRC32 ] [W/O NULL] [ LOG ]
    -- 97,8 [B6E2A763] [30B56A74] CRC32
    01 46,7 [D31F3562] [D2B0C2B5]
    02 36,0 [1B783554] [7E38FC1A]
    03 50,2 [45E72583] [CCF0FB2A]
    04 28,8 [8986A7E9] [B4EBB755]
    05 44,3 [35499AC3] [1CDA56A8]
    06 61,0 [2F07E57A] [7340CA15]
    07 25,3 [8DD7AE1F] [5DD5EBF5]
    08 57,5 [AF81CE0E] [4A532A17]
    09 97,8 [172F6259] [6E708B9A]
    10 90,9 [5AFB298B] [887A3A50]
    11 52,6 [4BAD4994] [309C37A5]
    12 97,7 [1742DB2C] [86818329]

    CUE sheetsCD 1

    TITLE "Robert Schumann: Das Paradies und die Peri • Ouvertüre, Scherzo und Finale"
    PERFORMER "Giuseppe Sinopoli"
    REM GENRE Classical
    REM DISCID E90CD411
    REM COMMENT "ExactAudioCopy v1.0b3"
    FILE "Schumann. Das Paradies und die Peri (Sinopoli) - CD 1.flac" WAVE
    TRACK 01 AUDIO
    TITLE "Das Paradies und die Peri, Op. 50. 1. Teil: Nr. 1. «Vor Edens Tor im Morgenprangen»"
    PERFORMER "Florence Quivar"
    REM DATE 1994
    INDEX 00 00:00:00
    INDEX 01 00:00:33
    TRACK 02 AUDIO
    TITLE "Das Paradies und die Peri, Op. 50. 1. Teil: Nr. 2. «Wie glücklich sie wandeln, die sel'gen Geister»"
    PERFORMER "Julia Faulkner"
    REM DATE 1994
    INDEX 01 03:42:38
    TRACK 03 AUDIO
    TITLE "Das Paradies und die Peri, Op. 50. 1. Teil: Nr. 3. Rezitativ: «Der hehre Engel, der die Pforte des Lichts bewacht»"
    PERFORMER "Keith Lewis, Florence Quivar"
    REM DATE 1994
    INDEX 01 06:11:20
    TRACK 04 AUDIO
    TITLE "Das Paradies und die Peri, Op. 50. 1. Teil: Nr. 4. «Wo find' ich sie? Wo blüht, wo liegt die Gabe»"
    PERFORMER "Julia Faulkner"
    REM DATE 1994
    INDEX 01 08:06:43
    TRACK 05 AUDIO
    TITLE "Das Paradies und die Peri, Op. 50. 1. Teil: Nr. 5. «So sann sie nach und schwang die Flügel»"
    PERFORMER "Keith Lewis, Heidi Grant Murphy, Florence Quivar, Robert Swensen, Robert Hale"
    REM DATE 1994
    INDEX 01 10:14:58
    TRACK 06 AUDIO
    TITLE "Das Paradies und die Peri, Op. 50. 1. Teil: Nr. 6. «Doch seine Ströme sind jetzt rot»"
    PERFORMER "Staatsopernchor Dresden"
    REM DATE 1994
    INDEX 01 11:19:73
    TRACK 07 AUDIO
    TITLE "Das Paradies und die Peri, Op. 50. 1. Teil: Nr. 7. «Und einsam steht ein Jüngling noch»"
    PERFORMER "Robert Swensen, Robert Hale, Staatsopernchor Dresden"
    REM DATE 1994
    INDEX 01 14:10:03
    TRACK 08 AUDIO
    TITLE "Das Paradies und die Peri, Op. 50. 1. Teil: Nr. 8. «Weh, weh, weh, er fehlte das Ziel»"
    PERFORMER "Staatsopernchor Dresden"
    REM DATE 1994
    INDEX 00 16:33:08
    INDEX 01 16:33:35
    TRACK 09 AUDIO
    TITLE "Das Paradies und die Peri, Op. 50. 1. Teil: Nr. 9. «Die Peri sah das Mal der Wunde»"
    PERFORMER "Keith Lewis, Julia Faulkner, Heidi Grant Murphy, Florence Quivar, Robert Swensen, Robert Hale, Staatsopernchor Dresden"
    REM DATE 1994
    INDEX 01 18:41:23
    TRACK 10 AUDIO
    TITLE "Das Paradies und die Peri, Op. 50. 2. Teil: Nr. 10. «Die Peri tritt mit schüchterner Gebärde vor Edens Tor»"
    PERFORMER "Keith Lewis, Florence Quivar, Staatsopernchor Dresden"
    REM DATE 1994
    INDEX 00 25:22:00
    INDEX 01 25:30:35
    TRACK 11 AUDIO
    TITLE "Das Paradies und die Peri, Op. 50. 2. Teil: Nr. 11. «Ihr erstes Himmelshoffen schwand»"
    PERFORMER "Keith Lewis, Julia Faulkner, Staatsopernchor Dresden"
    REM DATE 1994
    INDEX 01 28:31:33
    TRACK 12 AUDIO
    TITLE "Das Paradies und die Peri, Op. 50. 2. Teil: Nr. 12. «Fort streift von hier das Kind der Lüfte»"
    PERFORMER "Keith Lewis, Julia Faulkner"
    REM DATE 1994
    INDEX 01 32:17:23
    TRACK 13 AUDIO
    TITLE "Das Paradies und die Peri, Op. 50. 2. Teil: Nr. 13. «Die Peri weint»"
    PERFORMER "Keith Lewis, Heidi Grant Murphy, Florence Quivar, Robert Swensen, Robert Hale"
    REM DATE 1994
    INDEX 01 36:14:35
    TRACK 14 AUDIO
    TITLE "Das Paradies und die Peri, Op. 50. 2. Teil: Nr. 14. «Im Waldesgrün am stillen See»"
    PERFORMER "Florence Quivar, Robert Swensen"
    REM DATE 1994
    INDEX 01 38:36:33
    TRACK 15 AUDIO
    TITLE "Das Paradies und die Peri, Op. 50. 2. Teil: Nr. 15. «Verlassener Jüngling»"
    PERFORMER "Florence Quivar, Keith Lewis, Robert Swensen"
    REM DATE 1994
    INDEX 01 41:40:33
    TRACK 16 AUDIO
    TITLE "Das Paradies und die Peri, Op. 50. 2. Teil: Nr. 16. «O laß mich von der Luft durchdringen»"
    PERFORMER "Heidi Grant Murphy, Robert Swensen"
    REM DATE 1994
    INDEX 01 46:07:58
    TRACK 17 AUDIO
    TITLE "Das Paradies und die Peri, Op. 50. 2. Teil: Nr. 17. «Schlaf nun und ruhe in Träumen voll Duft»"
    PERFORMER "Julia Faulkner, Staatsopernchor Dresden"
    REM DATE 1994
    INDEX 01 50:31:33

    CD 2

    TITLE "Robert Schumann: Das Paradies und die Peri • Ouvertüre, Scherzo und Finale"
    PERFORMER "Giuseppe Sinopoli"
    REM GENRE Classical
    REM DISCID 8F0D920C
    REM COMMENT "ExactAudioCopy v1.0b3"
    FILE "Schumann. Das Paradies und die Peri (Sinopoli) - CD 2.flac" WAVE
    TRACK 01 AUDIO
    TITLE "Das Paradies und die Peri, Op. 50. 3. Teil: Nr. 18. «Schmücket die Stufen zu Allahs Thron»"
    PERFORMER "Heidi Grant Murphy, Julia Faulkner, Elisabeth Wilke, Florence Quivar, Staatsopernchor Dresden"
    REM DATE 1994
    INDEX 00 00:00:00
    INDEX 01 00:00:32
    TRACK 02 AUDIO
    TITLE "Das Paradies und die Peri, Op. 50. 3. Teil: Nr. 19. «Dem Sang von Ferne lauschend»"
    PERFORMER "Keith Lewis, Florence Quivar"
    REM DATE 1994
    INDEX 00 02:55:00
    INDEX 01 02:55:02
    TRACK 03 AUDIO
    TITLE "Das Paradies und die Peri, Op. 50. 3. Teil: Nr. 20. «Verstoßen! Verschlossen aufs neu das Goldportal!»"
    PERFORMER "Julia Faulkner"
    REM DATE 1994
    INDEX 00 05:43:30
    INDEX 01 05:43:32
    TRACK 04 AUDIO
    TITLE "Das Paradies und die Peri, Op. 50. 3. Teil: Nr. 21. «Jetzt sank des Abends goldner Schein»"
    PERFORMER "Robert Hale"
    REM DATE 1994
    INDEX 00 10:01:68
    INDEX 01 10:01:70
    TRACK 05 AUDIO
    TITLE "Das Paradies und die Peri, Op. 50. 3. Teil: Nr. 22. «Und wie sie niederwärts sich schwingt»"
    PERFORMER "Keith Lewis, Heidi Grant Murphy, Julia Faulkner, Elisabeth Wilke, Florence Quivar, Robert Hale"
    REM DATE 1994
    INDEX 00 13:11:30
    INDEX 01 13:11:32
    TRACK 06 AUDIO
    TITLE "Das Paradies und die Peri, Op. 50. 3. Teil: Nr. 23. «Hinab zu jenem Sonnentempel!»"
    PERFORMER "Julia Faulkner, Robert Swensen, Florence Quivar, Robert Hale"
    REM DATE 1994
    INDEX 00 17:12:30
    INDEX 01 17:12:32
    TRACK 07 AUDIO
    TITLE "Das Paradies und die Peri, Op. 50. 3. Teil: Nr. 24. «O heil'ge Tränen inn'ger Reue»"
    PERFORMER "Heidi Grant Murphy, Florence Quivar, Robert Swensen, Robert Hale, Staatsopernchor Dresden"
    REM DATE 1994
    INDEX 00 23:48:35
    INDEX 01 23:49:70
    TRACK 08 AUDIO
    TITLE "Das Paradies und die Peri, Op. 50. 3. Teil: Nr. 25. «Es fällt ein Tropfen aufs Land Ägypten»"
    PERFORMER "Julia Faulkner, Keith Lewis, Staatsopernchor Dresden"
    REM DATE 1994
    INDEX 00 27:01:30
    INDEX 01 27:02:32
    TRACK 09 AUDIO
    TITLE "Das Paradies und die Peri, Op. 50. 3. Teil: Nr. 26. «Freud', ew'ge Freude, mein Werk ist getan»"
    PERFORMER "Julia Faulkner, Staatsopernchor Dresden"
    REM DATE 1994
    INDEX 00 33:23:28
    INDEX 01 33:23:30
    TRACK 10 AUDIO
    TITLE "Ouvertüre, Scherzo und Finale, Op. 52: I. Ouvertüre. Andante con moto. — Allegro"
    PERFORMER "Staatskapelle Dresden. Giuseppe Sinopoli, conductor"
    REM DATE 1993
    INDEX 00 39:39:30
    INDEX 01 39:54:07
    TRACK 11 AUDIO
    TITLE "Ouvertüre, Scherzo und Finale, Op. 52: II. Scherzo. Vivo"
    PERFORMER "Staatskapelle Dresden. Giuseppe Sinopoli, conductor"
    REM DATE 1993
    INDEX 00 46:18:63
    INDEX 01 46:20:57
    TRACK 12 AUDIO
    TITLE "Ouvertüre, Scherzo und Finale, Op. 52: III. Finale. Allegro molto vivace"
    PERFORMER "Staatskapelle Dresden. Giuseppe Sinopoli, conductor"
    REM DATE 1993
    INDEX 00 50:40:30
    INDEX 01 50:41:32
    -
    Robert Schumann — каталог раздач на rutracker.orgВсе мои раздачи / All my releases
    [teatrix.ru].t18030.torrent 
    Торрент: Зарегистрирован [ 2016-03-17 00:45 ] · A907F843712727E98A7A0F4EE0DCCA22B745E84D

    Скачать .torrent

    Скачать

    20 KB

    Статус: проверено
    Скачан: 0 раз
    Размер: 473 MB
    terms.php



  • Быстрый ответ

    Имя:

          
    Для отправки сообщений необходимо включить JavaScript
    Показать сообщения:    

    Текущее время: 06-Дек 18:55

    Часовой пояс: UTC + 3


    Вы можете начинать темы
    Вы можете отвечать на сообщения
    Вы не можете редактировать свои сообщения
    Вы не можете удалять свои сообщения
    Вы не можете голосовать в опросах
    Вы не можете прикреплять файлы к сообщениям
    Вы можете скачивать файлы