(Classical / Choral) Johann Sebastian Bach - Messe h-moll, BWV 232 / Mass in B minor / Йоханн (Иоганн) Себастьян Бах - Месса си минор (Barbara Schlick, Kai Wessel, Guy de Mey, Klaus Mertens, Ton Koopman, 1994) - 1995, FLAC (tracks+.cue) lossless


Статистика раздачи [Обновить пиров]
Размер:  483 MB   |    Зарегистрирован:  8 месяцев 20 дней   |    Скачан:  0 раз

Полного источника не было: Никогда

 
   
 
 
 

[Цитировать]

Johann Sebastian Bach | Йоханн Себастьян Бах
(1685–1750)



Messe h-moll | Mass in B minor | Месса си минор


Barbara Schlick sopranoKai Wessel countertenor
Guy de Mey tenorKlaus Mertens bass
The Amsterdam Baroque Orchestra & Choir
Ton Koopman conductor


Жанр: Classical / Choral
Дата и место записи: Église wallonne, Amsterdam, 1994
Формат записи: DDD, Stereo
Год издания диска: 1995
Издатель (лейбл): Erato
Номер по каталогу: 4509-98478-2
Аудиокодек: FLAC
Тип рипа: tracks+.cue
Битрейт аудио: lossless
Продолжительность: 1:47:18
Наличие сканов в содержимом раздачи: да
Источник: What.CD
Релизёр: talpaleone

-Tracklist / ТреклистCD 1
I. Kyrie - 17:42
Chor: «Kyrie eleison» - 8:53
  • Duett (Sopran, Alt): «Christe eleison» - 5:04
  • Chor: «Kyrie eleison» - 3:44
    II. Gloria - 36:03
    Chor: «Gloria in excelsis» - 1:41
  • Chor: «Et in terra pax» - 4:40
  • Arie (Sopran): «Laudamus te» - 4:24
  • Chor: «Gratias agimus tibi» - 2:55
  • Duett (Sopran, Tenor): «Domine Deus» - 5:31
  • Chor: «Qui tollis peccata mundi» - 3:26
  • Arie (Alt): «Qui sedes ad dextram Patris» - 4:26
  • Arie (Baß): «Quoniam tu solus sanctus» - 5:06
  • Chor: «Cum sancto Spiritu» - 3:54
    CD 2
    III. Credo - 30:37
    Chor: «Credo in unum Deum» - 2:28
  • Chor: «Patrem omnipotentem» - 1:50
  • Duett (Sopran, Alt): «Et in unum Dominum, Jesum Christum» - 4:21
  • Chor: «Et incarnatus est» - 3:23
  • Chor: «Crucifixus» - 3:13
  • Chor: «Et resurrexit» - 3:55
  • Arie (Baß): «Et in Spiritum sanctum» - 5:17
  • Chor: «Confiteor unum baptisma» - 4:00
  • Chor: «Et expecto resurrectionem» - 2:10
    IV. Sanctus - 14:35
    Chor: «Sanctus» - 5:04
  • Chor: «Osanna in excelsis» - 2:34
  • Chor: «Benedictus» - 6:57
    V. Agnus Dei - 8:21
    Arie (Alt): «Agnus Dei» - 5:21
  • Chor: «Dona nobis pacem» - 3:00-

    EAC logs / Отчёты EACCD 1

    Exact Audio Copy V1.0 beta 3 from 29. August 2011
    EAC extraction logfile from 16. November 2013, 17:05
    Ton Koopman / Messe in h-moll (Disc 1)
    Used drive : HL-DT-STDVDRAM GE20LU10 Adapter: 3 ID: 0
    Read mode : Secure
    Utilize accurate stream : Yes
    Defeat audio cache : Yes
    Make use of C2 pointers : No
    Read offset correction : 667
    Overread into Lead-In and Lead-Out : No
    Fill up missing offset samples with silence : Yes
    Delete leading and trailing silent blocks : No
    Null samples used in CRC calculations : Yes
    Used interface : Native Win32 interface for Win NT & 2000
    Gap handling : Appended to previous track
    Used output format : User Defined Encoder
    Selected bitrate : 1024 kBit/s
    Quality : High
    Add ID3 tag : No
    Command line compressor : C:\Programmi\Exact Audio Copy\Flac\flac.exe
    Additional command line options : -8 -V -T "ARTIST=%artist%" -T "TITLE=%title%" -T "ALBUM=%albumtitle%" -T "DATE=%year%" -T "TRACKNUMBER=%tracknr%" -T "GENRE=%genre%" -T "PERFORMER=%albuminterpret%" -T "COMPOSER=%composer%" %haslyrics%--tag-from-file=LYRICS="%lyricsfile%"%haslyrics% -T "ALBUMARTIST=%albumartist%" -T "ALBUM ARTIST=%albumartist%" -T "DISCNUMBER=%cdnumber%" -T "TOTALDISCS=%totalcds%" -T "TOTALTRACKS=%numtracks%" -T "COMMENT=%comment%" %source% -o %dest%
    TOC of the extracted CD
    Track | Start | Length | Start sector | End sector
    ---------------------------------------------------------
    1 | 0:00.00 | 8:53.27 | 0 | 40001
    2 | 8:53.27 | 5:03.63 | 40002 | 62789
    3 | 13:57.15 | 3:44.25 | 62790 | 79614
    4 | 17:41.40 | 1:40.72 | 79615 | 87186
    5 | 19:22.37 | 4:40.33 | 87187 | 108219
    6 | 24:02.70 | 4:24.00 | 108220 | 128019
    7 | 28:26.70 | 2:54.47 | 128020 | 141116
    8 | 31:21.42 | 5:31.05 | 141117 | 165946
    9 | 36:52.47 | 3:26.35 | 165947 | 181431
    10 | 40:19.07 | 4:25.70 | 181432 | 201376
    11 | 44:45.02 | 5:06.28 | 201377 | 224354
    12 | 49:51.30 | 3:53.45 | 224355 | 241874
    Track 1
    Filename C:\EACrips\01 - Kyrie - Kyrie eleison.wav
    Pre-gap length 0:00:02.00
    Peak level 78.2 %
    Extraction speed 4.5 X
    Track quality 100.0 %
    Test CRC E1A2A7A6
    Copy CRC E1A2A7A6
    Accurately ripped (confidence 8) [8DBE3CA6] (AR v2)
    Copy OK
    Track 2
    Filename C:\EACrips\02 - Kyrie - Christe eleison.wav
    Pre-gap length 0:00:02.36
    Peak level 65.3 %
    Extraction speed 5.0 X
    Track quality 100.0 %
    Test CRC F4823C36
    Copy CRC F4823C36
    Accurately ripped (confidence 8) [4ACEAC8A] (AR v2)
    Copy OK
    Track 3
    Filename C:\EACrips\03 - Kyrie - Kyrie eleison.wav
    Pre-gap length 0:00:02.20
    Peak level 69.4 %
    Extraction speed 3.9 X
    Track quality 100.0 %
    Test CRC 98877F74
    Copy CRC 98877F74
    Accurately ripped (confidence 8) [0C4B6D76] (AR v2)
    Copy OK
    Track 4
    Filename C:\EACrips\04 - Gloria - Gloria in excelsis.wav
    Pre-gap length 0:00:03.53
    Peak level 97.3 %
    Extraction speed 3.4 X
    Track quality 100.0 %
    Test CRC 20134B35
    Copy CRC 20134B35
    Accurately ripped (confidence 8) [0C9AAF15] (AR v2)
    Copy OK
    Track 5
    Filename C:\EACrips\05 - Gloria - Et in terra pax.wav
    Peak level 82.2 %
    Extraction speed 4.1 X
    Track quality 100.0 %
    Test CRC C1CC3FF2
    Copy CRC C1CC3FF2
    Accurately ripped (confidence 8) [27A5B499] (AR v2)
    Copy OK
    Track 6
    Filename C:\EACrips\06 - Gloria - Laudamus te.wav
    Pre-gap length 0:00:01.93
    Peak level 73.2 %
    Extraction speed 5.7 X
    Track quality 100.0 %
    Test CRC 1B631743
    Copy CRC 1B631743
    Accurately ripped (confidence 8) [EC9E2E17] (AR v2)
    Copy OK
    Track 7
    Filename C:\EACrips\07 - Gloria - Gratias agimus tibi.wav
    Pre-gap length 0:00:02.93
    Peak level 85.1 %
    Extraction speed 4.4 X
    Track quality 99.9 %
    Test CRC E1F7402C
    Copy CRC E1F7402C
    Accurately ripped (confidence 8) [92637911] (AR v2)
    Copy OK
    Track 8
    Filename C:\EACrips\08 - Gloria - Domine Deus.wav
    Pre-gap length 0:00:01.56
    Peak level 65.9 %
    Extraction speed 6.3 X
    Track quality 100.0 %
    Test CRC 658CBB81
    Copy CRC 658CBB81
    Accurately ripped (confidence 8) [3C84890E] (AR v2)
    Copy OK
    Track 9
    Filename C:\EACrips\09 - Gloria - Qui tollis peccata mundi.wav
    Peak level 56.3 %
    Extraction speed 5.0 X
    Track quality 99.9 %
    Test CRC 9BC9D2BC
    Copy CRC 9BC9D2BC
    Accurately ripped (confidence 8) [20326B1C] (AR v2)
    Copy OK
    Track 10
    Filename C:\EACrips\10 - Gloria - Qui sedes ad dexteram Patris.wav
    Pre-gap length 0:00:01.09
    Peak level 49.0 %
    Extraction speed 5.6 X
    Track quality 99.9 %
    Test CRC C841EE81
    Copy CRC C841EE81
    Accurately ripped (confidence 8) [BC190D24] (AR v2)
    Copy OK
    Track 11
    Filename C:\EACrips\11 - Gloria - Quoniam tu solus sanctus.wav
    Pre-gap length 0:00:03.02
    Peak level 34.6 %
    Extraction speed 6.7 X
    Track quality 100.0 %
    Test CRC F068AC58
    Copy CRC F068AC58
    Accurately ripped (confidence 8) [469FEA99] (AR v2)
    Copy OK
    Track 12
    Filename C:\EACrips\12 - Gloria - Cum Sancto Spiritu.wav
    Peak level 100.0 %
    Extraction speed 6.6 X
    Track quality 100.0 %
    Test CRC D862BE9F
    Copy CRC D862BE9F
    Accurately ripped (confidence 8) [669ED018] (AR v2)
    Copy OK
    All tracks accurately ripped
    No errors occurred
    End of status report
    ---- CUETools DB Plugin V2.1.3
    [CTDB TOCID: X4j9NugxUjpz34yx7ClyGhXoqog-] found, Submit result: X4j9NugxUjpz34yx7ClyGhXoqog- has been confirmed
    [40040d7f] (5/5) Accurately ripped
    ==== Log checksum 6F051A2E81EF16A2881E81F6B4F4694D702DB7D3E387724887A64E3EF3634F4B ====

    CD 2

    Exact Audio Copy V1.0 beta 3 from 29. August 2011
    EAC extraction logfile from 16. November 2013, 22:12
    Ton Koopman / Messe in h-moll (Disc 2)
    Used drive : HL-DT-STDVDRAM GE20LU10 Adapter: 3 ID: 0
    Read mode : Secure
    Utilize accurate stream : Yes
    Defeat audio cache : Yes
    Make use of C2 pointers : No
    Read offset correction : 667
    Overread into Lead-In and Lead-Out : No
    Fill up missing offset samples with silence : Yes
    Delete leading and trailing silent blocks : No
    Null samples used in CRC calculations : Yes
    Used interface : Native Win32 interface for Win NT & 2000
    Gap handling : Appended to previous track
    Used output format : User Defined Encoder
    Selected bitrate : 1024 kBit/s
    Quality : High
    Add ID3 tag : No
    Command line compressor : C:\Programmi\Exact Audio Copy\Flac\flac.exe
    Additional command line options : -8 -V -T "ARTIST=%artist%" -T "TITLE=%title%" -T "ALBUM=%albumtitle%" -T "DATE=%year%" -T "TRACKNUMBER=%tracknr%" -T "GENRE=%genre%" -T "PERFORMER=%albuminterpret%" -T "COMPOSER=%composer%" %haslyrics%--tag-from-file=LYRICS="%lyricsfile%"%haslyrics% -T "ALBUMARTIST=%albumartist%" -T "ALBUM ARTIST=%albumartist%" -T "DISCNUMBER=%cdnumber%" -T "TOTALDISCS=%totalcds%" -T "TOTALTRACKS=%numtracks%" -T "COMMENT=%comment%" %source% -o %dest%
    TOC of the extracted CD
    Track | Start | Length | Start sector | End sector
    ---------------------------------------------------------
    1 | 0:00.00 | 2:28.05 | 0 | 11104
    2 | 2:28.05 | 1:50.30 | 11105 | 19384
    3 | 4:18.35 | 4:20.48 | 19385 | 38932
    4 | 8:39.08 | 3:23.30 | 38933 | 54187
    5 | 12:02.38 | 3:13.25 | 54188 | 68687
    6 | 15:15.63 | 3:55.00 | 68688 | 86312
    7 | 19:10.63 | 5:16.47 | 86313 | 110059
    8 | 24:27.35 | 4:00.00 | 110060 | 128059
    9 | 28:27.35 | 2:09.40 | 128060 | 137774
    10 | 30:37.00 | 5:04.18 | 137775 | 160592
    11 | 35:41.18 | 2:33.60 | 160593 | 172127
    12 | 38:15.03 | 6:56.67 | 172128 | 203394
    13 | 45:11.70 | 5:21.28 | 203395 | 227497
    14 | 50:33.23 | 2:59.65 | 227498 | 240987
    Track 1
    Filename C:\EACrips\01 - Credo - Credo in unum Deum.wav
    Pre-gap length 0:00:02.00
    Peak level 71.3 %
    Extraction speed 2.8 X
    Track quality 99.9 %
    Test CRC E74DBEB5
    Copy CRC E74DBEB5
    Accurately ripped (confidence 13) [1F04642A] (AR v2)
    Copy OK
    Track 2
    Filename C:\EACrips\02 - Credo - Patrem omnipotentem.wav
    Peak level 82.6 %
    Extraction speed 3.5 X
    Track quality 100.0 %
    Test CRC A40B04E8
    Copy CRC A40B04E8
    Accurately ripped (confidence 13) [1B6BE969] (AR v2)
    Copy OK
    Track 3
    Filename C:\EACrips\03 - Credo - Et in unum Dominum.wav
    Pre-gap length 0:00:01.29
    Peak level 58.3 %
    Extraction speed 4.5 X
    Track quality 100.0 %
    Test CRC 92523AB5
    Copy CRC 92523AB5
    Accurately ripped (confidence 13) [A6EAE4B8] (AR v2)
    Copy OK
    Track 4
    Filename C:\EACrips\04 - Credo - Et incarnatus est.wav
    Pre-gap length 0:00:01.93
    Peak level 62.4 %
    Extraction speed 4.4 X
    Track quality 100.0 %
    Test CRC 146336DC
    Copy CRC 146336DC
    Accurately ripped (confidence 13) [D65CFEB4] (AR v2)
    Copy OK
    Track 5
    Filename C:\EACrips\05 - Credo - Crucifixus.wav
    Pre-gap length 0:00:00.33
    Peak level 42.6 %
    Extraction speed 4.8 X
    Track quality 100.0 %
    Test CRC 9594B216
    Copy CRC 9594B216
    Accurately ripped (confidence 13) [BF43B269] (AR v2)
    Copy OK
    Track 6
    Filename C:\EACrips\06 - Credo - Et resurrexit.wav
    Pre-gap length 0:00:02.66
    Peak level 89.2 %
    Extraction speed 5.1 X
    Track quality 100.0 %
    Test CRC 1BEA4B57
    Copy CRC 1BEA4B57
    Accurately ripped (confidence 13) [3A23E70D] (AR v2)
    Copy OK
    Track 7
    Filename C:\EACrips\07 - Credo - Et in Spiritum sanctum Dominum.wav
    Pre-gap length 0:00:01.66
    Peak level 28.2 %
    Extraction speed 5.5 X
    Track quality 100.0 %
    Test CRC 08CC1B63
    Copy CRC 08CC1B63
    Accurately ripped (confidence 13) [409CAAC7] (AR v2)
    Copy OK
    Track 8
    Filename C:\EACrips\08 - Credo - Confiteor.wav
    Pre-gap length 0:00:00.29
    Peak level 71.9 %
    Extraction speed 4.7 X
    Track quality 99.9 %
    Test CRC 23605D61
    Copy CRC 23605D61
    Accurately ripped (confidence 13) [424CC569] (AR v2)
    Copy OK
    Track 9
    Filename C:\EACrips\09 - Credo - Et exspecto.wav
    Peak level 86.3 %
    Extraction speed 5.4 X
    Track quality 100.0 %
    Test CRC 0732FD34
    Copy CRC 0732FD34
    Accurately ripped (confidence 13) [3C141EDE] (AR v2)
    Copy OK
    Track 10
    Filename C:\EACrips\10 - Sanctus - Sanctus.wav
    Pre-gap length 0:00:03.82
    Peak level 100.0 %
    Extraction speed 6.0 X
    Track quality 100.0 %
    Test CRC 72625B88
    Copy CRC 72625B88
    Accurately ripped (confidence 13) [E93CEA3A] (AR v2)
    Copy OK
    Track 11
    Filename C:\EACrips\11 - Sanctus - Hosanna.wav
    Peak level 99.1 %
    Extraction speed 5.8 X
    Track quality 100.0 %
    Test CRC 0E246FC9
    Copy CRC 0E246FC9
    Accurately ripped (confidence 13) [0334C3C4] (AR v2)
    Copy OK
    Track 12
    Filename C:\EACrips\12 - Sanctus - Benedictus.wav
    Pre-gap length 0:00:03.86
    Peak level 99.1 %
    Extraction speed 6.7 X
    Track quality 100.0 %
    Test CRC 1151F99B
    Copy CRC 1151F99B
    Accurately ripped (confidence 13) [0D94AB24] (AR v2)
    Copy OK
    Track 13
    Filename C:\EACrips\13 - Agnus Dei - Agnus Dei.wav
    Pre-gap length 0:00:04.76
    Peak level 38.3 %
    Extraction speed 6.0 X
    Track quality 99.9 %
    Test CRC EA6E6A3A
    Copy CRC EA6E6A3A
    Accurately ripped (confidence 13) [BA5AC658] (AR v2)
    Copy OK
    Track 14
    Filename C:\EACrips\14 - Agnus Dei - Dona nobis pacem.wav
    Pre-gap length 0:00:01.13
    Peak level 97.6 %
    Extraction speed 6.6 X
    Track quality 100.0 %
    Test CRC 3491889B
    Copy CRC 3491889B
    Accurately ripped (confidence 13) [2829EBFC] (AR v2)
    Copy OK
    All tracks accurately ripped
    No errors occurred
    End of status report
    ---- CUETools DB Plugin V2.1.3
    [CTDB TOCID: NKQPKGqKNdU6UQLQWjW1__PxJ9U-] found, Submit result: NKQPKGqKNdU6UQLQWjW1__PxJ9U- has been confirmed
    [e5882b43] (4/4) Accurately ripped
    ==== Log checksum 2A40F483E22D677ADB0D594FF6F52A91B756427A0588D487EC4207DC95936F6C ====

    auCDtect Task Manager logs / Отчёты auCDtect Task ManagerCD 1

    -----------------------
    DON'T MODIFY THIS FILE
    -----------------------
    PERFORMER: auCDtect Task Manager, ver. 1.5.1RC3 build 1.5.1.4
    Copyright (c) 2008-2010 y-soft. All rights reserved
    ANALYZER: auCDtect: CD records authenticity detector, version 0.8.2
    Copyright (c) 2004 Oleg Berngardt. All rights reserved.
    Copyright (c) 2004 Alexander Djourik. All rights reserved.
    FILE: 12 - II. Gloria - Chor - ''Cum sancto Spiritu''.flac
    Size: 20652074 Hash: 7AB32CBB4FCA141BD4554AC7B4C21CBC Accuracy: -m0
    Conclusion: CDDA 100%
    Signature: 62801E5BEE5984B27CF7FC4368EB7B908DFCED1B
    FILE: 11 - II. Gloria - Arie (Bass) - ''Quoniam tu solus sanctus''.flac
    Size: 21403550 Hash: BD0B7A6109312491E8F78B1BCBCE7C49 Accuracy: -m0
    Conclusion: CDDA 99%
    Signature: 53FBB33364F6C6E923BE64241A7F638ED6B434E0
    FILE: 10 - II. Gloria - Arie (Alt) - ''Qui sedes ad dextram Patris''.flac
    Size: 18013306 Hash: 2EFD87187BB5C65F53A73E9355491957 Accuracy: -m0
    Conclusion: CDDA 87%
    Signature: CF87A6BD05C3B6265B318DF1408A0A6C114446C1
    FILE: 09 - II. Gloria - Chor - ''Qui tollis peccata mundi''.flac
    Size: 15530001 Hash: 6AF0A3CA442DD01041E94D1AF786E6F0 Accuracy: -m0
    Conclusion: CDDA 86%
    Signature: 68F66DBCF6CDBED98B94A615461BD521A61CEED6
    FILE: 08 - II. Gloria - Duett (Sopran, Tenor) - ''Domine Deus''.flac
    Size: 23931768 Hash: 7EBD48EE9BA5985CB3E963AD0A20BF08 Accuracy: -m0
    Conclusion: CDDA 54%
    Signature: 33D23F008F07EC3FA08E9EC7C526701374ECE158
    FILE: 07 - II. Gloria - Chor - ''Gratias agimus tibi''.flac
    Size: 15246576 Hash: B68468F4AA0A68C6F0BC3F68A7DAB812 Accuracy: -m0
    Conclusion: CDDA 100%
    Signature: A4E0B3CFCA1D1074B6537D87DB468E584DFED604
    FILE: 06 - II. Gloria - Arie (Sopran) - ''Laudamus te''.flac
    Size: 20279783 Hash: 0934440D39D4C81A51C414782BD70233 Accuracy: -m0
    Conclusion: CDDA 100%
    Signature: C0F7552CB0D61D5722A8EFFB52AF172E78B6B630
    FILE: 05 - II. Gloria - Chor - ''Et in terra pax''.flac
    Size: 23794082 Hash: DB61A8CE5548F598AC14BBCF391FF30B Accuracy: -m0
    Conclusion: CDDA 99%
    Signature: EB660B58E29000339CA107619924E0D2B1FED503
    FILE: 04 - II. Gloria - Chor - ''Gloria in excelsis''.flac
    Size: 9387259 Hash: 71CAD5CB39789824EAFEA6BDF9CE86ED Accuracy: -m0
    Conclusion: CDDA 100%
    Signature: 177777701650B7728AA70B6F8E128C5E52FAC1A4
    FILE: 03 - I. Kyrie - Chor - ''Kyrie eleison''.flac
    Size: 17997344 Hash: FBC45318B4C99102191C339A19BF6C8D Accuracy: -m0
    Conclusion: CDDA 99%
    Signature: 041614EBE7D1D7AB34B5F9FE05557118DEF809DF
    FILE: 02 - I. Kyrie - Duett (Sopran, Alt) - ''Christe eleison''.flac
    Size: 23160685 Hash: 769315DED288A9FDA3E695AA6F03C3FD Accuracy: -m0
    Conclusion: CDDA 100%
    Signature: 076B3EDDB9E36483541D3263FA33618DE1ED3C03
    FILE: 01 - I. Kyrie - Chor - ''Kyrie eleison''.flac
    Size: 43180712 Hash: 7338979112D6099A9EF6A1E5A0D95D9E Accuracy: -m0
    Conclusion: CDDA 100%
    Signature: BE9DC952744D0B60BBDECF032917D0C3268E9270

    CD 2

    -----------------------
    DON'T MODIFY THIS FILE
    -----------------------
    PERFORMER: auCDtect Task Manager, ver. 1.5.1RC3 build 1.5.1.4
    Copyright (c) 2008-2010 y-soft. All rights reserved
    ANALYZER: auCDtect: CD records authenticity detector, version 0.8.2
    Copyright (c) 2004 Oleg Berngardt. All rights reserved.
    Copyright (c) 2004 Alexander Djourik. All rights reserved.
    FILE: 14 - V. Agnus Dei - Chor - ''Dona nobis pacem''.flac
    Size: 15436054 Hash: D79B6B65B16E221D46F865D6F06AD985 Accuracy: -m0
    Conclusion: CDDA 100%
    Signature: 2E5C2BD2FF6B1687DBEDE8D809CE9C729603814E
    FILE: 13 - V. Agnus Dei - Arie (Alt) - ''Agnus Dei''.flac
    Size: 20386492 Hash: 8C68119C46AF794F9DFFD8D5444E286A Accuracy: -m0
    Conclusion: CDDA 86%
    Signature: A9FE1D69F975323B5081062078D5A282C0B874B3
    FILE: 12 - IV. Sanctus - Chor - ''Benedictus''.flac
    Size: 30900446 Hash: FC3941CE15DEAD27876FFE359925BEE2 Accuracy: -m0
    Conclusion: CDDA 100%
    Signature: 48D327FA0076EAB8C5EB5B22D69167CC71A94659
    FILE: 11 - IV. Sanctus - Chor - ''Osanna in excelsis''.flac
    Size: 13254077 Hash: 19D1F4B5CDACE173F73D37ED2044B88F Accuracy: -m0
    Conclusion: CDDA 100%
    Signature: F940EA29FE11BC6327424DFB509B454DDB40A6E8
    FILE: 10 - IV. Sanctus - Chor - ''Sanctus''.flac
    Size: 27337956 Hash: FE87E84B1A0841EDAF67EBF327136EC2 Accuracy: -m0
    Conclusion: CDDA 100%
    Signature: E2D8080CC9AE6E59D89C167084E5CFFDECE648BA
    FILE: 09 - III. Credo - Chor - ''Et exspecto resurrectionem''.flac
    Size: 11408135 Hash: 21E6560E63CFF9BB77D078C9AC29A943 Accuracy: -m0
    Conclusion: CDDA 100%
    Signature: 085EB1289B9AB531731E61A7EB9AF497D2308374
    FILE: 08 - III. Credo - Chor - ''Confiteor unum baptisma''.flac
    Size: 18674118 Hash: ED40860033CB29416DCA530EE01E001F Accuracy: -m0
    Conclusion: CDDA 100%
    Signature: D33C1E5BD1B142F9BFB146B7732A980AB819FCDC
    FILE: 07 - III. Credo - Arie (Bass) - ''Et in Spiritum sanctum''.flac
    Size: 21656630 Hash: F0F54E697DEDDD987E5B11D7B830FC8A Accuracy: -m0
    Conclusion: CDDA 85%
    Signature: EF326BC6F77ABBAF0741FC7705F140938B0EA6A3
    FILE: 06 - III. Credo - Chor - ''Et resurrexit''.flac
    Size: 19847310 Hash: 7534822972BDAD25EAF09F408F26B9D7 Accuracy: -m0
    Conclusion: CDDA 99%
    Signature: E2469354F7E5FA728E22444388E5B16188CE4557
    FILE: 05 - III. Credo - Chor - ''Crucifixus''.flac
    Size: 13420329 Hash: C772F9FECEF791D281A78106DFA1FD15 Accuracy: -m0
    Conclusion: CDDA 100%
    Signature: 94383D38F7B1EDA6855072B17E0817AB26727D37
    FILE: 04 - III. Credo - Chor - ''Et incarnatus est''.flac
    Size: 14796313 Hash: E222808488D16DA652FE1105AA933DEE Accuracy: -m0
    Conclusion: CDDA 58%
    Signature: 731DBE6626E864FA9495930D219611221704DEA0
    FILE: 03 - III. Credo - Duett (Sopran, Alt) - ''Et in unum Dominum, Jesum Christum''.flac
    Size: 19923958 Hash: 252ED3E90BD1D6207E9D0923F42DF893 Accuracy: -m0
    Conclusion: CDDA 99%
    Signature: DAFA6E4BC0F8DD2596CA00256AEA31E0E5B7A2D3
    FILE: 02 - III. Credo - Chor - ''Patrem omnipotentem''.flac
    Size: 10013044 Hash: E93C668A51761A6979EF409FDC3A6FD0 Accuracy: -m0
    Conclusion: CDDA 100%
    Signature: A145B422A00EEADCD40E4D22C8C3040F5E050FEC
    FILE: 01 - III. Credo - Chor - ''Credo in unum Deum''.flac
    Size: 12391540 Hash: 44F02AEA0A4F851C2742478EA1E64C24 Accuracy: -m0
    Conclusion: CDDA 85%
    Signature: 1A575D00F15EE6F8930D1FBDB9C9A7FA44928162

    CUETools logs / Отчёты CUEToolsCD 1

    [CUETools log; Date: 02.01.2014 10:14:18; Version: 2.1.4]
    [AccurateRip ID: 00195bf1-00e5bf97-aa0c990c] found.
    Track [ CRC | V2 ] Status
    01 [e6c6fabe|8dbe3ca6] (05+08/25) Accurately ripped
    02 [74ed3bb4|4aceac8a] (05+08/25) Accurately ripped
    03 [1f8bb9c2|0c4b6d76] (05+08/25) Accurately ripped
    04 [19e64ad1|0c9aaf15] (05+08/25) Accurately ripped
    05 [611635a3|27a5b499] (05+08/25) Accurately ripped
    06 [37c20311|ec9e2e17] (05+08/25) Accurately ripped
    07 [30df0eaf|92637911] (05+08/25) Accurately ripped
    08 [03cf9934|3c84890e] (05+08/25) Accurately ripped
    09 [5a3612e5|20326b1c] (05+08/25) Accurately ripped
    10 [ad8a09c0|bc190d24] (05+08/25) Accurately ripped
    11 [3535c2cf|469fea99] (05+08/25) Accurately ripped
    12 [d8c9f829|669ed018] (05+08/25) Accurately ripped
    Offsetted by -2789:
    01 [a6c505ea] (06/25) Accurately ripped
    02 [9b8a4fc9] (06/25) Accurately ripped
    03 [b0eedb52] (06/25) Accurately ripped
    04 [6781af80] (06/25) Accurately ripped
    05 [635b1582] (06/25) Accurately ripped
    06 [4ee4056e] (06/25) Accurately ripped
    07 [f670fdbe] (06/25) Accurately ripped
    08 [8b5fcd69] (06/25) Accurately ripped
    09 [37de0007] (06/25) Accurately ripped
    10 [29574d03] (06/25) Accurately ripped
    11 [ad3457f9] (06/25) Accurately ripped
    12 [f216ca16] (06/25) Accurately ripped
    Track Peak [ CRC32 ] [W/O NULL] [ LOG ]
    -- 100,0 [AB23F105] [E4D8A2AC]
    01 78,2 [E1A2A7A6] [C8EF4F0E] CRC32
    02 65,3 [F4823C36] [0F5C495C] CRC32
    03 69,4 [98877F74] [3FD12676] CRC32
    04 97,3 [20134B35] [0D2632FE] CRC32
    05 82,2 [C1CC3FF2] [0C138F27] CRC32
    06 73,2 [1B631743] [31ED689F] CRC32
    07 85,1 [E1F7402C] [3900D619] CRC32
    08 65,9 [658CBB81] [3522BD85] CRC32
    09 56,3 [9BC9D2BC] [378551CC] CRC32
    10 49,0 [C841EE81] [2F5E570D] CRC32
    11 34,6 [F068AC58] [B70FB4EC] CRC32
    12 100,0 [D862BE9F] [24AECC56] CRC32

    CD 2

    [CUETools log; Date: 02.01.2014 10:14:27; Version: 2.1.4]
    [AccurateRip ID: 001950e5-0115dd41-af0c8d0e] found.
    Track [ CRC | V2 ] Status
    01 [d6edea2b|1f04642a] (11+13/24) Accurately ripped
    02 [d9781d30|1b6be969] (11+13/24) Accurately ripped
    03 [674e478d|a6eae4b8] (11+13/24) Accurately ripped
    04 [4f989ace|d65cfeb4] (11+13/24) Accurately ripped
    05 [b002421a|bf43b269] (11+13/24) Accurately ripped
    06 [96165c90|3a23e70d] (11+13/24) Accurately ripped
    07 [1173166a|409caac7] (11+13/24) Accurately ripped
    08 [2268aff7|424cc569] (11+13/24) Accurately ripped
    09 [0bd7c671|3c141ede] (11+13/24) Accurately ripped
    10 [7547f7e7|e93cea3a] (11+13/24) Accurately ripped
    11 [aa78a434|0334c3c4] (11+13/24) Accurately ripped
    12 [ccac2d37|0d94ab24] (11+13/24) Accurately ripped
    13 [f167694d|ba5ac658] (11+13/24) Accurately ripped
    14 [ae185e1a|2829ebfc] (11+13/24) Accurately ripped
    Track Peak [ CRC32 ] [W/O NULL] [ LOG ]
    -- 100,0 [95576B7B] [AA0E6269]
    01 71,3 [E74DBEB5] [B2B6BE2E] CRC32
    02 82,6 [A40B04E8] [D328F27E] CRC32
    03 58,3 [92523AB5] [428CCA07] CRC32
    04 62,4 [146336DC] [D2BEBC85] CRC32
    05 42,6 [9594B216] [5C5D59AE] CRC32
    06 89,2 [1BEA4B57] [6A958531] CRC32
    07 28,2 [08CC1B63] [950563B9] CRC32
    08 71,9 [23605D61] [4A2C521C] CRC32
    09 86,3 [0732FD34] [E7C606F3] CRC32
    10 100,0 [72625B88] [36A0B85E] CRC32
    11 99,1 [0E246FC9] [E9F0CEC1] CRC32
    12 99,1 [1151F99B] [FE27B087] CRC32
    13 38,3 [EA6E6A3A] [EF0DB435] CRC32
    14 97,6 [3491889B] [CCE2AECC] CRC32

    CUE sheetsCD 1

    TITLE "Johann Sebastian Bach: Messe h-moll, BWV 232"
    PERFORMER "Ton Koopman"
    REM GENRE Classical
    REM DISCID AA0C990C
    REM COMMENT "ExactAudioCopy v1.0b3"
    CATALOG 4509984780213
    FILE "01 - I. Kyrie - Chor - ''Kyrie eleison''.flac" WAVE
    TRACK 01 AUDIO
    TITLE "I. Kyrie: Chor: «Kyrie eleison»"
    PERFORMER "The Amsterdam Baroque Orchestra & Choir. Ton Koopman, conductor"
    REM DATE 1994
    INDEX 01 00:00:00
    TRACK 02 AUDIO
    TITLE "I. Kyrie: Duett (Sopran, Alt): «Christe eleison»"
    PERFORMER "Barbara Schlick, Kai Wessel, The Amsterdam Baroque Orchestra. Ton Koopman, conductor"
    REM DATE 1994
    INDEX 00 08:51:00
    FILE "02 - I. Kyrie - Duett (Sopran, Alt) - ''Christe eleison''.flac" WAVE
    INDEX 01 00:00:00
    TRACK 03 AUDIO
    TITLE "I. Kyrie: Chor: «Kyrie eleison»"
    PERFORMER "The Amsterdam Baroque Orchestra & Choir. Ton Koopman, conductor"
    REM DATE 1994
    INDEX 00 05:01:48
    FILE "03 - I. Kyrie - Chor - ''Kyrie eleison''.flac" WAVE
    INDEX 01 00:00:00
    TRACK 04 AUDIO
    TITLE "II. Gloria: Chor: «Gloria in excelsis»"
    PERFORMER "The Amsterdam Baroque Orchestra & Choir. Ton Koopman, conductor"
    REM DATE 1994
    INDEX 00 03:40:60
    FILE "04 - II. Gloria - Chor - ''Gloria in excelsis''.flac" WAVE
    INDEX 01 00:00:00
    FILE "05 - II. Gloria - Chor - ''Et in terra pax''.flac" WAVE
    TRACK 05 AUDIO
    TITLE "II. Gloria: Chor: «Et in terra pax»"
    PERFORMER "The Amsterdam Baroque Orchestra & Choir. Ton Koopman, conductor"
    REM DATE 1994
    INDEX 01 00:00:00
    TRACK 06 AUDIO
    TITLE "II. Gloria: Arie (Sopran): «Laudamus te»"
    PERFORMER "Barbara Schlick, The Amsterdam Baroque Orchestra. Ton Koopman, conductor"
    REM DATE 1994
    INDEX 00 04:38:38
    FILE "06 - II. Gloria - Arie (Sopran) - ''Laudamus te''.flac" WAVE
    INDEX 01 00:00:00
    TRACK 07 AUDIO
    TITLE "II. Gloria: Chor: «Gratias agimus tibi»"
    PERFORMER "The Amsterdam Baroque Orchestra & Choir. Ton Koopman, conductor"
    REM DATE 1994
    INDEX 00 04:21:05
    FILE "07 - II. Gloria - Chor - ''Gratias agimus tibi''.flac" WAVE
    INDEX 01 00:00:00
    TRACK 08 AUDIO
    TITLE "II. Gloria: Duett (Sopran, Tenor): «Domine Deus»"
    PERFORMER "Barbara Schlick, Guy de Mey, The Amsterdam Baroque Orchestra. Ton Koopman, conductor"
    REM DATE 1994
    INDEX 00 02:53:05
    FILE "08 - II. Gloria - Duett (Sopran, Tenor) - ''Domine Deus''.flac" WAVE
    INDEX 01 00:00:00
    FILE "09 - II. Gloria - Chor - ''Qui tollis peccata mundi''.flac" WAVE
    TRACK 09 AUDIO
    TITLE "II. Gloria: Chor: «Qui tollis peccata mundi»"
    PERFORMER "The Amsterdam Baroque Orchestra & Choir. Ton Koopman, conductor"
    REM DATE 1994
    INDEX 01 00:00:00
    TRACK 10 AUDIO
    TITLE "II. Gloria: Arie (Alt): «Qui sedes ad dextram Patris»"
    PERFORMER "Kai Wessel, The Amsterdam Baroque Orchestra. Ton Koopman, conductor"
    REM DATE 1994
    INDEX 00 03:25:28
    FILE "10 - II. Gloria - Arie (Alt) - ''Qui sedes ad dextram Patris''.flac" WAVE
    INDEX 01 00:00:00
    TRACK 11 AUDIO
    TITLE "II. Gloria: Arie (Baß): «Quoniam tu solus sanctus»"
    PERFORMER "Klaus Mertens, The Amsterdam Baroque Orchestra. Ton Koopman, conductor"
    REM DATE 1994
    INDEX 00 04:22:68
    FILE "11 - II. Gloria - Arie (Bass) - ''Quoniam tu solus sanctus''.flac" WAVE
    INDEX 01 00:00:00
    FILE "12 - II. Gloria - Chor - ''Cum sancto Spiritu''.flac" WAVE
    TRACK 12 AUDIO
    TITLE "II. Gloria: Chor: «Cum sancto Spiritu»"
    PERFORMER "The Amsterdam Baroque Orchestra & Choir. Ton Koopman, conductor"
    REM DATE 1994
    INDEX 01 00:00:00

    CD 2

    TITLE "Johann Sebastian Bach: Messe h-moll, BWV 232"
    PERFORMER "Ton Koopman"
    REM GENRE Classical
    REM DISCID AF0C8D0E
    REM COMMENT "ExactAudioCopy v1.0b3"
    CATALOG 4509984780220
    FILE "01 - III. Credo - Chor - ''Credo in unum Deum''.flac" WAVE
    TRACK 01 AUDIO
    TITLE "III. Credo: Chor: «Credo in unum Deum»"
    PERFORMER "The Amsterdam Baroque Orchestra & Choir. Ton Koopman, conductor"
    REM DATE 1994
    INDEX 01 00:00:00
    FILE "02 - III. Credo - Chor - ''Patrem omnipotentem''.flac" WAVE
    TRACK 02 AUDIO
    TITLE "III. Credo: Chor: «Patrem omnipotentem»"
    PERFORMER "The Amsterdam Baroque Orchestra & Choir. Ton Koopman, conductor"
    REM DATE 1994
    INDEX 01 00:00:00
    TRACK 03 AUDIO
    TITLE "III. Credo: Duett (Sopran, Alt): «Et in unum Dominum, Jesum Christum»"
    PERFORMER "Barbara Schlick, Kai Wessel, The Amsterdam Baroque Orchestra. Ton Koopman, conductor"
    REM DATE 1994
    INDEX 00 01:49:08
    FILE "03 - III. Credo - Duett (Sopran, Alt) - ''Et in unum Dominum, Jesum Christum''.flac" WAVE
    INDEX 01 00:00:00
    TRACK 04 AUDIO
    TITLE "III. Credo: Chor: «Et incarnatus est»"
    PERFORMER "The Amsterdam Baroque Orchestra & Choir. Ton Koopman, conductor"
    REM DATE 1994
    INDEX 00 04:18:53
    FILE "04 - III. Credo - Chor - ''Et incarnatus est''.flac" WAVE
    INDEX 01 00:00:00
    TRACK 05 AUDIO
    TITLE "III. Credo: Chor: «Crucifixus»"
    PERFORMER "The Amsterdam Baroque Orchestra & Choir. Ton Koopman, conductor"
    REM DATE 1994
    INDEX 00 03:23:05
    FILE "05 - III. Credo - Chor - ''Crucifixus''.flac" WAVE
    INDEX 01 00:00:00
    TRACK 06 AUDIO
    TITLE "III. Credo: Chor: «Et resurrexit»"
    PERFORMER "The Amsterdam Baroque Orchestra & Choir. Ton Koopman, conductor"
    REM DATE 1994
    INDEX 00 03:10:50
    FILE "06 - III. Credo - Chor - ''Et resurrexit''.flac" WAVE
    INDEX 01 00:00:00
    TRACK 07 AUDIO
    TITLE "III. Credo: Arie (Baß): «Et in Spiritum sanctum»"
    PERFORMER "Klaus Mertens, The Amsterdam Baroque Orchestra. Ton Koopman, conductor"
    REM DATE 1994
    INDEX 00 03:53:25
    FILE "07 - III. Credo - Arie (Bass) - ''Et in Spiritum sanctum''.flac" WAVE
    INDEX 01 00:00:00
    TRACK 08 AUDIO
    TITLE "III. Credo: Chor: «Confiteor unum baptisma»"
    PERFORMER "The Amsterdam Baroque Orchestra & Choir. Ton Koopman, conductor"
    REM DATE 1994
    INDEX 00 05:16:25
    FILE "08 - III. Credo - Chor - ''Confiteor unum baptisma''.flac" WAVE
    INDEX 01 00:00:00
    FILE "09 - III. Credo - Chor - ''Et expecto resurrectionem''.flac" WAVE
    TRACK 09 AUDIO
    TITLE "III. Credo: Chor: «Et expecto resurrectionem»"
    PERFORMER "The Amsterdam Baroque Orchestra & Choir. Ton Koopman, conductor"
    REM DATE 1994
    INDEX 01 00:00:00
    TRACK 10 AUDIO
    TITLE "IV. Sanctus: Chor: «Sanctus»"
    PERFORMER "The Amsterdam Baroque Orchestra & Choir. Ton Koopman, conductor"
    REM DATE 1994
    INDEX 00 02:05:53
    FILE "10 - IV. Sanctus - Chor - ''Sanctus''.flac" WAVE
    INDEX 01 00:00:00
    FILE "11 - IV. Sanctus - Chor - ''Osanna in excelsis''.flac" WAVE
    TRACK 11 AUDIO
    TITLE "IV. Sanctus: Chor: «Osanna in excelsis»"
    PERFORMER "The Amsterdam Baroque Orchestra & Choir. Ton Koopman, conductor"
    REM DATE 1994
    INDEX 01 00:00:00
    TRACK 12 AUDIO
    TITLE "IV. Sanctus: Chor: «Benedictus»"
    PERFORMER "The Amsterdam Baroque Orchestra & Choir. Ton Koopman, conductor"
    REM DATE 1994
    INDEX 00 02:29:70
    FILE "12 - IV. Sanctus - Chor - ''Benedictus''.flac" WAVE
    INDEX 01 00:00:00
    TRACK 13 AUDIO
    TITLE "V. Agnus Dei: Arie (Alt): «Agnus Dei»"
    PERFORMER "Kai Wessel, The Amsterdam Baroque Orchestra. Ton Koopman, conductor"
    REM DATE 1994
    INDEX 00 06:52:10
    FILE "13 - V. Agnus Dei - Arie (Alt) - ''Agnus Dei''.flac" WAVE
    INDEX 01 00:00:00
    TRACK 14 AUDIO
    TITLE "V. Agnus Dei: Chor: «Dona nobis pacem»"
    PERFORMER "The Amsterdam Baroque Orchestra & Choir. Ton Koopman, conductor"
    REM DATE 1994
    INDEX 00 05:20:18
    FILE "14 - V. Agnus Dei - Chor - ''Dona nobis pacem''.flac" WAVE
    INDEX 01 00:00:00
    -
    Johann Sebastian Bach — каталог раздач на rutracker.orgВсе мои раздачи / All my releases
    [teatrix.ru].t18031.torrent 
    Торрент: Зарегистрирован [ 2016-03-17 00:45 ] · 627590C0614D096D497636C59F18481FFF165D87

    Скачать .torrent

    Скачать

    23 KB

    Статус: проверено
    Скачан: 0 раз
    Размер: 483 MB
    terms.php



  • Быстрый ответ

    Имя:

          
    Для отправки сообщений необходимо включить JavaScript
    Показать сообщения:    

    Текущее время: 06-Дек 19:05

    Часовой пояс: UTC + 3


    Вы можете начинать темы
    Вы можете отвечать на сообщения
    Вы не можете редактировать свои сообщения
    Вы не можете удалять свои сообщения
    Вы не можете голосовать в опросах
    Вы не можете прикреплять файлы к сообщениям
    Вы можете скачивать файлы