(Classical / Romanticism) Antonin Dvorak - Concerto, Romance, Mazurek - Anne-Sophie Mutter - Berliner Philharmoniker - Manfred Honeck - 2013, FLAC (image+.cue) lossless


Статистика раздачи [Обновить пиров]
Размер:  247 MB   |    Зарегистрирован:  8 месяцев 17 дней   |    Скачан:  0 раз

Полного источника не было: Никогда

 
   
 
 
 

[Цитировать]

Antonín Dvořák - Concerto, Romance, Mazurek
Anne-Sophie Mutter - Berliner Philharmoniker - Manfred Honeck
Жанр: Classical / Romanticism
Страна-производитель диска: EU
Год издания диска: 2013
Издатель (лейбл): Deutsche Grammophon
Номер по каталогу: 479 1984 GH
Дата записи: 2013
Аудиокодек: FLAC
Тип рипа: image+.cue
Битрейт аудио: lossless
Продолжительность: 55:08
Источник: собственный рип
Наличие сканов в содержимом раздачи: да
Исполнители:
Anne-Sophie Mutter - violin
Berliner Philharmoniker
Manfred Honeck
Ayami Ikeba
- piano

Треклист:
Concerto for Violin and Orchestra in a minor Op.53
1. Allegro ma non troppo - attacca
2. Adagio ma non troppo
3. Finale. Allegro giocoso, ma non troppo
4. Romance for Violin and Orchestra in f minor Op.11
Andante con motto
5. Mazurek for violin and Orchestra in e minor Op.49
Allegro
6. Humoresque, in g flat major Op.101, No.7
Arranged for Violin and Piano by Fritz Kreisler
Poco lento e grazioso - Poco più vivo - Tempo I

EAC log

Exact Audio Copy V1.0 beta 3 from 29. August 2011
EAC extraction logfile from 27. December 2013, 23:27
Anne-Sophie Mutter, Berliner Philharmoniker, Manfred Koneck / Dvorák
Used drive : Optiarc DVD RW AD-7173A Adapter: 3 ID: 0
Read mode : Secure
Utilize accurate stream : Yes
Defeat audio cache : Yes
Make use of C2 pointers : No
Read offset correction : 48
Overread into Lead-In and Lead-Out : No
Fill up missing offset samples with silence : Yes
Delete leading and trailing silent blocks : No
Null samples used in CRC calculations : Yes
Used interface : Native Win32 interface for Win NT & 2000
Used output format : Internal WAV Routines
Sample format : 44.100 Hz; 16 Bit; Stereo
TOC of the extracted CD
Track | Start | Length | Start sector | End sector
---------------------------------------------------------
1 | 0:00.00 | 12:25.44 | 0 | 55918
2 | 12:25.44 | 11:25.31 | 55919 | 107324
3 | 23:51.00 | 9:54.08 | 107325 | 151882
4 | 33:45.08 | 12:14.53 | 151883 | 206985
5 | 45:59.61 | 5:54.06 | 206986 | 233541
6 | 51:53.67 | 3:12.11 | 233542 | 247952
Range status and errors
Selected range
Filename C:\Scanned\1\Anne-Sophie Mutter, Berliner Philharmoniker, Manfred Koneck - Dvorák.wav
Peak level 98.4 %
Extraction speed 4.8 X
Range quality 99.9 %
Copy CRC B0D3979C
Copy OK
No errors occurred
AccurateRip summary
Track 1 accurately ripped (confidence 3) [E926A3B4] (AR v2)
Track 2 accurately ripped (confidence 3) [6D265493] (AR v2)
Track 3 accurately ripped (confidence 3) [21ED21F4] (AR v2)
Track 4 accurately ripped (confidence 3) [A7DA5B9C] (AR v2)
Track 5 accurately ripped (confidence 3) [81F94FA3] (AR v2)
Track 6 accurately ripped (confidence 3) [4729759F] (AR v2)
All tracks accurately ripped
End of status report
==== Log checksum E63FA3C641409B3A79012D9BD05A618315E0105F0B3BE7B089FA9280AD6695D8 ====
[teatrix.ru].t18032.torrent 
Торрент: Зарегистрирован [ 2016-03-17 00:45 ] · 0949EDE02E321164D72A3BE7A48F560D7AC65BEC

Скачать .torrent

Скачать

20 KB

Статус: проверено
Скачан: 0 раз
Размер: 247 MB
terms.php



Быстрый ответ

Имя:

      
Для отправки сообщений необходимо включить JavaScript
Показать сообщения:    

Текущее время: 03-Дек 16:45

Часовой пояс: UTC + 3


Вы можете начинать темы
Вы можете отвечать на сообщения
Вы не можете редактировать свои сообщения
Вы не можете удалять свои сообщения
Вы не можете голосовать в опросах
Вы не можете прикреплять файлы к сообщениям
Вы можете скачивать файлы