(Classical, sacred) Francisco Lopez Capillas - Messe de la Bataille en Nouvelle Espagne - Ensemble Vocal De Profundis, Cristina Garcia Banegas - 2001, FLAC (image+.cue) lossless


Статистика раздачи [Обновить пиров]
Размер:  290 MB   |    Зарегистрирован:  8 месяцев 16 дней   |    Скачан:  0 раз

Полного источника не было: Никогда

 
   
 
 
 

[Цитировать]

Francisco López Capillas - Messe de la Bataille en Nouvelle Espagne - Ensemble Vocal De Profundis, Cristina Garcia Banegas
Жанр: Classical, sacred
Страна-производитель диска: France
Год издания диска: 2001
Издатель (лейбл): K617
Номер по каталогу: K617120
Дата записи: 2001
Аудиокодек: FLAC
Тип рипа: image+.cue
Битрейт аудио: lossless
Продолжительность: 63:26
Источник: собственный рип
Наличие сканов в содержимом раздачи: да
Треклист:
Francisco López Capillas (c.1608-1674)
Messe de la Bataille en Nouvelle Espagne
[1] Francisco López Capillas: Missa de la Batalla - Kyrie, Gloria
[2] Roland de Lassus: Aurora lucis rutilat
[3] Roland de Lassus: Magnificat sopra aurora lucis rutilat
[4] Anonyme (Nicolas Gombert?): Lugebat David Absalon
[5] Antonio de Cabezón: Motete Glosado sur Ave Maria de Josquin
[6] Francisco López Capillas: Missa de la Batalla - Credo
[7] Sebastian de Vivanco: Christus factus est pro nobis
[8] Anonyme: Batalha de 6 Tom
[9] Juan de Lienas: In die nativitatis
[10] Juan de Lienas: Miserere nobis
[11] Juan de Lienas: Tristis est anima mea
[12] Francisco López Capillas: Missa de la Batalla - Sanctus
[13] Aniceto Baylón: Te lucis ante terminum
[14] Francisco López Capillas: Missa de la Batalla - Agnus Dei
Исполнители:
Ensemble Vocal De Profundis
Cristina Garcia Banegas
direction

Лог создания рипа

Exact Audio Copy V1.0 beta 3 from 29. August 2011
EAC extraction logfile from 1. November 2013, 15:49
Ensemble Vocal De Profundis, Cristina Garcia Banegas / Messe de la Bataille en Nouvelle Espagne
Used drive : HL-DT-STDVDRRW GWA-4164B Adapter: 5 ID: 0
Read mode : Secure
Utilize accurate stream : Yes
Defeat audio cache : Yes
Make use of C2 pointers : No
Read offset correction : 102
Overread into Lead-In and Lead-Out : No
Fill up missing offset samples with silence : Yes
Delete leading and trailing silent blocks : No
Null samples used in CRC calculations : Yes
Used interface : Native Win32 interface for Win NT & 2000
Used output format : User Defined Encoder
Selected bitrate : 896 kBit/s
Quality : High
Add ID3 tag : No
Command line compressor : C:\Program Files\Exact Audio Copy\FLAC\FLAC.EXE
Additional command line options : -V -8 %source%
TOC of the extracted CD
Track | Start | Length | Start sector | End sector
---------------------------------------------------------
1 | 0:00.00 | 6:11.31 | 0 | 27855
2 | 6:11.31 | 4:15.05 | 27856 | 46985
3 | 10:26.36 | 7:06.21 | 46986 | 78956
4 | 17:32.57 | 8:56.27 | 78957 | 119183
5 | 26:29.09 | 6:31.66 | 119184 | 148574
6 | 33:01.00 | 6:08.10 | 148575 | 176184
7 | 39:09.10 | 4:28.23 | 176185 | 196307
8 | 43:37.33 | 5:56.62 | 196308 | 223069
9 | 49:34.20 | 1:54.05 | 223070 | 231624
10 | 51:28.25 | 1:09.13 | 231625 | 236812
11 | 52:37.38 | 3:41.68 | 236813 | 253455
12 | 56:19.31 | 0:59.54 | 253456 | 257934
13 | 57:19.10 | 4:48.63 | 257935 | 279597
14 | 62:07.73 | 2:01.55 | 279598 | 288727
Range status and errors
Selected range
Filename C:\temp\Messe de la Bataille en Nouvelle Espagne\Messe de la Bataille en Nouvelle Espagne.wav
Peak level 98.8 %
Extraction speed 2.7 X
Range quality 100.0 %
Test CRC 1A31E35F
Copy CRC 1A31E35F
Copy OK
No errors occurred
AccurateRip summary
Track 1 accurately ripped (confidence 2) [94DBDB85] (AR v2)
Track 2 accurately ripped (confidence 2) [D82D8FA9] (AR v2)
Track 3 accurately ripped (confidence 2) [A11430D0] (AR v2)
Track 4 accurately ripped (confidence 2) [0370905D] (AR v2)
Track 5 accurately ripped (confidence 2) [F0515D40] (AR v2)
Track 6 accurately ripped (confidence 2) [02224391] (AR v2)
Track 7 accurately ripped (confidence 2) [F35C13D0] (AR v2)
Track 8 accurately ripped (confidence 2) [62C92D0B] (AR v2)
Track 9 accurately ripped (confidence 2) [8CDC9FE2] (AR v2)
Track 10 accurately ripped (confidence 2) [D3E2496A] (AR v2)
Track 11 accurately ripped (confidence 2) [F22CE22C] (AR v2)
Track 12 accurately ripped (confidence 2) [89735BB0] (AR v2)
Track 13 accurately ripped (confidence 2) [6CA3B0CC] (AR v2)
Track 14 accurately ripped (confidence 2) [617FE888] (AR v2)
All tracks accurately ripped
End of status report
==== Log checksum 49A2E7CCFA63155C91CE1EE965B1DC6811B637880EB40BB23F7E7085E8B5F134 ====
[teatrix.ru].t18034.torrent 
Торрент: Зарегистрирован [ 2016-03-17 00:45 ] · 080F2FBC290572DBA1DBB4CF7B389F81AB4A06F0

Скачать .torrent

Скачать

25 KB

Статус: проверено
Скачан: 0 раз
Размер: 290 MB
terms.php



Быстрый ответ

Имя:

      
Для отправки сообщений необходимо включить JavaScript
Показать сообщения:    

Текущее время: 02-Дек 21:08

Часовой пояс: UTC + 3


Вы можете начинать темы
Вы можете отвечать на сообщения
Вы не можете редактировать свои сообщения
Вы не можете удалять свои сообщения
Вы не можете голосовать в опросах
Вы не можете прикреплять файлы к сообщениям
Вы можете скачивать файлы