(Classical / Vocal) Wolfgang Amadeus Mozart - Lieder / Songs / Вольфганг Амадей Моцарт - Песни (Edith Mathis, Karl Engel, 1986) - 1986, FLAC (image+.cue) lossless


 

[Цитировать]

Wolfgang Amadeus Mozart | Вольфганг Амадей Моцарт
(1756–1791)



Lieder | Songs | Песни


Edith Mathis sopranoKarl Engel piano


Жанр: Classical / Vocal
Дата и место записи: Zentralsaal, Bamberg, VIII.1986
Формат записи: DDD, Stereo
Год издания диска: 1986
Издатель (лейбл): Novalis
Номер по каталогу: 150 010-2
Аудиокодек: FLAC
Тип рипа: image+.cue
Битрейт аудио: lossless
Продолжительность: 46:01
Наличие сканов в содержимом раздачи: да
Источник: блог OdeonMusic


Tracklist / Треклист
An die Freude (Johann Peter Uz), KV 53 (47e) - 1:24
  • «Wie unglücklich bin ich nit» (anonymous), KV 147 (125g) - 0:54
  • «Oiseaux, si tous les ans» (Antoine Ferrand), KV 307 (284d) - 1:40
  • «Dans un bois solitaire» (Antoine Houdar de la Motte), KV 308 (295b) - 2:48
  • Die Zufriedenheit (Johann Martin Miller), KV 349 (367a) - 2:10
  • An die Hoffnung («Ich würd auf meinem Pfad») (Johann Timotheus Hermes), KV 390 (340c) - 1:48
  • An die Einsamkeit («Sei du mein Trost») (Johann Timotheus Hermes), KV 391 (340b) - 2:25
  • Der Zauberer (Christian Felix Weisse), KV 472 - 2:02
  • Die Zufriedenheit (Christian Felix Weisse), KV 473 - 2:46
  • Das Veilchen (Johann Wolfgang von Goethe), KV 476 - 2:41
  • Die Alte («Zu meiner Zeit») (Friedrich von Hagedorn), KV 517 - 3:03
  • Die Verschweigung (Christian Felix Weisse), KV 518 - 2:43
  • Als Luise die Briefe ihres ungetreuen Liebhabers verbrannte (Gabriele von Baumberg), KV 520 - 1:41
  • Abendempfindung an Laura (Joachim Heinrich Campe), KV 523 - 4:20
  • An Chloe (Johann Georg Jacobi), KV 524 - 2:51
  • Des kleinen Friedrichs Geburtstag (Johann Eberhard Friedrich Schall), KV 529 - 2:36
  • Die kleine Spinnerin (anonymous), KV 531 - 1:44
  • Sehnsucht nach dem Frühling (Christian Adolf Overbeck), KV 596 - 2:21
  • Im Frühlingsanfang (Der Frühling) (Christoph Christian Sturm), KV 597 - 2:11
  • Das Kinderspiel (Christian Adolph Overbeck), KV 598 - 1:52

    -

    EAC log / Отчёт EAC

    Exact Audio Copy V1.0 beta 3 from 29. August 2011
    EAC extraction logfile from 18. December 2013, 20:37
    Edith Mathis / Mozart - Lieder - Edith Mathis
    Used drive : TSSTcorpCDDVDW SH-222BB Adapter: 2 ID: 1
    Read mode : Secure
    Utilize accurate stream : Yes
    Defeat audio cache : Yes
    Make use of C2 pointers : No
    Read offset correction : 6
    Overread into Lead-In and Lead-Out : No
    Fill up missing offset samples with silence : Yes
    Delete leading and trailing silent blocks : No
    Null samples used in CRC calculations : Yes
    Used interface : Native Win32 interface for Win NT & 2000
    Used output format : User Defined Encoder
    Selected bitrate : 1024 kBit/s
    Quality : High
    Add ID3 tag : No
    Command line compressor : C:\Program Files\Exact Audio Copy\Flac\flac.exe
    Additional command line options : -8 -V -T "TITLE=%title%" -T "ARTIST=%artist%" -T "ALBUMARTIST=%albumartist%" -T "ALBUM=%albumtitle%" -T "DATE=%year%" -T "TRACKNUMBER=%tracknr%" -T "TRACKTOTAL=%numtracks%" -T "GENRE=%genre%" -T "COMMENT=%comment%" -T "PERFORMER=%albuminterpret%" -T "COMPOSER=%composer%" %source% -o %dest%
    TOC of the extracted CD
    Track | Start | Length | Start sector | End sector
    ---------------------------------------------------------
    1 | 0:00.32 | 1:23.45 | 32 | 6301
    2 | 1:24.02 | 0:54.00 | 6302 | 10351
    3 | 2:18.02 | 1:39.68 | 10352 | 17844
    4 | 3:57.70 | 2:48.37 | 17845 | 30481
    5 | 6:46.32 | 2:10.33 | 30482 | 40264
    6 | 8:56.65 | 1:48.07 | 40265 | 48371
    7 | 10:44.72 | 2:25.23 | 48372 | 59269
    8 | 13:10.20 | 2:01.62 | 59270 | 68406
    9 | 15:12.07 | 2:45.63 | 68407 | 80844
    10 | 17:57.70 | 2:41.15 | 80845 | 92934
    11 | 20:39.10 | 3:03.35 | 92935 | 106694
    12 | 23:42.45 | 2:42.45 | 106695 | 118889
    13 | 26:25.15 | 1:40.67 | 118890 | 126456
    14 | 28:06.07 | 4:20.35 | 126457 | 145991
    15 | 32:26.42 | 2:51.30 | 145992 | 158846
    16 | 35:17.72 | 2:36.13 | 158847 | 170559
    17 | 37:54.10 | 1:43.47 | 170560 | 178331
    18 | 39:37.57 | 2:21.03 | 178332 | 188909
    19 | 41:58.60 | 2:10.72 | 188910 | 198731
    20 | 44:09.57 | 1:52.10 | 198732 | 207141
    Range status and errors
    Selected range
    Filename G:\Ripped general\[2662] Mozart – Lieder – Edith Mathis\Mozart - Lieder - Edith Mathis.wav
    Peak level 96.4 %
    Extraction speed 2.3 X
    Range quality 99.9 %
    Test CRC B48F6EC4
    Copy CRC B48F6EC4
    Copy OK
    No errors occurred
    AccurateRip summary
    Track 1 cannot be verified as accurate (confidence 4) [B05E0BE5], AccurateRip returned [443F0939] (AR v2)
    Track 2 cannot be verified as accurate (confidence 4) [AF324D54], AccurateRip returned [16D4E1D8] (AR v2)
    Track 3 cannot be verified as accurate (confidence 4) [102900E7], AccurateRip returned [3298331F] (AR v2)
    Track 4 cannot be verified as accurate (confidence 4) [B61A93CA], AccurateRip returned [5DD727B5] (AR v2)
    Track 5 cannot be verified as accurate (confidence 4) [367DAF8A], AccurateRip returned [AE1B2865] (AR v2)
    Track 6 cannot be verified as accurate (confidence 4) [5826BE19], AccurateRip returned [111298DE] (AR v2)
    Track 7 cannot be verified as accurate (confidence 4) [C0F2E2EE], AccurateRip returned [96821AF0] (AR v2)
    Track 8 cannot be verified as accurate (confidence 4) [AB6A6370], AccurateRip returned [96062E90] (AR v2)
    Track 9 cannot be verified as accurate (confidence 4) [E10123BB], AccurateRip returned [6BAA26F6] (AR v2)
    Track 10 cannot be verified as accurate (confidence 4) [E19F322F], AccurateRip returned [D13229E2] (AR v2)
    Track 11 cannot be verified as accurate (confidence 3) [BC462A13], AccurateRip returned [26BD51C6] (AR v2)
    Track 12 cannot be verified as accurate (confidence 4) [E44E303A], AccurateRip returned [24CE48CC] (AR v2)
    Track 13 cannot be verified as accurate (confidence 3) [2A309C28], AccurateRip returned [9FB88199] (AR v2)
    Track 14 cannot be verified as accurate (confidence 3) [D9986730], AccurateRip returned [8A7E8373] (AR v2)
    Track 15 cannot be verified as accurate (confidence 4) [5FE00EBB], AccurateRip returned [4402FF93] (AR v2)
    Track 16 cannot be verified as accurate (confidence 4) [A62AEA8D], AccurateRip returned [19CA03C4] (AR v2)
    Track 17 cannot be verified as accurate (confidence 4) [0043E318], AccurateRip returned [F3DE4661] (AR v2)
    Track 18 cannot be verified as accurate (confidence 4) [4DB7BE0B], AccurateRip returned [82DDDAE0] (AR v2)
    Track 19 cannot be verified as accurate (confidence 4) [213D1A8D], AccurateRip returned [65A017A8] (AR v2)
    Track 20 cannot be verified as accurate (confidence 4) [A52B21BB], AccurateRip returned [D9B8DDC9] (AR v2)
    No tracks could be verified as accurate
    You may have a different pressing from the one(s) in the database
    End of status report

    auCDtect Task Manager log / Отчёт auCDtect Task Manager

    -----------------------
    DON'T MODIFY THIS FILE
    -----------------------
    PERFORMER: auCDtect Task Manager, ver. 1.5.1RC3 build 1.5.1.4
    Copyright (c) 2008-2010 y-soft. All rights reserved
    ANALYZER: auCDtect: CD records authenticity detector, version 0.8.2
    Copyright (c) 2004 Oleg Berngardt. All rights reserved.
    Copyright (c) 2004 Alexander Djourik. All rights reserved.
    FILE: Mozart. Lieder (Mathis, Engel).flac
    Size: 173140036 Hash: 97AF107E5DE8013825896F650277F081 Accuracy: -m0
    Conclusion: CDDA 100%
    Signature: 6D85D620998520B6357963F1FE803CDFF02F7482

    CUETools log / Отчёт CUETools

    [CUETools log; Date: 03.01.2014 10:43:00; Version: 2.1.4]
    Pregap length 00:00:32.
    [AccurateRip ID: 001f5df0-01dad816-200ac914] found.
    Track [ CRC | V2 ] Status
    01 [e41e8b80|b05e0be5] (0+0/4) No match
    02 [1f3949eb|af324d54] (0+0/4) No match
    03 [fe3829d1|102900e7] (0+0/4) No match
    04 [68232428|b61a93ca] (0+0/4) No match
    05 [bd2fab08|367daf8a] (0+0/4) No match
    06 [60b0927a|5826be19] (0+0/4) No match
    07 [4ecb7c59|c0f2e2ee] (0+0/6) No match
    08 [b38c49de|ab6a6370] (0+0/4) No match
    09 [cf31f8da|e10123bb] (0+0/6) No match
    10 [8aed8ff3|e19f322f] (0+0/4) No match
    11 [254264ce|bc462a13] (0+0/3) No match
    12 [bde3037a|e44e303a] (0+0/4) No match
    13 [b5c975a4|2a309c28] (0+0/3) No match
    14 [dd927852|d9986730] (0+0/5) No match
    15 [79fae536|5fe00ebb] (0+0/6) No match
    16 [0e08113a|a62aea8d] (0+0/6) No match
    17 [e3905718|0043e318] (0+0/6) No match
    18 [89192484|4db7be0b] (0+0/6) No match
    19 [57d890d5|213d1a8d] (0+0/6) No match
    20 [66d7a6c5|a52b21bb] (0+0/6) No match
    Track Peak [ CRC32 ] [W/O NULL] [ LOG ]
    -- 96,4 [B48F6EC4] [3226215B] CRC32
    01 77,8 [B309BA3A] [90015233]
    02 85,4 [4FDF9EDA] [8CBD61D0]
    03 85,1 [40EC059C] [7268A71A]
    04 58,3 [33F2C979] [B9609A7E]
    05 71,3 [6D96E15E] [B6E2C945]
    06 89,0 [80739957] [9BE64217]
    07 62,2 [B9AB7773] [D1EA0D18]
    08 90,9 [B02D66DF] [9B4D5FC5]
    09 46,3 [F5CC4E4B] [A17DA99D]
    10 74,2 [69FC8C88] [BCE1263B]
    11 42,8 [61D67316] [4400D071]
    12 42,5 [64069227] [9C76507A]
    13 63,1 [89A0F72B] [89940355]
    14 61,1 [8BD8DB94] [8097772D]
    15 84,9 [C56DAA33] [DBE90F8B]
    16 59,5 [013EA907] [F64F0C6D]
    17 63,8 [3DC6FFA4] [C30AA9E2]
    18 96,4 [A49F3290] [69BF8D09]
    19 55,8 [74477EB4] [F99C2BC8]
    20 58,9 [D80BDCA7] [AC86EEA1]

    CUE sheet

    TITLE "Wolfgang Amadeus Mozart: Lieder"
    PERFORMER "Edith Mathis"
    REM GENRE Classical
    REM DISCID 200AC914
    REM COMMENT "ExactAudioCopy v1.0b3"
    FILE "Mozart. Lieder (Mathis, Engel).flac" WAVE
    TRACK 01 AUDIO
    TITLE "An die Freude (Johann Peter Uz), KV 53 (47e)"
    PERFORMER "Edith Mathis (soprano), Karl Engel (piano)"
    REM DATE 1986
    INDEX 00 00:00:00
    INDEX 01 00:00:32
    TRACK 02 AUDIO
    TITLE "«Wie unglücklich bin ich nit» (anonymous), KV 147 (125g)"
    PERFORMER "Edith Mathis (soprano), Karl Engel (piano)"
    REM DATE 1986
    INDEX 00 01:20:22
    INDEX 01 01:24:02
    TRACK 03 AUDIO
    TITLE "«Oiseaux, si tous les ans» (Antoine Ferrand), KV 307 (284d)"
    PERFORMER "Edith Mathis (soprano), Karl Engel (piano)"
    REM DATE 1986
    INDEX 00 02:15:00
    INDEX 01 02:18:02
    TRACK 04 AUDIO
    TITLE "«Dans un bois solitaire» (Antoine Houdar de la Motte), KV 308 (295b)"
    PERFORMER "Edith Mathis (soprano), Karl Engel (piano)"
    REM DATE 1986
    INDEX 00 03:53:70
    INDEX 01 03:57:70
    TRACK 05 AUDIO
    TITLE "Die Zufriedenheit (Johann Martin Miller), KV 349 (367a)"
    PERFORMER "Edith Mathis (soprano), Karl Engel (piano)"
    REM DATE 1986
    INDEX 00 06:43:65
    INDEX 01 06:46:32
    TRACK 06 AUDIO
    TITLE "An die Hoffnung («Ich würd auf meinem Pfad») (Johann Timotheus Hermes), KV 390 (340c)"
    PERFORMER "Edith Mathis (soprano), Karl Engel (piano)"
    REM DATE 1986
    INDEX 00 08:52:60
    INDEX 01 08:56:65
    TRACK 07 AUDIO
    TITLE "An die Einsamkeit («Sei du mein Trost») (Johann Timotheus Hermes), KV 391 (340b)"
    PERFORMER "Edith Mathis (soprano), Karl Engel (piano)"
    REM DATE 1986
    INDEX 00 10:41:10
    INDEX 01 10:44:72
    TRACK 08 AUDIO
    TITLE "Der Zauberer (Christian Felix Weisse), KV 472"
    PERFORMER "Edith Mathis (soprano), Karl Engel (piano)"
    REM DATE 1986
    INDEX 00 13:06:35
    INDEX 01 13:10:20
    TRACK 09 AUDIO
    TITLE "Die Zufriedenheit (Christian Felix Weisse), KV 473"
    PERFORMER "Edith Mathis (soprano), Karl Engel (piano)"
    REM DATE 1986
    INDEX 00 15:08:57
    INDEX 01 15:12:07
    TRACK 10 AUDIO
    TITLE "Das Veilchen (Johann Wolfgang von Goethe), KV 476"
    PERFORMER "Edith Mathis (soprano), Karl Engel (piano)"
    REM DATE 1986
    INDEX 00 17:52:32
    INDEX 01 17:57:70
    TRACK 11 AUDIO
    TITLE "Die Alte («Zu meiner Zeit») (Friedrich von Hagedorn), KV 517"
    PERFORMER "Edith Mathis (soprano), Karl Engel (piano)"
    REM DATE 1986
    INDEX 00 20:35:40
    INDEX 01 20:39:10
    TRACK 12 AUDIO
    TITLE "Die Verschweigung (Christian Felix Weisse), KV 518"
    PERFORMER "Edith Mathis (soprano), Karl Engel (piano)"
    REM DATE 1986
    INDEX 00 23:39:37
    INDEX 01 23:42:45
    TRACK 13 AUDIO
    TITLE "Als Luise die Briefe ihres ungetreuen Liebhabers verbrannte (Gabriele von Baumberg), KV 520"
    PERFORMER "Edith Mathis (soprano), Karl Engel (piano)"
    REM DATE 1986
    INDEX 00 26:21:20
    INDEX 01 26:25:15
    TRACK 14 AUDIO
    TITLE "Abendempfindung an Laura (Joachim Heinrich Campe), KV 523"
    PERFORMER "Edith Mathis (soprano), Karl Engel (piano)"
    REM DATE 1986
    INDEX 00 28:02:10
    INDEX 01 28:06:07
    TRACK 15 AUDIO
    TITLE "An Chloe (Johann Georg Jacobi), KV 524"
    PERFORMER "Edith Mathis (soprano), Karl Engel (piano)"
    REM DATE 1986
    INDEX 00 32:21:10
    INDEX 01 32:26:42
    TRACK 16 AUDIO
    TITLE "Des kleinen Friedrichs Geburtstag (Johann Eberhard Friedrich Schall), KV 529"
    PERFORMER "Edith Mathis (soprano), Karl Engel (piano)"
    REM DATE 1986
    INDEX 00 35:13:45
    INDEX 01 35:17:72
    TRACK 17 AUDIO
    TITLE "Die kleine Spinnerin (anonymous), KV 531"
    PERFORMER "Edith Mathis (soprano), Karl Engel (piano)"
    REM DATE 1986
    INDEX 00 37:49:45
    INDEX 01 37:54:10
    TRACK 18 AUDIO
    TITLE "Sehnsucht nach dem Frühling (Christian Adolf Overbeck), KV 596"
    PERFORMER "Edith Mathis (soprano), Karl Engel (piano)"
    REM DATE 1986
    INDEX 00 39:34:10
    INDEX 01 39:37:57
    TRACK 19 AUDIO
    TITLE "Im Frühlingsanfang (Der Frühling) (Christoph Christian Sturm), KV 597"
    PERFORMER "Edith Mathis (soprano), Karl Engel (piano)"
    REM DATE 1986
    INDEX 00 41:53:60
    INDEX 01 41:58:60
    TRACK 20 AUDIO
    TITLE "Das Kinderspiel (Christian Adolph Overbeck), KV 598"
    PERFORMER "Edith Mathis (soprano), Karl Engel (piano)"
    REM DATE 1986
    INDEX 00 44:07:47
    INDEX 01 44:09:57
    -
    Wolfgang Amadeus Mozart — каталог раздач на rutracker.orgВсе мои раздачи / All my releases



  • Показать сообщения:    

    Текущее время: 10-Дек 17:42

    Часовой пояс: UTC + 3


    Вы не можете начинать темы
    Вы не можете отвечать на сообщения
    Вы не можете редактировать свои сообщения
    Вы не можете удалять свои сообщения
    Вы не можете голосовать в опросах
    Вы не можете прикреплять файлы к сообщениям
    Вы не можете скачивать файлы