Знаменитые инкогнито (все 4 серии) [Культура 06.01.2014] (Юрий Поскакухин) [2013 г., Документальный сериал, SATRip]


Статистика раздачи [Обновить пиров]
Размер:  1.51 GB   |    Зарегистрирован:  8 месяцев 22 дня   |    Скачан:  0 раз

Полного источника не было: Никогда

 
   
 
 
 

[Цитировать]

Знаменитые инкогнито
Дата эфира: 03-06.01.2014
Год выпуска: 2013 г.
Страна: Россия
Жанр: Документальный
Продолжительность: по ~26 мин.
Автор и режиссер: Галина Коршикова
Режиссер: Юрий Поскакухин
Перевод: Не требуется
Русские субтитры: нет
Производство: НП ИКА "СМИБ"
Описание: Для российской публики их фигуры едва различимы, но в центре сериала именно они - те, кто, будучи признан талантом, не ставил перед собой задачу успешной социализации в и стал неформатным явлением...
Их жизнь - вызов стереотипам. Их жизненные инстинкты не направлены к главным соблазнам мира - величию и славе, к силе или победе. Их творческий поиск не находится в сфере общих тенденций, направлений и стилей. Это художники-одиночки, экспериментирующие на стыке разных жанров, разных эпох. Во многом благодаря им создается новая культурная реальность, когда о вечных смыслах говорят на современном языке.


Релиз группы:
Качество: SATRip
Формат: AVI
Видео: 704x528 (1.33:1), 25 fps, XviD ~1901 kbps, 0.12 bit/pixel
Аудио: 48 kHz, MPEG Layer 3, 2 ch, ~224 kbps avg

MediaInfo:

Общее
Полное имя : F:\Torrents\Znamenitye_inkognito_(Kul'tura)_[rutracker.org]\01_Vjacheslav_Kolejchuk-Master_nevozmozhogo_03.01.2014.avi
Формат : AVI
Формат/Информация : Audio Video Interleave
Размер файла : 399 Мбайт
Продолжительность : 26 м.
Общий поток : 2144 Кбит/сек
Программа кодирования : VirtualDubMod 1.6.0.0 SURROUND (build 2560/release)
Библиотека кодирования : VirtualDubMod build 2560/release
Видео
Идентификатор : 0
Формат : MPEG-4 Visual
Профиль формата : Advanced Simple@L5
Параметр BVOP формата : 2
Параметр QPel формата : Нет
Параметр GMC формата : Без точки перехода
Параметр матрицы формата : Default (MPEG)
Идентификатор кодека : XVID
Идентификатор кодека/Подсказка : XviD
Продолжительность : 26 м.
Битрейт : 1901 Кбит/сек
Ширина : 704 пикселя
Высота : 528 пикселей
Соотношение сторон : 5:4
Соотношение сторон в оригинале : 4:3
Частота кадров : 50,000 кадров/сек
Цветовое пространство : YUV
Субдискретизация насыщенности : 4:2:0
Битовая глубина : 8 бит
Тип развёртки : Прогрессивная
Метод сжатия : С потерями
Бит/(Пиксели*Кадры) : 0.102
Размер потока : 354 Мбайт (89%)
Библиотека кодирования : XviD 1.2.1 (UTC 2008-12-04)
Аудио
Идентификатор : 1
Формат : MPEG Audio
Версия формата : Version 1
Профиль формата : Layer 3
Режим : Joint stereo
Расширение режима : MS Stereo
Идентификатор кодека : 55
Идентификатор кодека/Подсказка : MP3
Продолжительность : 26 м.
Вид битрейта : Постоянный
Битрейт : 224 Кбит/сек
Каналы : 2 канала
Частота : 48,0 КГц
Метод сжатия : С потерями
Размер потока : 41,7 Мбайт (10%)
Выравнивание : Разделение по промежуткам
Продолжительность промежутка : 20 мс. (1,00 видеокадр)
Время предзагрузки промежутка : 500 мс.
Библиотека кодирования : LAME3.99r
Настройки программы : -m j -V 4 -q 3 -lowpass 19.4 -b 224

Скриншоты (превью, увеличение по клику):

Список серий:

1-я серия. "Вячеслав Колейчук. Мастер невозможного" (эфир 03.01.2014):
Вячеслав Колейчук - художник, технический дизайнер, кинетик и создатель мира "ржавой цивилизации" в фильме Георгия Данелии "Кин-дза-дза". О жизни и творчестве В. Колейчука и о той роли, которую играет творчество художника в развитии современного искусства.
Имя файла: 01_Vjacheslav_Kolejchuk-Master_nevozmozhogo_03.01.2014.avi
2-я серия. "Антон Адасинский и театр "DEREVO" (эфир 04.01.2014):
Антон Адасинский и его театр "DEREVO" вынуждены были покинуть Россию в конце 80-х, обосновавшись в Германии. За 20 с лишним лет слава этого "физического" театра вышла далеко за пределы Европы. Об истории возникновения театра "DEREVO", о его художественной уникальности в мире современного театра движения и танца. Участвует А. Адасинский.
Имя файла: 02_Anton_Adasinskij_i_teatr_DEREVO_04.01.2014.avi
3-я серия. "Загадка голоса Саинхо Намчылак" (эфир 05.01.2014):
Саинхо Намчылак называют "волшебным голосом Тувы". Техника ее пения разнообразна - от тувинского горлового пения "хоомей", тибетского двухголосия к вызывающим головокружение самым низким и самым высоким пределам вокала. Постоянно живя в Вене, певица гастролирует по всему миру.
Съемки проходили в Туве, Гонконге и Москве.
Имя файла: 03_Zagadka_golosa_Sainho_Namchylak_05.01.2014_IPTVRip.avi
4-я серия. "Artland Теодора Тэжика" (эфир 06.01.2014):
Творчество Теодора Тэжика объединяет живопись и скульптуру, работу художника-постановщика в кино и сценографию в драматическом театре, опере и балете. Как художник-постановщик работал с Рустамом Хамдамовым, Александром Миттой, Александром Кайдановским, Вячеславом Полуниным, Георгием Данелия. Сегодня художник с друзьями со всего света занимается реставрацией купленного в Чехии здания. Это будет их "ARTLAND", собственный культурный центр.
Имя файла: 04_Artland_Teodora_Tehzhika_06.01.2014-bk.avi
Файл без концовки (~1,5 мин). У кого он есть полностью, пожалуйста, предложите.
Добавил 2-ю, 3-ю и 4-ю серии (эфир 04-06.01.2014). Пожалуйста, обновите торрент-файл.
На раздаче круглосуточно, ~20 Mb/s. > [Что от меня зависит, сделал. Остальное зависит от Вас, трекера и наших провайдеров.]
[teatrix.ru].t18036.torrent 
Торрент: Зарегистрирован [ 2016-03-17 00:45 ] · 594A464B4687CE0609391348A6CCC3A9A2E9CC85

Скачать .torrent

Скачать

16 KB

Статус: проверено
Скачан: 0 раз
Размер: 1.51 GB
terms.php



Быстрый ответ

Имя:

      
Для отправки сообщений необходимо включить JavaScript
Показать сообщения:    

Текущее время: 08-Дек 01:17

Часовой пояс: UTC + 3


Вы можете начинать темы
Вы можете отвечать на сообщения
Вы не можете редактировать свои сообщения
Вы не можете удалять свои сообщения
Вы не можете голосовать в опросах
Вы не можете прикреплять файлы к сообщениям
Вы можете скачивать файлы